osu file format v14

[General]
AudioFilename: audio.mp3
AudioLeadIn: 0
PreviewTime: -1
Countdown: 1
SampleSet: None
StackLeniency: 0.7
Mode: 0
LetterboxInBreaks: 0
WidescreenStoryboard: 0

[Editor]
DistanceSpacing: 0.8
BeatDivisor: 4
GridSize: 4
TimelineZoom: 1

[Metadata]
Title:Suicide Song
TitleUnicode:Suicide Song
Artist:Kony
ArtistUnicode:Kony
Creator:Naikou Iwamoto
Version:Suicide
Source:
Tags:Nashimoto-P Jisatsu Bushi Kony
BeatmapID:1743100
BeatmapSetID:831971

[Difficulty]
HPDrainRate:7
CircleSize:4.5
OverallDifficulty:8
ApproachRate:9
SliderMultiplier:1.4
SliderTickRate:1

[Events]
//Background and Video events
0,0,"Suicide Song.png",0,0
//Break Periods
2,11007,14678
2,84951,91184
//Storyboard Layer 0 (Background)
//Storyboard Layer 1 (Fail)
//Storyboard Layer 2 (Pass)
//Storyboard Layer 3 (Foreground)
//Storyboard Sound Samples

[TimingPoints]
667,422.535211267606,4,1,0,100,1,0
667,-100,4,3,0,100,0,0
15561,-100,4,3,0,100,0,0
27709,-66.6666666666667,4,2,0,100,0,0
28448,-100,4,2,0,100,0,0
30455,-100,4,2,0,100,0,0
37212,-100,4,1,0,100,0,1
51161,-100,4,3,0,100,0,0
71019,-100,4,3,0,100,0,1
84962,-100,4,2,0,100,0,0
91723,-100,4,2,0,100,0,0
98272,-66.6666666666667,4,1,0,100,0,0
98695,-100,4,3,0,100,0,0
122146,-100,4,1,0,100,0,1
146731,-100,4,2,0,13,0,1
146864,-100,4,1,0,100,0,1
151092,-100,4,1,0,100,0,0

[HitObjects]
139,70,667,5,12,1:2:0:0:
333,145,878,1,0,0:0:0:0:
333,145,983,1,0,2:0:0:0:
333,145,1089,2,0,L|420:174,1,70
430,318,1723,1,8,1:2:0:0:
159,164,1934,1,8,1:2:0:0:
88,110,2357,5,12,3:2:0:0:
239,113,2568,1,0,2:0:0:0:
239,113,2674,1,0,2:0:0:0:
239,113,2779,2,0,L|313:116,1,70
440,99,3413,2,8,P|405:97|370:101,1,70,8|8,1:2|1:2,1:2:0:0:
356,103,3730,5,8,1:2:0:0:
342,107,3836,1,8,1:2:0:0:
329,113,3941,1,8,1:2:0:0:
316,118,4047,1,12,1:2:0:0:
295,131,4258,6,0,P|275:166|246:175,1,70,8|0,1:2|0:2,0:0:0:0:
192,164,4681,2,0,P|218:125|264:120,1,70,8|0,1:2|0:0,0:0:0:0:
343,81,5103,2,0,P|330:100|284:139,1,70,8|0,1:2|2:0,2:0:0:0:
240,119,5526,2,0,P|284:75|312:75,1,70,8|0,1:2|2:0,2:0:0:0:
355,47,5948,5,8,1:2:0:0:
412,142,6159,1,0,0:0:0:0:
365,250,6371,1,8,1:2:0:0:
279,316,6582,1,0,0:0:0:0:
147,308,6793,1,8,1:2:0:0:
57,213,7005,2,0,B|-19:201|141:129|29:97|17:85,1,140,8|0,1:2|0:0,1:0:0:0:
134,33,7638,5,8,1:2:0:0:
162,41,7744,1,8,1:2:0:0:
190,53,7850,1,0,3:0:0:0:
130,168,8061,2,0,P|172:182|202:152,1,70,8|0,1:2|0:0,0:0:0:0:
314,85,8483,1,8,1:2:0:0:
314,85,8695,1,0,0:0:0:0:
314,85,8906,2,0,P|368:45|386:41,1,70,8|0,1:2|0:0,0:0:0:0:
460,127,9328,2,0,P|437:169|394:184,1,70,8|0,1:2|1:0,1:0:0:0:
296,175,9751,5,8,1:2:0:0:
137,227,9962,1,0,0:0:0:0:
256,332,10174,1,8,1:2:0:0:
361,188,10385,1,8,1:2:0:0:
367,190,10490,1,8,1:2:0:0:
373,192,10596,2,8,L|453:208,1,70,8|12,1:2|1:2,1:2:0:0:
115,163,15878,5,12,1:2:0:0:
115,163,15983,1,0,0:0:0:0:
121,166,16089,1,0,0:0:0:0:
121,166,16300,2,0,L|181:206,1,70
308,285,16934,5,8,1:2:0:0:
449,139,17145,1,8,1:2:0:0:
315,117,17357,1,8,1:2:0:0:
279,109,17462,1,8,1:2:0:0:
247,105,17568,1,12,1:2:0:0:
51,166,17779,6,0,P|67:135|98:120,1,70,0|0,1:2|0:0,0:0:0:0:
141,257,18202,2,0,P|157:226|162:182,2,70,8|0|8,1:2|0:0|1:2,0:0:0:0:
171,76,18836,1,0,0:0:0:0:
306,49,19047,1,8,1:2:0:0:
197,192,19258,1,0,0:0:0:0:
392,99,19469,1,8,1:2:0:0:
288,310,19681,1,0,0:0:0:0:
256,125,19892,1,8,1:2:0:0:
57,191,20103,1,0,0:0:0:0:
49,69,20314,2,0,L|150:63,1,70,8|0,1:2|0:0,0:0:0:0:
212,66,20737,5,8,1:2:0:0:
253,64,20843,1,8,1:2:0:0:
280,64,20948,1,4,0:2:0:0:
320,68,21054,1,0,0:0:0:0:
352,80,21159,1,8,1:2:0:0:
376,104,21265,1,0,0:0:0:0:
392,132,21371,2,0,L|364:152,4,35,0|0|8|0|0,0:0|0:0|1:2|0:0|0:0,0:0:0:0:
367,169,22005,6,8,B|294:207|232:196,1,140,8|8,1:2|1:2,1:2:0:0:
51,90,22638,2,0,L|135:78,1,70,0|8,0:0|1:2,0:0:0:0:
138,227,23061,2,0,L|68:236,2,70,0|8|0,0:0|1:2|0:0,0:0:0:0:
252,207,23695,1,8,1:2:0:0:
233,337,23906,2,8,L|317:325,1,70,8|8,1:2|1:2,1:2:0:0:
341,325,24223,1,8,1:2:0:0:
374,320,24328,1,12,1:2:0:0:
463,186,24540,5,8,1:2:0:0:
304,136,24751,1,0,0:0:0:0:
161,88,24962,2,0,L|74:60,2,70,8|0|8,1:2|0:0|1:2,0:0:0:0:
315,176,25596,1,0,0:0:0:0:
389,281,25807,2,0,P|355:285|328:265,1,70,8|0,1:2|0:0,0:0:0:0:
278,228,26229,2,0,P|318:266|354:251,1,70,8|0,1:2|0:0,0:0:0:0:
364,213,26652,2,0,P|356:246|328:264,1,70,8|0,1:2|2:0,2:0:0:0:
160,269,27074,2,0,P|128:257|106:231,1,70,8|0,1:2|0:0,0:0:0:0:
163,68,27497,1,8,1:2:0:0:
187,81,27603,1,8,1:2:0:0:
220,89,27709,6,0,L|276:109,1,52.5000020027161,4|0,0:0|0:0,0:0:0:0:
374,82,27920,2,0,L|323:106,1,52.5000020027161,8|0,1:2|0:0,0:0:0:0:
204,148,28131,2,0,L|269:172,1,52.5000020027161
389,137,28343,2,0,L|341:162,1,52.5000020027161,8|0,1:2|0:0,0:0:0:0:
319,176,28554,1,0,0:0:0:0:
243,269,28765,1,8,1:2:0:0:
349,265,28976,6,0,L|449:265,1,70,0|8,0:0|1:2,0:0:0:0:
249,174,29399,1,0,0:0:0:0:
133,96,29610,1,8,1:2:0:0:
126,257,29821,1,0,0:0:0:0:
249,174,30033,1,8,1:2:0:0:
133,96,30244,1,0,0:0:0:0:
79,262,30667,6,0,L|167:258,1,70
400,248,31089,1,4,0:0:0:0:
165,112,31512,1,8,3:3:0:0:
287,104,31723,1,8,3:3:0:0:
231,191,31934,1,8,3:3:0:0:
110,73,32357,6,0,L|177:120,1,70
308,232,32780,1,4,0:0:0:0:
281,152,33202,1,8,3:3:0:0:
391,187,33413,1,8,3:3:0:0:
305,244,33625,1,8,3:3:0:0:
209,179,34047,5,8,1:2:0:0:
164,82,34469,1,0,3:3:0:0:
250,79,34681,1,0,3:3:0:0:
411,135,34892,1,12,1:2:0:0:
329,96,35103,1,0,3:3:0:0:
316,186,35314,5,0,3:3:0:0:
230,297,35526,1,8,1:2:0:0:
120,232,35737,1,4,1:2:0:0:
120,232,35948,1,0,3:3:0:0:
172,72,36159,2,0,L|260:76,1,70,0|0,1:0|1:0,1:0:0:0:
96,180,36582,1,0,1:0:0:0:
252,184,36793,1,0,1:0:0:0:
404,181,37005,1,0,1:0:0:0:
120,72,37427,6,0,L|216:84,1,70,2|8,0:3|0:2,0:2:0:0:
342,108,37850,2,0,L|438:120,1,70,4|8,0:2|0:2,0:0:0:0:
476,127,38272,1,0,0:0:0:0:
390,248,38483,1,8,0:2:0:0:
256,263,38695,1,0,0:0:0:0:
122,204,38906,2,0,L|70:115,1,70,8|0,0:2|0:0,0:0:0:0:
111,21,39328,2,0,L|210:38,1,70,8|0,0:2|0:0,0:0:0:0:
346,84,39751,1,8,0:2:0:0:
397,196,39962,1,0,0:0:0:0:
232,78,40174,1,8,0:2:0:0:
144,151,40384,5,0,0:0:0:0:
161,172,40490,1,8,0:2:0:0:
181,191,40596,1,8,0:2:0:0:
204,206,40702,1,0,0:0:0:0:
227,221,40807,2,0,P|271:243|314:246,1,70,0|8,0:0|0:2,0:0:0:0:
99,97,41230,6,0,L|153:162,1,70,0|8,0:0|0:2,0:0:0:0:
261,258,41652,1,0,0:0:0:0:
349,112,41864,1,8,0:2:0:0:
129,118,42075,2,0,L|229:113,1,70,0|8,0:0|0:2,0:0:0:0:
299,114,42497,2,0,L|377:116,1,70,0|8,0:0|0:2,0:0:0:0:
388,231,42920,2,0,L|255:314,1,140
152,212,43554,1,8,0:2:0:0:
54,59,43765,1,0,0:0:0:0:
148,73,43976,5,8,0:2:0:0:
161,74,44082,1,8,0:2:0:0:
174,75,44188,6,8,L|270:87,1,70,8|8,0:2|0:2,0:2:0:0:
320,97,44610,1,4,0:2:0:0:
409,102,44821,2,0,P|434:145|426:190,1,70,8|0,0:2|0:0,0:0:0:0:
398,281,45244,1,8,0:2:0:0:
253,319,45455,1,0,0:0:0:0:
288,169,45667,1,8,0:2:0:0:
398,281,45878,1,0,0:0:0:0:
253,319,46089,1,8,0:2:0:0:
288,169,46300,1,0,0:0:0:0:
253,319,46512,5,8,0:2:0:0:
122,208,46723,1,0,0:0:0:0:
120,72,46934,2,0,L|216:84,1,70,8|0,0:2|0:0,0:0:0:0:
355,103,47357,5,8,0:2:0:0:
383,111,47462,1,8,0:2:0:0:
403,119,47568,1,0,3:0:0:0:
241,164,47779,1,8,0:2:0:0:
303,281,47990,2,4,P|163:277|103:165,1,280,4|4,2:0|2:0,2:0:0:0:
208,80,49258,6,0,L|376:84,1,140,0|4,0:0|0:2,0:0:0:0:
80,212,49892,2,8,L|116:212,2,35,8|8|8,0:2|0:2|0:2,0:2:0:0:
245,256,50314,1,8,0:2:0:0:
354,149,50737,1,8,0:2:0:0:
210,112,50948,1,8,0:2:0:0:
140,96,51371,6,0,L|224:96,1,70,4|8,0:2|0:2,0:0:0:0:
338,109,51793,1,0,0:0:0:0:
338,109,52005,1,8,0:2:0:0:
450,113,52216,2,0,P|473:142|457:198,1,70,0|8,0:0|0:2,0:0:0:0:
370,273,52638,2,0,P|338:304|287:314,1,70,0|8,0:0|0:2,0:0:0:0:
251,229,53061,5,0,0:0:0:0:
302,123,53272,1,8,0:2:0:0:
158,170,53483,1,0,0:0:0:0:
198,31,53695,1,8,0:2:0:0:
41,105,53906,2,0,L|65:176,1,70,0|8,0:0|0:2,0:0:0:0:
100,291,54329,5,0,0:0:0:0:
181,219,54434,1,0,0:0:0:0:
189,230,54540,1,8,0:2:0:0:
197,241,54646,1,0,0:0:0:0:
197,241,54751,2,0,L|281:241,2,70,0|8|0,0:0|0:2|0:0,0:0:0:0:
56,243,55385,5,8,0:2:0:0:
56,243,55596,1,0,0:0:0:0:
114,147,55807,1,8,0:2:0:0:
108,35,56019,2,0,L|202:41,1,70,0|8,0:0|0:2,0:0:0:0:
323,111,56441,5,0,0:0:0:0:
229,238,56652,1,8,0:2:0:0:
142,109,56864,1,0,0:0:0:0:
302,109,57075,1,8,0:2:0:0:
219,241,57286,2,0,L|369:249,1,140,0|0,0:0|0:2,0:0:0:0:
378,250,57814,1,0,0:0:0:0:
392,250,57920,1,0,0:2:0:0:
405,251,58026,1,0,0:0:0:0:
418,250,58131,2,0,L|389:192,1,35,4|0,0:2|0:0,0:0:0:0:
373,129,58448,5,0,0:0:0:0:
355,107,58554,1,0,0:0:0:0:
276,132,58765,2,0,L|206:183,1,70,8|0,0:2|0:0,0:0:0:0:
106,189,59188,1,8,0:2:0:0:
195,289,59399,2,0,L|267:358,2,70,0|8|0,0:0|0:2|0:0,0:0:0:0:
104,193,60033,1,8,0:2:0:0:
65,52,60244,1,0,0:0:0:0:
259,64,60455,1,8,0:2:0:0:
192,209,60667,1,0,0:0:0:0:
140,96,60878,1,8,0:2:0:0:
140,96,61089,6,0,L|224:96,1,70
325,96,61512,1,4,0:2:0:0:
456,96,61723,1,8,0:2:0:0:
372,207,61934,1,0,0:0:0:0:
190,208,62145,1,8,0:2:0:0:
145,49,62357,1,0,0:0:0:0:
169,61,62462,1,0,0:0:0:0:
191,77,62568,1,8,0:2:0:0:
211,96,62674,1,0,0:0:0:0:
226,118,62779,2,0,P|263:177|263:197,1,70,0|8,0:0|0:2,0:0:0:0:
276,265,63202,5,0,0:0:0:0:
164,215,63413,1,8,0:2:0:0:
262,175,63624,1,0,0:0:0:0:
374,128,63836,1,8,0:2:0:0:
248,62,64047,2,0,P|299:73|325:107,1,70,0|0,0:0|0:2,0:0:0:0:
334,104,64364,5,0,0:0:0:0:
346,125,64469,1,0,0:0:0:0:
317,244,64681,1,8,0:2:0:0:
165,190,64892,1,4,0:2:0:0:
317,244,65314,5,8,3:0:0:0:
139,277,65525,1,8,3:0:0:0:
220,138,65736,1,8,3:0:0:0:
54,95,66160,5,0,0:0:0:0:
159,202,66371,1,0,0:0:0:0:
239,67,66582,1,4,0:2:0:0:
239,67,67005,5,8,0:0:0:0:
296,160,67216,1,8,0:0:0:0:
402,90,67427,1,8,0:0:0:0:
402,90,67850,5,0,0:0:0:0:
357,209,68272,1,4,0:2:0:0:
281,63,68695,1,0,0:0:0:0:
194,259,69117,1,4,0:2:0:0:
86,87,69540,1,0,0:0:0:0:
181,86,69962,5,0,0:0:0:0:
354,178,70174,1,0,0:0:0:0:
213,216,70385,1,0,0:0:0:0:
307,59,70596,1,0,0:0:0:0:
213,216,70807,1,0,0:0:0:0:
176,72,71230,6,0,L|252:72,1,70,0|8,0:0|0:2,0:0:0:0:
358,102,71652,1,0,0:0:0:0:
358,102,71864,2,0,L|425:130,2,70,8|0|8,0:2|0:0|0:2,0:0:0:0:
176,72,72497,1,0,0:0:0:0:
86,76,72709,2,0,P|50:100|34:154,1,70,8|0,0:2|0:0,0:0:0:0:
39,255,73131,2,0,P|52:299|86:315,1,70,8|0,0:2|0:0,0:0:0:0:
199,317,73554,5,8,0:2:0:0:
316,200,73765,1,0,0:0:0:0:
203,66,73976,1,8,0:2:0:0:
98,193,74188,1,0,0:0:0:0:
98,193,74293,1,0,0:0:0:0:
98,193,74399,1,8,0:2:0:0:
98,193,74505,2,0,L|205:194,1,105,0|8,0:0|0:2,0:0:0:0:
325,194,75033,5,0,0:0:0:0:
246,88,75244,1,8,0:2:0:0:
172,193,75455,1,0,0:0:0:0:
325,194,75667,1,8,0:2:0:0:
246,88,75878,1,0,0:0:0:0:
178,198,76089,1,8,0:2:0:0:
245,41,76300,5,0,0:0:0:0:
365,155,76512,1,8,0:2:0:0:
365,155,76723,1,0,0:0:0:0:
246,252,76934,1,8,0:2:0:0:
365,155,77145,1,0,0:0:0:0:
208,154,77357,1,8,0:2:0:0:
411,290,77568,5,0,0:0:0:0:
411,290,77674,1,0,0:0:0:0:
411,290,77779,1,8,0:2:0:0:
411,290,77885,2,8,L|319:229,1,105,8|8,0:2|0:2,0:2:0:0:
242,187,78413,5,4,0:2:0:0:
115,102,78624,1,8,0:2:0:0:
248,59,78836,2,0,P|295:41|328:52,1,70,0|8,0:0|0:2,0:0:0:0:
443,68,79258,2,0,P|453:122|437:164,1,70,0|8,0:0|0:2,0:0:0:0:
403,231,79681,2,0,P|365:263|326:266,1,70,0|8,0:0|0:2,0:0:0:0:
223,169,80103,2,0,B|176:130|179:101|177:104,1,70,0|8,0:0|0:2,0:0:0:0:
290,170,80526,2,0,P|311:112|344:112,1,70,0|8,0:0|0:2,0:0:0:0:
288,226,80948,2,0,P|334:224|349:246,1,70,0|8,0:0|0:2,0:0:0:0:
224,228,81371,2,0,P|182:239|158:210,1,70,0|8,0:0|0:2,0:0:0:0:
219,42,81793,6,4,B|303:10|415:46|391:198,1,280,4|4,0:2|0:2,0:2:0:0:
224,203,83061,2,0,L|367:228,1,140,0|4,0:0|0:2,0:0:0:0:
120,192,83695,1,8,0:2:0:0:
147,195,83800,1,8,0:2:0:0:
174,202,83906,1,8,0:2:0:0:
361,227,84117,1,8,0:2:0:0:
148,72,84540,1,8,0:2:0:0:
374,206,84751,1,8,0:2:0:0:
168,96,91934,6,0,L|248:100,3,70,4|0|0|0,0:0|0:0|0:0|0:0,0:0:0:0:
241,219,92779,2,0,L|168:214,3,70
261,316,93624,5,4,0:0:0:0:
131,279,93836,1,0,0:0:0:0:
310,220,94047,1,0,0:0:0:0:
235,148,94259,1,0,0:0:0:0:
96,198,94469,1,0,0:0:0:0:
91,62,94681,1,0,0:0:0:0:
198,132,94892,5,0,0:0:0:0:
267,52,95104,1,0,0:0:0:0:
145,41,95314,5,4,0:0:0:0:
329,124,95526,1,0,0:0:0:0:
139,137,95737,1,0,0:0:0:0:
238,226,95948,1,0,0:0:0:0:
314,55,96159,5,4,0:0:0:0:
160,64,96371,1,0,0:0:0:0:
176,201,96582,1,0,0:0:0:0:
335,194,96793,1,0,0:0:0:0:
222,58,97005,5,4,0:0:0:0:
320,197,97216,1,0,0:0:0:0:
159,218,97427,1,4,0:0:0:0:
222,58,97638,1,0,0:0:0:0:
76,228,97850,2,0,L|176:240,1,70,4|0,0:0|0:0,0:0:0:0:
120,120,98272,2,4,P|160:56|124:124,1,210.000008010865,4|12,0:2|0:2,0:2:0:0:
152,232,98906,6,0,L|220:240,2,35,0|0|0,0:0|2:0|2:0,2:0:0:0:
78,222,99328,1,0,0:0:0:0:
251,187,99540,5,12,0:2:0:0:
340,186,99751,1,0,0:0:0:0:
349,185,99857,1,0,0:0:0:0:
353,185,99962,1,0,0:0:0:0:
431,192,100174,1,0,0:0:0:0:
201,175,100385,5,12,0:2:0:0:
276,176,100596,1,8,0:0:0:0:
291,176,100702,1,8,0:0:0:0:
305,175,100807,1,8,0:0:0:0:
167,152,101019,1,0,0:0:0:0:
373,198,101441,5,8,0:2:0:0:
122,131,101652,1,8,0:2:0:0:
136,146,101758,1,8,0:2:0:0:
136,146,101864,1,8,0:2:0:0:
136,146,101969,1,8,0:2:0:0:
136,146,102075,6,0,P|177:128|220:152,1,70,4|8,0:2|0:2,0:0:0:0:
312,200,102497,1,0,0:0:0:0:
207,42,102709,1,8,0:2:0:0:
370,73,102920,2,0,P|391:127|385:162,1,70,0|8,0:0|0:2,0:0:0:0:
375,201,103343,2,0,P|330:163|326:123,1,70,0|8,0:0|0:2,0:0:0:0:
411,91,103765,5,0,0:0:0:0:
267,298,103976,1,8,0:2:0:0:
254,167,104187,1,0,0:0:0:0:
91,123,104399,1,8,0:2:0:0:
259,52,104610,2,0,L|351:49,2,70,0|8|0,0:0|0:2|0:0,0:0:0:0:
70,53,105244,1,8,0:2:0:0:
127,93,105455,5,0,0:0:0:0:
150,108,105561,1,0,0:0:0:0:
173,123,105667,1,8,0:2:0:0:
195,138,105772,1,0,0:0:0:0:
217,155,105878,1,0,0:0:0:0:
238,172,105983,1,0,0:0:0:0:
263,182,106089,1,8,0:2:0:0:
289,190,106195,1,0,0:0:0:0:
315,197,106300,2,0,L|413:225,1,70,0|8,0:0|0:2,0:0:0:0:
211,172,106723,5,0,0:0:0:0:
321,204,106934,2,0,L|374:218,1,35,8|0,0:2|0:0,0:0:0:0:
442,236,107145,1,0,0:0:0:0:
277,116,107356,5,8,0:2:0:0:
123,64,107568,1,0,0:0:0:0:
113,234,107779,1,8,0:2:0:0:
209,103,107990,1,2,0:2:0:0:
350,230,108202,1,2,0:2:0:0:
256,54,108413,1,2,0:2:0:0:
294,250,108624,1,10,0:2:0:0:
154,176,108836,6,0,L|212:124,1,70,0|8,0:0|0:2,0:0:0:0:
293,66,109258,1,0,0:0:0:0:
125,195,109469,1,8,0:2:0:0:
292,196,109681,1,0,0:0:0:0:
292,196,109892,2,0,L|387:196,1,70,8|0,0:2|0:0,0:0:0:0:
496,201,110314,5,8,0:2:0:0:
497,72,110526,1,0,0:0:0:0:
364,73,110737,2,0,L|294:72,1,70,8|0,0:2|0:0,0:0:0:0:
234,142,111159,1,8,0:2:0:0:
141,232,111371,1,0,0:0:0:0:
122,112,111582,1,8,0:2:0:0:
122,112,111793,2,8,L|175:112,2,35,8|8|8,0:3|0:3|0:3,0:3:0:0:
239,121,112216,5,4,0:2:0:0:
256,124,112321,1,0,0:0:0:0:
272,129,112427,1,8,0:2:0:0:
288,135,112533,1,0,0:0:0:0:
303,141,112638,1,0,0:0:0:0:
319,148,112744,1,0,0:0:0:0:
335,154,112850,1,8,0:2:0:0:
351,159,112955,1,0,0:0:0:0:
367,168,113061,6,0,L|431:216,1,70,0|8,0:0|0:2,0:0:0:0:
226,183,113483,1,0,0:0:0:0:
280,255,113695,1,8,0:2:0:0:
99,144,113906,1,0,0:0:0:0:
171,258,114117,1,8,0:2:0:0:
102,231,114328,1,0,0:0:0:0:
73,73,114540,1,8,0:2:0:0:
81,156,114751,1,0,0:0:0:0:
212,62,115174,5,0,0:0:0:0:
416,116,115385,1,8,0:2:0:0:
214,155,115596,1,4,0:2:0:0:
185,52,115807,1,8,0:2:0:0:
331,192,116019,1,8,0:0:0:0:
207,261,116230,1,8,0:2:0:0:
279,83,116441,1,8,0:0:0:0:
467,103,116864,5,8,0:0:0:0:
102,90,117286,1,12,0:2:0:0:
207,261,117709,5,8,0:0:0:0:
373,207,117920,1,8,0:0:0:0:
259,88,118132,1,8,0:0:0:0:
129,311,118554,5,8,0:2:0:0:
189,55,118976,2,0,L|342:71,1,140,0|4,0:0|0:2,0:0:0:0:
382,322,119821,2,0,L|221:290,1,140,0|4,0:0|0:2,0:0:0:0:
96,246,120667,5,4,0:2:0:0:
226,149,120879,1,8,0:0:0:0:
256,290,121089,1,8,0:0:0:0:
112,181,121301,1,8,0:0:0:0:
302,234,121512,1,8,0:0:0:0:
68,84,121934,5,0,0:0:0:0:
68,84,122357,2,0,L|145:84,1,70,4|8,0:1|0:2,0:0:0:0:
295,93,122779,2,8,L|225:89,1,70,0|8,0:0|0:2,0:0:0:0:
84,101,123202,1,0,0:0:0:0:
172,203,123413,1,8,0:2:0:0:
295,236,123624,1,0,0:0:0:0:
437,218,123836,2,0,P|418:159|396:142,1,70,8|0,0:2|0:0,0:0:0:0:
325,71,124258,5,8,0:2:0:0:
161,159,124469,1,0,0:0:0:0:
273,268,124681,1,8,0:2:0:0:
214,109,124892,1,0,0:0:0:0:
341,86,125103,1,8,0:2:0:0:
341,86,125208,1,8,0:2:0:0:
341,86,125314,2,0,P|383:140|386:165,1,70,8|8,0:2|0:2,0:0:0:0:
344,276,125737,6,4,P|269:263|264:255,1,70,4|8,0:2|0:2,0:2:0:0:
194,178,126159,1,0,0:0:0:0:
413,185,126371,1,8,0:2:0:0:
281,78,126582,2,0,L|188:94,1,70,0|8,0:0|0:2,0:0:0:0:
227,271,127005,2,0,L|320:248,1,70,0|8,0:0|0:2,0:0:0:0:
394,180,127427,1,0,0:0:0:0:
249,97,127638,1,8,0:2:0:0:
151,211,127850,1,0,0:0:0:0:
307,268,128061,1,8,0:2:0:0:
427,159,128272,1,0,0:0:0:0:
343,70,128483,6,0,L|258:79,1,70,8|0,0:2|0:0,0:0:0:0:
114,80,128906,1,8,0:2:0:0:
114,80,129012,1,8,0:2:0:0:
114,80,129117,2,8,L|116:164,1,70,8|8,0:2|0:2,0:2:0:0:
251,206,129540,1,0,0:0:0:0:
410,173,129751,1,8,0:2:0:0:
298,73,129962,1,0,0:0:0:0:
138,78,130174,2,0,L|93:148,1,70,8|0,0:2|0:0,0:0:0:0:
87,311,130596,2,0,L|162:311,1,70,8|0,0:2|0:0,0:0:0:0:
272,240,131019,2,0,P|299:197|294:173,1,70,8|0,0:2|0:0,0:0:0:0:
189,99,131441,6,0,P|166:57|174:27,1,70,8|0,0:2|0:0,0:0:0:0:
338,50,131864,1,8,0:2:0:0:
405,170,132075,1,0,0:0:0:0:
344,303,132286,1,8,0:2:0:0:
238,234,132497,1,0,0:2:0:0:
296,126,132709,1,8,0:2:0:0:
434,132,132920,2,0,P|434:180|402:220,1,70,0|8,0:0|0:2,0:0:0:0:
303,248,133343,2,0,L|158:255,1,140
113,290,134188,5,12,3:2:0:0:
265,67,134399,1,4,1:2:0:0:
417,304,134611,1,12,3:2:0:0:
331,90,134822,1,12,3:2:0:0:
95,148,135033,1,12,3:2:0:0:
205,79,135455,6,0,P|266:77|279:90,1,70,0|8,0:0|0:2,0:0:0:0:
423,103,135878,2,0,P|393:142|368:148,1,70,0|8,0:0|0:2,0:0:0:0:
288,204,136300,1,0,0:0:0:0:
198,275,136512,2,0,P|154:297|123:264,1,70,8|0,0:2|0:0,0:0:0:0:
45,228,136934,2,0,P|70:200|107:193,1,70,8|0,0:2|0:0,0:0:0:0:
227,197,137357,5,8,0:2:0:0:
279,54,137568,1,0,0:0:0:0:
227,197,137779,1,8,0:2:0:0:
367,119,137990,1,0,0:0:0:0:
227,197,138202,1,8,0:2:0:0:
417,178,138413,1,0,0:0:0:0:
403,270,138624,5,8,0:2:0:0:
403,270,138730,1,8,0:2:0:0:
403,270,138836,2,8,P|368:306|337:316,1,70,8|8,0:2|0:2,0:2:0:0:
225,325,139258,2,0,L|133:294,1,70,12|0,0:2|0:2,0:0:0:0:
45,257,139681,1,0,0:0:0:0:
82,145,139892,1,8,0:2:0:0:
116,43,140103,2,0,L|218:52,1,70,0|8,0:0|0:2,0:0:0:0:
265,54,140526,2,0,P|334:75|343:98,1,70,0|8,0:0|0:2,0:0:0:0:
383,164,140948,5,0,0:0:0:0:
270,247,141159,1,8,0:2:0:0:
432,283,141371,1,0,0:0:0:0:
378,165,141582,1,8,0:2:0:0:
309,67,141793,2,0,L|163:59,1,140
78,124,142427,6,0,L|165:166,1,70,8|4,0:2|0:2,0:0:0:0:
297,162,142850,2,0,L|246:220,1,70,8|0,0:2|0:0,0:0:0:0:
43,221,143272,2,0,L|133:266,1,70,8|0,0:2|0:0,0:0:0:0:
224,289,143695,1,8,0:2:0:0:
351,289,143906,2,0,P|405:281|418:257,2,70,0|8|0,0:0|0:2|0:0,0:0:0:0:
225,291,144540,5,8,0:2:0:0:
83,171,144751,1,0,0:0:0:0:
211,63,144962,1,8,0:2:0:0:
330,194,145174,1,0,0:0:0:0:
208,110,145596,1,0,0:0:0:0:
377,63,146019,6,4,P|386:153|268:282,1,245,4|0,0:0|2:0,0:0:0:0:
251,285,146864,2,0,P|181:274|106:84,1,280,4|8,0:0|0:3,0:0:0:0:
122,85,147814,1,8,3:0:0:0:
146,71,147920,1,8,3:0:0:0:
171,59,148026,1,8,3:0:0:0:
198,57,148131,1,8,3:0:0:0:
309,57,148343,5,8,0:1:0:0:
446,53,148765,1,8,0:2:0:0:
263,253,148976,1,8,0:2:0:0:
84,69,149399,5,10,0:2:0:0:
203,140,149610,1,2,0:1:0:0:
227,153,149716,1,2,0:1:0:0:
249,169,149821,1,2,0:1:0:0:
389,243,150033,1,10,0:2:0:0:
133,105,150455,1,10,0:2:0:0:
389,243,150667,1,10,0:2:0:0:
399,169,151089,5,0,0:0:0:0:
374,282,151300,2,0,L|362:338,2,35,8|0|0,0:2|0:2|0:2,0:2:0:0:
397,165,151723,2,0,P|386:120|349:102,1,70,8|0,0:2|0:0,0:0:0:0:
262,88,152145,5,8,0:2:0:0:
121,117,152357,1,0,0:0:0:0:
205,218,152568,1,8,0:2:0:0:
303,263,152779,2,0,B|383:261,1,70,0|8,0:0|0:2,0:0:0:0:
451,216,153202,2,0,P|479:169|472:135,1,70,0|8,0:0|0:2,0:0:0:0:
406,88,153624,1,0,0:0:0:0:
288,72,153836,1,8,0:2:0:0:
288,72,154047,2,0,B|288:60|276:176|178:31|179:104,1,140,8|0,3:2|0:0,1:0:0:0:
97,173,154681,6,0,L|96:213,2,35,8|0|0,0:2|0:2|0:2,0:2:0:0:
164,279,155103,2,0,L|254:273,1,70,8|0,0:2|0:0,0:0:0:0:
353,271,155526,2,0,L|420:223,1,70,8|0,0:2|0:0,0:0:0:0:
351,109,155948,1,8,0:2:0:0:
260,39,156159,1,0,0:0:0:0:
174,126,156371,1,8,0:2:0:0:
119,281,156582,2,0,L|188:260,1,70,0|8,0:0|0:2,0:0:0:0:
299,189,157005,5,0,0:0:0:0:
399,81,157216,1,8,0:2:0:0:
333,138,157427,1,8,0:0:0:0:
313,158,157533,1,8,0:2:0:0:
291,176,157638,2,0,L|222:212,1,70,8|0,0:2|0:2,0:2:0:0:
72,186,158061,5,8,0:2:0:0:
80,159,158167,1,0,0:0:0:0:
88,140,158272,2,0,L|117:72,1,70,0|8,0:0|0:2,0:0:0:0:
264,94,158695,1,0,0:0:0:0:
388,135,158906,1,8,0:2:0:0:
282,265,159117,2,0,L|206:216,1,70,0|8,0:0|0:2,0:0:0:0:
149,135,159540,1,0,0:0:0:0:
314,137,159751,1,8,0:2:0:0:
220,259,159962,2,0,L|154:297,1,70,0|8,0:0|0:2,0:0:0:0:
105,139,160385,6,0,L|185:101,1,70,0|8,0:0|0:2,0:0:0:0:
315,104,160807,2,0,B|403:152|276:209|395:218,1,140
378,333,161441,2,8,L|313:325,2,35,8|8|8,0:2|0:2|0:2,0:2:0:0:
236,296,161864,2,0,L|151:254,1,70,8|0,0:2|0:2,0:2:0:0:
106,153,162286,2,0,L|185:120,1,70,8|0,0:2|0:0,0:0:0:0:
274,122,162709,5,0,0:2:0:0:
369,153,162920,1,0,0:0:0:0:
383,177,163026,1,0,0:0:0:0:
398,200,163131,1,8,0:2:0:0:
447,331,163343,1,8,0:2:0:0:
187,300,163554,1,8,0:2:0:0:
291,203,163765,5,8,0:3:0:0:
311,183,163871,1,8,0:3:0:0:
329,162,163976,1,8,0:3:0:0:
429,94,164188,1,12,1:2:0:0:
256,192,164399,12,4,169997,2:2:0:0:
