osu file format v14

[General]
AudioFilename: audio.mp3
AudioLeadIn: 0
PreviewTime: 107349
Countdown: 0
SampleSet: Normal
StackLeniency: 0.7
Mode: 1
LetterboxInBreaks: 0
WidescreenStoryboard: 1

[Editor]
DistanceSpacing: 0.8
BeatDivisor: 4
GridSize: 32
TimelineZoom: 3.299999

[Metadata]
Title:Toumei Elegy
TitleUnicode:透明エレジー
Artist:Konuko
ArtistUnicode:こぬこ
Creator:incandescence
Version:aabc's Oni
Source:
Tags:gabe veus nardoxyribonucleic aloda hikikochan hikiko- kinomicandy aabc271 Vocaloid 櫻花アリス n-buna ouka alice Megpoid Gumi utau japanese novelty taikocracy
BeatmapID:1538446
BeatmapSetID:563743

[Difficulty]
HPDrainRate:5
CircleSize:5
OverallDifficulty:5.5
ApproachRate:7
SliderMultiplier:1.4
SliderTickRate:1

[Events]
//Background and Video events
0,0,"toumeielegy.jpg",0,0
//Break Periods
//Storyboard Layer 0 (Background)
//Storyboard Layer 1 (Fail)
//Storyboard Layer 2 (Pass)
//Storyboard Layer 3 (Foreground)
//Storyboard Sound Samples

[TimingPoints]
1259,272.727272727273,4,1,0,76,1,0
1259,-125,4,1,0,76,0,0
9986,-100,4,1,0,88,0,0
27440,-100,4,1,0,82,0,0
27849,-101.522842639594,4,1,0,82,0,0
28259,-103.092783505155,4,1,0,82,0,0
28531,-104.166666666667,4,1,0,82,0,0
29622,-108.695652173913,4,1,0,82,0,0
31804,-113.636363636364,4,1,0,82,0,0
33986,-119.047619047619,4,1,0,82,0,0
36168,-113.636363636364,4,1,0,84,0,0
44895,-108.695652173913,4,1,0,86,0,0
49668,-106.382978723404,4,1,0,86,0,0
51440,-105.263157894737,4,1,0,86,0,0
51713,-104.712041884817,4,1,0,86,0,0
51986,-104.166666666667,4,1,0,87,0,0
52122,-103.896103896104,4,1,0,87,0,0
52259,-103.626943005181,4,1,0,87,0,0
52531,-103.092783505155,4,1,0,88,0,0
52668,-102.827763496144,4,1,0,88,0,0
52804,-102.564102564103,4,1,0,88,0,0
52940,-102.30179028133,4,1,0,88,0,0
53077,-102.040816326531,4,1,0,89,0,0
53349,-102.040816326531,4,1,0,89,0,0
53622,-100,4,1,0,90,0,1
71077,-100,4,1,0,80,0,0
71349,-100.250626566416,4,1,0,80,0,0
71622,-100.502512562814,4,1,0,80,0,0
71895,-100.755667506297,4,1,0,80,0,0
72031,-100.882723833543,4,1,0,80,0,0
72168,-101.010101010101,4,1,0,80,0,0
72304,-101.137800252844,4,1,0,80,0,0
72372,-101.201771030993,4,1,0,80,0,0
72440,-101.26582278481,4,1,0,80,0,0
72577,-101.394169835234,4,1,0,80,0,0
72713,-101.522842639594,4,1,0,80,0,0
72986,-101.781170483461,4,1,0,80,0,0
73122,-101.910828025478,4,1,0,80,0,0
73259,-102.040816326531,4,1,0,80,0,0
73531,-102.30179028133,4,1,0,80,0,0
73668,-102.432778489116,4,1,0,80,0,0
73804,-102.564102564103,4,1,0,80,0,0
74077,-102.827763496144,4,1,0,80,0,0
74349,-103.092783505155,4,1,0,80,0,0
74622,-103.359173126615,4,1,0,80,0,0
74759,-103.492884864166,4,1,0,80,0,0
74895,-103.626943005181,4,1,0,80,0,0
75031,-103.761348897536,4,1,0,80,0,0
75168,-103.896103896104,4,1,0,80,0,0
75440,-104.166666666667,4,1,0,80,0,0
79804,-100,4,1,0,84,0,0
81986,-104.166666666667,4,1,0,82,0,0
82259,-104.712041884818,4,1,0,82,0,0
82395,-104.98687664042,4,1,0,82,0,0
82531,-105.263157894737,4,1,0,82,0,0
82804,-105.820105820106,4,1,0,82,0,0
83077,-106.382978723404,4,1,0,82,0,0
83349,-106.951871657754,4,1,0,82,0,0
83622,-107.52688172043,4,1,0,82,0,0
83759,-107.816711590296,4,1,0,82,0,0
83895,-108.108108108108,4,1,0,82,0,0
84168,-108.695652173913,4,1,0,82,0,0
84577,-109.58904109589,4,1,0,82,0,0
84986,-110.497237569061,4,1,0,82,0,0
85259,-111.111111111111,4,1,0,82,0,0
85531,-111.731843575419,4,1,0,82,0,0
85668,-112.044817927171,4,1,0,82,0,0
85804,-112.359550561798,4,1,0,82,0,0
86077,-112.994350282486,4,1,0,82,0,0
86349,-113.636363636364,4,1,0,82,0,0
86759,-114.613180515759,4,1,0,82,0,0
87168,-115.606936416185,4,1,0,82,0,0
87440,-116.279069767442,4,1,0,82,0,0
88259,-118.343195266272,4,1,0,82,0,0
88531,-119.047619047619,4,1,0,82,0,0
89622,-119.047619047619,4,1,0,41,0,0
90440,-119.047619047619,4,1,0,82,0,0
90713,-113.636363636364,4,1,0,84,0,0
99440,-108.695652173913,4,1,0,88,0,0
103804,-106.382978723404,4,1,0,88,0,0
105986,-105.263157894737,4,1,0,88,0,0
106259,-104.712041884817,4,1,0,88,0,0
106395,-104.43864229765,4,1,0,88,0,0
106531,-104.166666666667,4,1,0,88,0,0
106804,-103.626943005181,4,1,0,88,0,0
106940,-103.359173126615,4,1,0,88,0,0
107077,-103.092783505155,4,1,0,89,0,0
107213,-102.827763496144,4,1,0,89,0,0
107281,-102.695763799743,4,1,0,89,0,0
107349,-102.564102564103,4,1,0,89,0,0
107622,-102.040816326531,4,1,0,89,0,0
107895,-101.522842639594,4,1,0,89,0,0
108168,-100,4,1,0,90,0,1
125622,-100,4,1,0,88,0,0
143077,-100,4,1,0,84,0,0
143622,-102.040816326531,4,1,0,84,0,0
144168,-104.166666666667,4,1,0,84,0,0
144440,-105.263157894738,4,1,0,84,0,0
144577,-105.820105820106,4,1,0,84,0,0
145258,-108.695652173913,4,1,0,84,0,0
145804,-111.111111111111,4,1,0,84,0,0
146077,-112.359550561798,4,1,0,84,0,0
146349,-113.636363636364,4,1,0,84,0,0
147440,-119.047619047619,4,1,0,84,0,0
161622,-125,4,1,0,84,0,0
162713,-131.578947368421,4,1,0,76,0,0
171168,-125,4,1,0,76,0,0
171440,-125,4,1,0,80,0,0
179077,-119.047619047619,4,1,0,80,0,0
179349,-113.636363636364,4,1,0,80,0,0
179622,-108.695652173913,4,1,0,80,0,0
179895,-104.166666666667,4,1,0,80,0,0
180168,-100,4,1,0,90,0,1
199804,-100,4,1,0,88,0,0

[HitObjects]
256,192,1259,5,0,0:0:0:0:
256,192,1531,5,8,0:0:0:0:
256,192,1804,5,0,0:0:0:0:
256,192,2349,5,8,0:0:0:0:
256,192,2486,5,0,0:0:0:0:
256,192,2622,1,0,0:0:0:0:
256,192,2759,5,8,0:0:0:0:
256,192,2895,5,0,0:0:0:0:
256,192,3440,1,0,0:0:0:0:
256,192,3713,1,0,0:0:0:0:
256,192,3849,5,8,0:0:0:0:
256,192,3986,5,0,0:0:0:0:
256,192,4259,5,8,0:0:0:0:
256,192,4531,5,0,0:0:0:0:
256,192,4804,5,8,0:0:0:0:
256,192,5077,5,0,0:0:0:0:
256,192,5349,5,8,0:0:0:0:
256,192,5622,5,0,0:0:0:0:
256,192,6440,1,0,0:0:0:0:
256,192,6577,1,0,0:0:0:0:
256,192,6713,5,8,0:0:0:0:
256,192,6986,5,0,0:0:0:0:
256,192,7259,1,0,0:0:0:0:
256,192,7531,5,8,0:0:0:0:
256,192,7804,1,8,0:0:0:0:
256,192,8349,5,0,0:0:0:0:
256,192,8759,1,0,0:0:0:0:
256,192,8895,5,8,0:0:0:0:
256,192,9168,1,8,0:0:0:0:
256,192,9304,1,8,0:0:0:0:
256,192,9440,1,8,0:0:0:0:
256,192,9713,5,0,0:0:0:0:
256,192,9986,5,12,0:0:0:0:
256,192,10122,5,0,0:0:0:0:
256,192,10190,1,0,0:0:0:0:
256,192,10259,5,8,0:0:0:0:
256,192,10395,1,8,0:0:0:0:
256,192,10668,1,8,0:0:0:0:
256,192,10804,5,0,0:0:0:0:
256,192,10940,5,8,0:0:0:0:
256,192,11077,5,0,0:0:0:0:
256,192,11213,5,8,0:0:0:0:
256,192,11281,1,8,0:0:0:0:
256,192,11349,5,0,0:0:0:0:
256,192,11622,1,0,0:0:0:0:
256,192,11759,5,8,0:0:0:0:
256,192,11895,1,8,0:0:0:0:
256,192,12031,5,0,0:0:0:0:
256,192,12168,1,0,0:0:0:0:
256,192,12440,5,8,0:0:0:0:
256,192,12577,1,8,0:0:0:0:
256,192,12713,5,0,0:0:0:0:
256,192,12986,5,8,0:0:0:0:
256,192,13122,5,0,0:0:0:0:
256,192,13395,1,0,0:0:0:0:
256,192,13531,5,8,0:0:0:0:
256,192,13804,5,0,0:0:0:0:
256,192,14077,1,0,0:0:0:0:
256,192,14213,5,8,0:0:0:0:
256,192,14349,1,8,0:0:0:0:
256,192,14486,5,0,0:0:0:0:
256,192,14554,5,8,0:0:0:0:
256,192,14622,5,0,0:0:0:0:
256,192,14759,1,0,0:0:0:0:
256,192,15031,1,0,0:0:0:0:
256,192,15168,5,8,0:0:0:0:
256,192,15577,5,0,0:0:0:0:
256,192,15713,1,0,0:0:0:0:
256,192,15849,5,8,0:0:0:0:
256,192,15986,1,8,0:0:0:0:
256,192,16122,1,8,0:0:0:0:
256,192,16190,1,8,0:0:0:0:
256,192,16259,5,0,0:0:0:0:
256,192,16395,1,0,0:0:0:0:
256,192,16531,5,8,0:0:0:0:
256,192,16804,5,0,0:0:0:0:
256,192,16940,5,8,0:0:0:0:
256,192,17077,5,0,0:0:0:0:
256,192,17349,5,8,0:0:0:0:
256,192,17622,5,0,0:0:0:0:
256,192,17895,5,8,0:0:0:0:
256,192,18168,1,8,0:0:0:0:
256,192,18440,5,0,0:0:0:0:
256,192,18713,5,12,0:0:0:0:
256,192,18849,5,0,0:0:0:0:
256,192,18918,1,0,0:0:0:0:
256,192,18986,5,8,0:0:0:0:
256,192,19122,1,8,0:0:0:0:
256,192,19395,1,8,0:0:0:0:
256,192,19531,5,0,0:0:0:0:
256,192,19668,5,8,0:0:0:0:
256,192,19804,5,0,0:0:0:0:
256,192,19872,5,8,0:0:0:0:
256,192,19940,1,8,0:0:0:0:
256,192,20009,1,8,0:0:0:0:
256,192,20077,5,0,0:0:0:0:
256,192,20349,5,0,0:0:0:0:
256,192,20486,5,8,0:0:0:0:
256,192,20554,1,8,0:0:0:0:
256,192,20622,5,0,0:0:0:0:
256,192,20759,1,0,0:0:0:0:
256,192,20895,1,0,0:0:0:0:
256,192,21168,5,8,0:0:0:0:
256,192,21304,1,8,0:0:0:0:
256,192,21440,5,0,0:0:0:0:
256,192,21713,5,8,0:0:0:0:
256,192,21849,5,0,0:0:0:0:
256,192,22122,1,0,0:0:0:0:
256,192,22259,5,8,0:0:0:0:
256,192,22531,5,0,0:0:0:0:
256,192,22804,1,0,0:0:0:0:
256,192,22940,5,8,0:0:0:0:
256,192,23077,1,8,0:0:0:0:
256,192,23213,5,0,0:0:0:0:
256,192,23281,5,8,0:0:0:0:
256,192,23349,5,0,0:0:0:0:
256,192,23486,1,0,0:0:0:0:
256,192,23759,1,0,0:0:0:0:
256,192,23895,5,8,0:0:0:0:
256,192,24304,1,8,0:0:0:0:
256,192,24440,5,0,0:0:0:0:
256,192,24577,5,8,0:0:0:0:
256,192,24713,1,8,0:0:0:0:
256,192,24849,5,0,0:0:0:0:
256,192,24918,5,8,0:0:0:0:
256,192,24986,5,0,0:0:0:0:
256,192,25122,5,8,0:0:0:0:
256,192,25259,1,8,0:0:0:0:
256,192,25531,1,8,0:0:0:0:
256,192,25668,5,0,0:0:0:0:
256,192,25804,1,0,0:0:0:0:
256,192,26077,5,8,0:0:0:0:
256,192,26349,5,0,0:0:0:0:
256,192,26759,5,8,0:0:0:0:
256,192,26895,5,0,0:0:0:0:
256,192,27168,1,0,0:0:0:0:
256,192,27440,5,12,0:0:0:0:
256,192,27849,1,8,0:0:0:0:
256,192,28259,5,0,0:0:0:0:
256,192,28531,5,8,0:0:0:0:
256,192,29622,5,0,0:0:0:0:
256,192,30031,1,0,0:0:0:0:
256,192,30440,1,0,0:0:0:0:
256,192,30713,5,8,0:0:0:0:
256,192,31804,1,8,0:0:0:0:
256,192,32213,5,0,0:0:0:0:
256,192,32622,5,8,0:0:0:0:
256,192,32895,5,0,0:0:0:0:
256,192,33986,1,0,0:0:0:0:
256,192,34395,1,0,0:0:0:0:
256,192,34804,1,0,0:0:0:0:
256,192,35077,5,8,0:0:0:0:
256,192,35349,1,8,0:0:0:0:
256,192,35486,1,8,0:0:0:0:
256,192,35759,5,0,0:0:0:0:
256,192,35895,5,8,0:0:0:0:
256,192,36168,1,12,0:0:0:0:
256,192,36440,1,8,0:0:0:0:
256,192,36577,1,8,0:0:0:0:
256,192,36713,1,8,0:0:0:0:
256,192,36986,5,0,0:0:0:0:
256,192,37259,5,8,0:0:0:0:
256,192,37531,5,0,0:0:0:0:
256,192,37804,1,0,0:0:0:0:
256,192,37940,1,0,0:0:0:0:
256,192,38077,5,8,0:0:0:0:
256,192,38349,5,0,0:0:0:0:
256,192,38759,5,8,0:0:0:0:
256,192,39168,5,0,0:0:0:0:
256,192,39440,5,8,0:0:0:0:
256,192,39713,1,8,0:0:0:0:
256,192,39849,1,8,0:0:0:0:
256,192,39986,5,0,0:0:0:0:
256,192,40259,1,0,0:0:0:0:
256,192,40531,5,12,0:0:0:0:
256,192,40940,5,0,0:0:0:0:
256,192,41349,5,8,0:0:0:0:
256,192,41622,5,0,0:0:0:0:
256,192,42031,5,8,0:0:0:0:
256,192,42440,5,0,0:0:0:0:
256,192,42713,5,12,0:0:0:0:
256,192,42986,1,8,0:0:0:0:
256,192,43122,1,8,0:0:0:0:
256,192,43259,5,0,0:0:0:0:
256,192,43531,1,0,0:0:0:0:
256,192,43804,1,0,0:0:0:0:
256,192,44077,5,8,0:0:0:0:
256,192,44213,5,0,0:0:0:0:
256,192,44349,5,8,0:0:0:0:
256,192,44622,5,0,0:0:0:0:
256,192,44895,5,12,0:0:0:0:
256,192,45304,1,8,0:0:0:0:
256,192,45440,1,8,0:0:0:0:
256,192,45713,5,0,0:0:0:0:
256,192,45986,5,8,0:0:0:0:
256,192,46259,1,8,0:0:0:0:
256,192,46395,1,8,0:0:0:0:
256,192,46531,5,0,0:0:0:0:
256,192,46804,1,0,0:0:0:0:
256,192,47077,5,8,0:0:0:0:
256,192,47349,1,8,0:0:0:0:
256,192,47486,5,0,0:0:0:0:
256,192,47622,1,0,0:0:0:0:
256,192,47895,1,0,0:0:0:0:
256,192,48168,5,8,0:0:0:0:
256,192,48304,1,8,0:0:0:0:
256,192,48440,5,0,0:0:0:0:
256,192,48713,5,8,0:0:0:0:
256,192,48986,5,0,0:0:0:0:
256,192,49259,5,8,0:0:0:0:
256,192,49668,1,8,0:0:0:0:
256,192,49804,1,8,0:0:0:0:
256,192,50077,1,8,0:0:0:0:
256,192,50349,5,0,0:0:0:0:
256,192,50622,1,0,0:0:0:0:
256,192,50759,1,0,0:0:0:0:
256,192,50895,5,8,0:0:0:0:
256,192,51168,1,8,0:0:0:0:
256,192,51440,5,0,0:0:0:0:
256,192,51713,5,8,0:0:0:0:
256,192,51986,5,0,0:0:0:0:
256,192,52122,1,0,0:0:0:0:
256,192,52259,5,8,0:0:0:0:
256,192,52531,5,0,0:0:0:0:
256,192,52668,1,0,0:0:0:0:
256,192,52804,5,8,0:0:0:0:
256,192,52940,1,8,0:0:0:0:
256,192,53077,5,0,0:0:0:0:
256,192,53349,5,8,0:0:0:0:
256,192,53622,5,4,0:0:0:0:
256,192,53895,1,0,0:0:0:0:
256,192,54031,1,0,0:0:0:0:
256,192,54168,5,8,0:0:0:0:
256,192,54440,5,0,0:0:0:0:
256,192,54577,1,0,0:0:0:0:
256,192,54713,5,8,0:0:0:0:
256,192,54849,1,8,0:0:0:0:
256,192,54918,1,8,0:0:0:0:
256,192,54986,5,0,0:0:0:0:
256,192,55122,5,8,0:0:0:0:
256,192,55259,5,0,0:0:0:0:
256,192,55531,5,8,0:0:0:0:
256,192,55668,1,8,0:0:0:0:
256,192,55804,5,0,0:0:0:0:
256,192,56077,5,8,0:0:0:0:
256,192,56349,5,0,0:0:0:0:
256,192,56486,1,0,0:0:0:0:
256,192,56554,1,0,0:0:0:0:
256,192,56622,1,0,0:0:0:0:
256,192,56759,1,0,0:0:0:0:
256,192,56895,1,0,0:0:0:0:
256,192,57031,1,0,0:0:0:0:
256,192,57099,1,0,0:0:0:0:
256,192,57168,5,8,0:0:0:0:
256,192,57304,1,8,0:0:0:0:
256,192,57440,5,0,0:0:0:0:
256,192,57713,5,8,0:0:0:0:
256,192,57849,5,0,0:0:0:0:
256,192,57986,1,0,0:0:0:0:
256,192,58259,1,0,0:0:0:0:
256,192,58395,1,0,0:0:0:0:
256,192,58531,5,8,0:0:0:0:
256,192,58804,5,0,0:0:0:0:
256,192,58940,1,0,0:0:0:0:
256,192,59077,5,8,0:0:0:0:
256,192,59213,5,0,0:0:0:0:
256,192,59281,5,8,0:0:0:0:
256,192,59349,5,0,0:0:0:0:
256,192,59486,5,8,0:0:0:0:
256,192,59622,5,0,0:0:0:0:
256,192,59895,5,8,0:0:0:0:
256,192,60031,1,8,0:0:0:0:
256,192,60168,5,0,0:0:0:0:
256,192,60440,1,0,0:0:0:0:
256,192,60577,1,0,0:0:0:0:
256,192,60713,5,8,0:0:0:0:
256,192,60849,5,0,0:0:0:0:
256,192,60918,1,0,0:0:0:0:
256,192,60986,5,8,0:0:0:0:
256,192,61122,1,8,0:0:0:0:
256,192,61259,5,0,0:0:0:0:
256,192,61531,5,12,0:0:0:0:
256,192,61804,5,0,0:0:0:0:
256,192,61940,1,0,0:0:0:0:
256,192,62077,5,8,0:0:0:0:
256,192,62349,1,12,0:0:0:0:
256,192,62622,5,0,0:0:0:0:
256,192,62759,1,0,0:0:0:0:
256,192,62895,5,8,0:0:0:0:
256,192,63168,5,0,0:0:0:0:
256,192,63304,1,0,0:0:0:0:
256,192,63440,5,8,0:0:0:0:
256,192,63577,1,8,0:0:0:0:
256,192,63645,1,8,0:0:0:0:
256,192,63713,5,0,0:0:0:0:
256,192,63849,5,8,0:0:0:0:
256,192,63986,5,0,0:0:0:0:
256,192,64259,5,8,0:0:0:0:
256,192,64395,1,8,0:0:0:0:
256,192,64531,5,0,0:0:0:0:
256,192,64804,5,8,0:0:0:0:
256,192,64940,1,8,0:0:0:0:
256,192,65077,5,0,0:0:0:0:
256,192,65213,1,0,0:0:0:0:
256,192,65281,1,0,0:0:0:0:
256,192,65349,1,0,0:0:0:0:
256,192,65486,1,0,0:0:0:0:
256,192,65622,1,0,0:0:0:0:
256,192,65759,1,0,0:0:0:0:
256,192,65827,1,0,0:0:0:0:
256,192,65895,5,8,0:0:0:0:
256,192,66031,1,8,0:0:0:0:
256,192,66168,1,8,0:0:0:0:
256,192,66304,1,8,0:0:0:0:
256,192,66372,1,8,0:0:0:0:
256,192,66440,5,0,0:0:0:0:
256,192,66577,1,0,0:0:0:0:
256,192,66713,1,0,0:0:0:0:
256,192,67122,1,0,0:0:0:0:
256,192,67259,5,8,0:0:0:0:
256,192,67395,1,8,0:0:0:0:
256,192,67463,1,8,0:0:0:0:
256,192,67531,1,8,0:0:0:0:
256,192,67668,5,0,0:0:0:0:
256,192,67804,5,12,0:0:0:0:
256,192,68077,1,12,0:0:0:0:
256,192,68349,5,4,0:0:0:0:
256,192,68622,5,8,0:0:0:0:
256,192,68759,1,8,0:0:0:0:
256,192,68895,5,0,0:0:0:0:
256,192,69168,1,0,0:0:0:0:
256,192,69304,5,8,0:0:0:0:
256,192,69440,1,8,0:0:0:0:
256,192,69577,5,0,0:0:0:0:
256,192,69645,1,0,0:0:0:0:
256,192,69713,5,8,0:0:0:0:
256,192,69849,5,0,0:0:0:0:
256,192,69986,1,0,0:0:0:0:
256,192,70259,1,0,0:0:0:0:
256,192,70395,5,8,0:0:0:0:
256,192,70531,5,0,0:0:0:0:
256,192,70804,5,8,0:0:0:0:
256,192,71077,5,4,0:0:0:0:
256,192,71349,5,8,0:0:0:0:
256,192,71622,5,0,0:0:0:0:
256,192,71895,5,8,0:0:0:0:
256,192,72031,5,0,0:0:0:0:
256,192,72168,5,8,0:0:0:0:
256,192,72304,5,0,0:0:0:0:
256,192,72372,1,0,0:0:0:0:
256,192,72440,1,0,0:0:0:0:
256,192,72577,5,8,0:0:0:0:
256,192,72713,5,0,0:0:0:0:
256,192,72986,1,0,0:0:0:0:
256,192,73122,5,8,0:0:0:0:
256,192,73259,5,0,0:0:0:0:
256,192,73531,1,0,0:0:0:0:
256,192,73668,5,8,0:0:0:0:
256,192,73804,5,0,0:0:0:0:
256,192,74077,5,8,0:0:0:0:
256,192,74349,5,0,0:0:0:0:
256,192,74622,5,8,0:0:0:0:
256,192,74759,1,8,0:0:0:0:
256,192,74895,5,0,0:0:0:0:
256,192,75031,1,0,0:0:0:0:
256,192,75168,5,8,0:0:0:0:
256,192,75440,5,0,0:0:0:0:
256,192,75849,5,8,0:0:0:0:
256,192,76259,5,0,0:0:0:0:
256,192,76395,1,0,0:0:0:0:
256,192,76531,5,8,0:0:0:0:
256,192,76804,5,0,0:0:0:0:
256,192,77077,1,0,0:0:0:0:
256,192,77349,5,8,0:0:0:0:
256,192,77622,1,8,0:0:0:0:
256,192,78031,5,0,0:0:0:0:
256,192,78440,1,0,0:0:0:0:
256,192,78577,1,0,0:0:0:0:
256,192,78713,5,8,0:0:0:0:
256,192,78849,1,8,0:0:0:0:
256,192,78918,1,8,0:0:0:0:
256,192,78986,1,8,0:0:0:0:
256,192,79122,1,8,0:0:0:0:
256,192,79259,1,8,0:0:0:0:
256,192,79531,5,0,0:0:0:0:
256,192,79804,1,4,0:0:0:0:
256,192,79940,1,0,0:0:0:0:
256,192,80009,1,0,0:0:0:0:
256,192,80077,5,8,0:0:0:0:
256,192,80213,5,0,0:0:0:0:
256,192,80486,5,8,0:0:0:0:
256,192,80622,5,0,0:0:0:0:
256,192,80759,5,8,0:0:0:0:
256,192,80895,5,0,0:0:0:0:
256,192,81031,1,0,0:0:0:0:
256,192,81099,1,0,0:0:0:0:
256,192,81168,5,8,0:0:0:0:
256,192,81304,5,0,0:0:0:0:
256,192,81440,5,8,0:0:0:0:
256,192,81509,1,8,0:0:0:0:
256,192,81577,5,0,0:0:0:0:
256,192,81645,1,0,0:0:0:0:
256,192,81713,5,8,0:0:0:0:
256,192,81986,1,12,0:0:0:0:
256,192,82259,1,8,0:0:0:0:
256,192,82395,1,8,0:0:0:0:
256,192,82531,1,8,0:0:0:0:
256,192,82804,5,0,0:0:0:0:
256,192,83077,5,8,0:0:0:0:
256,192,83349,5,0,0:0:0:0:
256,192,83622,1,0,0:0:0:0:
256,192,83759,1,0,0:0:0:0:
256,192,83895,5,8,0:0:0:0:
256,192,84168,5,0,0:0:0:0:
256,192,84577,5,8,0:0:0:0:
256,192,84986,5,0,0:0:0:0:
256,192,85259,5,8,0:0:0:0:
256,192,85531,1,8,0:0:0:0:
256,192,85668,1,8,0:0:0:0:
256,192,85804,5,0,0:0:0:0:
256,192,86077,1,0,0:0:0:0:
256,192,86349,5,8,0:0:0:0:
256,192,86759,5,0,0:0:0:0:
256,192,87168,5,8,0:0:0:0:
256,192,87440,5,0,0:0:0:0:
256,192,88259,5,8,0:0:0:0:
256,192,88531,5,0,0:0:0:0:
256,192,88804,1,0,0:0:0:0:
256,192,88940,1,0,0:0:0:0:
256,192,89077,1,0,0:0:0:0:
256,192,89349,5,8,0:0:0:0:
256,192,89622,12,0,90304,0:0:0:0:
256,192,90440,5,0,0:0:0:0:
256,192,90713,5,12,0:0:0:0:
256,192,90986,1,8,0:0:0:0:
256,192,91122,5,0,0:0:0:0:
256,192,91259,5,8,0:0:0:0:
256,192,91395,1,8,0:0:0:0:
256,192,91531,5,0,0:0:0:0:
256,192,91804,5,8,0:0:0:0:
256,192,92077,5,0,0:0:0:0:
256,192,92349,1,0,0:0:0:0:
256,192,92486,1,0,0:0:0:0:
256,192,92622,5,8,0:0:0:0:
256,192,92895,5,0,0:0:0:0:
256,192,93168,1,0,0:0:0:0:
256,192,93304,5,8,0:0:0:0:
256,192,93713,5,0,0:0:0:0:
256,192,93986,5,8,0:0:0:0:
256,192,94259,1,8,0:0:0:0:
256,192,94395,1,8,0:0:0:0:
256,192,94531,5,0,0:0:0:0:
256,192,94668,5,8,0:0:0:0:
256,192,94804,5,0,0:0:0:0:
256,192,95077,5,12,0:0:0:0:
256,192,95349,1,8,0:0:0:0:
256,192,95486,5,0,0:0:0:0:
256,192,95895,5,8,0:0:0:0:
256,192,96168,5,0,0:0:0:0:
256,192,96440,1,0,0:0:0:0:
256,192,96577,5,8,0:0:0:0:
256,192,96986,5,0,0:0:0:0:
256,192,97259,5,12,0:0:0:0:
256,192,97531,1,8,0:0:0:0:
256,192,97668,1,8,0:0:0:0:
256,192,97804,5,0,0:0:0:0:
256,192,98077,1,0,0:0:0:0:
256,192,98349,1,0,0:0:0:0:
256,192,98622,5,8,0:0:0:0:
256,192,98759,5,0,0:0:0:0:
256,192,98895,5,8,0:0:0:0:
256,192,99031,5,0,0:0:0:0:
256,192,99168,1,0,0:0:0:0:
256,192,99440,5,12,0:0:0:0:
256,192,99713,1,8,0:0:0:0:
256,192,99849,5,0,0:0:0:0:
256,192,99986,5,8,0:0:0:0:
256,192,100259,1,8,0:0:0:0:
256,192,100395,5,0,0:0:0:0:
256,192,100463,1,0,0:0:0:0:
256,192,100531,5,8,0:0:0:0:
256,192,100668,1,8,0:0:0:0:
256,192,100804,5,0,0:0:0:0:
256,192,100940,5,8,0:0:0:0:
256,192,101077,1,8,0:0:0:0:
256,192,101349,5,0,0:0:0:0:
256,192,101622,5,8,0:0:0:0:
256,192,101895,5,0,0:0:0:0:
256,192,102031,5,8,0:0:0:0:
256,192,102168,5,0,0:0:0:0:
256,192,102440,1,0,0:0:0:0:
256,192,102577,1,0,0:0:0:0:
256,192,102645,1,0,0:0:0:0:
256,192,102713,5,8,0:0:0:0:
256,192,102849,1,8,0:0:0:0:
256,192,102986,5,0,0:0:0:0:
256,192,103122,5,8,0:0:0:0:
256,192,103259,1,8,0:0:0:0:
256,192,103395,5,0,0:0:0:0:
256,192,103531,1,0,0:0:0:0:
256,192,103804,5,8,0:0:0:0:
256,192,104077,1,8,0:0:0:0:
256,192,104213,5,0,0:0:0:0:
256,192,104349,5,8,0:0:0:0:
256,192,104622,1,8,0:0:0:0:
256,192,104759,5,0,0:0:0:0:
256,192,104827,1,0,0:0:0:0:
256,192,104895,5,8,0:0:0:0:
256,192,105031,1,8,0:0:0:0:
256,192,105168,5,0,0:0:0:0:
256,192,105304,1,0,0:0:0:0:
256,192,105440,1,0,0:0:0:0:
256,192,105577,1,0,0:0:0:0:
256,192,105713,5,8,0:0:0:0:
256,192,105986,5,0,0:0:0:0:
256,192,106259,5,8,0:0:0:0:
256,192,106395,1,8,0:0:0:0:
256,192,106531,5,0,0:0:0:0:
256,192,106804,5,8,0:0:0:0:
256,192,106940,5,0,0:0:0:0:
256,192,107077,1,0,0:0:0:0:
256,192,107213,1,0,0:0:0:0:
256,192,107281,1,0,0:0:0:0:
256,192,107349,5,8,0:0:0:0:
256,192,107622,5,0,0:0:0:0:
256,192,107895,5,8,0:0:0:0:
256,192,108168,5,4,0:0:0:0:
256,192,108372,1,0,0:0:0:0:
256,192,108440,1,0,0:0:0:0:
256,192,108577,1,0,0:0:0:0:
256,192,108713,5,8,0:0:0:0:
256,192,108918,5,0,0:0:0:0:
256,192,108986,5,8,0:0:0:0:
256,192,109122,5,0,0:0:0:0:
256,192,109259,5,8,0:0:0:0:
256,192,109395,1,8,0:0:0:0:
256,192,109463,1,8,0:0:0:0:
256,192,109531,5,0,0:0:0:0:
256,192,109668,5,8,0:0:0:0:
256,192,109804,5,0,0:0:0:0:
256,192,110077,5,8,0:0:0:0:
256,192,110213,1,8,0:0:0:0:
256,192,110349,5,0,0:0:0:0:
256,192,110622,5,8,0:0:0:0:
256,192,110759,1,8,0:0:0:0:
256,192,110895,5,0,0:0:0:0:
256,192,111031,1,0,0:0:0:0:
256,192,111099,1,0,0:0:0:0:
256,192,111168,1,0,0:0:0:0:
256,192,111304,1,0,0:0:0:0:
256,192,111440,1,0,0:0:0:0:
256,192,111577,1,0,0:0:0:0:
256,192,111645,1,0,0:0:0:0:
256,192,111713,5,8,0:0:0:0:
256,192,111849,1,8,0:0:0:0:
256,192,111986,5,0,0:0:0:0:
256,192,112259,5,8,0:0:0:0:
256,192,112395,5,0,0:0:0:0:
256,192,112531,1,0,0:0:0:0:
256,192,112736,1,0,0:0:0:0:
256,192,112804,1,0,0:0:0:0:
256,192,112940,1,0,0:0:0:0:
256,192,113077,5,8,0:0:0:0:
256,192,113281,5,0,0:0:0:0:
256,192,113349,5,8,0:0:0:0:
256,192,113486,5,0,0:0:0:0:
256,192,113622,5,12,0:0:0:0:
256,192,113895,5,4,0:0:0:0:
256,192,114168,1,4,0:0:0:0:
256,192,114440,5,8,0:0:0:0:
256,192,114577,1,8,0:0:0:0:
256,192,114713,5,0,0:0:0:0:
256,192,114986,1,0,0:0:0:0:
256,192,115122,5,8,0:0:0:0:
256,192,115259,1,8,0:0:0:0:
256,192,115395,1,8,0:0:0:0:
256,192,115463,5,0,0:0:0:0:
256,192,115531,1,0,0:0:0:0:
256,192,115668,5,8,0:0:0:0:
256,192,115804,5,0,0:0:0:0:
256,192,116077,5,12,0:0:0:0:
256,192,116349,5,0,0:0:0:0:
256,192,116486,1,0,0:0:0:0:
256,192,116622,5,8,0:0:0:0:
256,192,116895,1,12,0:0:0:0:
256,192,117099,5,0,0:0:0:0:
256,192,117168,1,0,0:0:0:0:
256,192,117304,1,0,0:0:0:0:
256,192,117440,5,8,0:0:0:0:
256,192,117645,5,0,0:0:0:0:
256,192,117713,5,8,0:0:0:0:
256,192,117849,5,0,0:0:0:0:
256,192,117986,5,8,0:0:0:0:
256,192,118122,1,8,0:0:0:0:
256,192,118190,1,8,0:0:0:0:
256,192,118259,5,0,0:0:0:0:
256,192,118395,5,8,0:0:0:0:
256,192,118531,5,0,0:0:0:0:
256,192,118804,1,0,0:0:0:0:
256,192,118940,5,8,0:0:0:0:
256,192,119077,5,0,0:0:0:0:
256,192,119349,1,0,0:0:0:0:
256,192,119486,5,8,0:0:0:0:
256,192,119622,5,0,0:0:0:0:
256,192,119759,1,0,0:0:0:0:
256,192,119827,1,0,0:0:0:0:
256,192,119895,1,0,0:0:0:0:
256,192,120031,1,0,0:0:0:0:
256,192,120168,1,0,0:0:0:0:
256,192,120304,1,0,0:0:0:0:
256,192,120372,1,0,0:0:0:0:
256,192,120440,5,8,0:0:0:0:
256,192,120577,1,8,0:0:0:0:
256,192,120713,1,8,0:0:0:0:
256,192,120849,1,8,0:0:0:0:
256,192,120918,1,8,0:0:0:0:
256,192,120986,5,0,0:0:0:0:
256,192,121122,1,0,0:0:0:0:
256,192,121259,1,0,0:0:0:0:
256,192,121668,1,0,0:0:0:0:
256,192,121804,5,8,0:0:0:0:
256,192,121940,1,8,0:0:0:0:
256,192,122009,1,8,0:0:0:0:
256,192,122077,1,8,0:0:0:0:
256,192,122213,5,0,0:0:0:0:
256,192,122349,5,12,0:0:0:0:
256,192,122622,1,12,0:0:0:0:
256,192,122895,5,4,0:0:0:0:
256,192,123168,1,0,0:0:0:0:
256,192,123304,5,8,0:0:0:0:
256,192,123440,5,0,0:0:0:0:
256,192,123713,1,0,0:0:0:0:
256,192,123849,5,8,0:0:0:0:
256,192,123986,1,8,0:0:0:0:
256,192,124122,5,0,0:0:0:0:
256,192,124190,1,0,0:0:0:0:
256,192,124259,5,8,0:0:0:0:
256,192,124395,5,0,0:0:0:0:
256,192,124531,1,0,0:0:0:0:
256,192,124804,5,8,0:0:0:0:
256,192,124940,5,0,0:0:0:0:
256,192,125077,5,8,0:0:0:0:
256,192,125213,5,0,0:0:0:0:
256,192,125281,1,0,0:0:0:0:
256,192,125349,5,8,0:0:0:0:
256,192,125486,1,8,0:0:0:0:
256,192,125622,5,4,0:0:0:0:
256,192,125895,5,8,0:0:0:0:
256,192,126031,1,8,0:0:0:0:
256,192,126168,5,0,0:0:0:0:
256,192,126440,5,8,0:0:0:0:
256,192,126577,1,8,0:0:0:0:
256,192,126849,1,8,0:0:0:0:
256,192,126986,1,8,0:0:0:0:
256,192,127122,5,0,0:0:0:0:
256,192,127259,5,8,0:0:0:0:
256,192,127395,5,0,0:0:0:0:
256,192,127463,5,8,0:0:0:0:
256,192,127531,5,0,0:0:0:0:
256,192,127668,5,8,0:0:0:0:
256,192,127804,5,0,0:0:0:0:
256,192,127940,1,0,0:0:0:0:
256,192,128213,5,8,0:0:0:0:
256,192,128349,1,8,0:0:0:0:
256,192,128622,1,8,0:0:0:0:
256,192,128759,1,8,0:0:0:0:
256,192,128895,5,0,0:0:0:0:
256,192,129031,1,0,0:0:0:0:
256,192,129099,1,0,0:0:0:0:
256,192,129168,5,8,0:0:0:0:
256,192,129304,1,8,0:0:0:0:
256,192,129440,1,8,0:0:0:0:
256,192,129713,1,8,0:0:0:0:
256,192,129849,5,0,0:0:0:0:
256,192,129986,1,4,0:0:0:0:
256,192,130259,1,0,0:0:0:0:
256,192,130395,5,8,0:0:0:0:
256,192,130668,1,8,0:0:0:0:
256,192,130804,5,0,0:0:0:0:
256,192,130940,1,0,0:0:0:0:
256,192,131077,1,0,0:0:0:0:
256,192,131213,1,0,0:0:0:0:
256,192,131281,1,0,0:0:0:0:
256,192,131349,1,0,0:0:0:0:
256,192,131486,5,8,0:0:0:0:
256,192,131759,1,8,0:0:0:0:
256,192,131895,5,0,0:0:0:0:
256,192,132031,1,0,0:0:0:0:
256,192,132168,1,0,0:0:0:0:
256,192,132236,5,8,0:0:0:0:
256,192,132304,5,0,0:0:0:0:
256,192,132440,1,0,0:0:0:0:
256,192,132577,5,8,0:0:0:0:
256,192,132713,5,0,0:0:0:0:
256,192,132781,5,8,0:0:0:0:
256,192,132849,1,8,0:0:0:0:
256,192,132986,1,8,0:0:0:0:
256,192,133122,5,0,0:0:0:0:
256,192,133259,1,0,0:0:0:0:
256,192,133395,5,8,0:0:0:0:
256,192,133531,1,8,0:0:0:0:
256,192,133668,5,0,0:0:0:0:
256,192,133940,5,8,0:0:0:0:
256,192,134077,5,0,0:0:0:0:
256,192,134213,1,0,0:0:0:0:
256,192,134349,5,12,0:0:0:0:
256,192,134486,1,8,0:0:0:0:
256,192,134554,1,8,0:0:0:0:
256,192,134622,5,0,0:0:0:0:
256,192,134759,5,8,0:0:0:0:
256,192,134895,1,8,0:0:0:0:
256,192,135031,5,0,0:0:0:0:
256,192,135167,1,0,0:0:0:0:
256,192,135236,1,0,0:0:0:0:
256,192,135304,5,8,0:0:0:0:
256,192,135440,5,0,0:0:0:0:
256,192,135577,5,8,0:0:0:0:
256,192,135645,5,0,0:0:0:0:
256,192,135713,1,0,0:0:0:0:
256,192,135849,1,0,0:0:0:0:
256,192,135986,5,8,0:0:0:0:
256,192,136122,5,0,0:0:0:0:
256,192,136259,1,0,0:0:0:0:
256,192,136327,1,0,0:0:0:0:
256,192,136395,5,8,0:0:0:0:
256,192,136531,5,0,0:0:0:0:
256,192,136668,5,8,0:0:0:0:
256,192,136736,1,8,0:0:0:0:
256,192,136804,5,0,0:0:0:0:
256,192,136940,1,0,0:0:0:0:
256,192,137077,5,8,0:0:0:0:
256,192,137212,5,0,0:0:0:0:
256,192,137349,1,0,0:0:0:0:
256,192,137418,1,0,0:0:0:0:
256,192,137486,5,8,0:0:0:0:
256,192,137622,1,8,0:0:0:0:
256,192,137759,5,0,0:0:0:0:
256,192,137827,1,0,0:0:0:0:
256,192,137895,5,8,0:0:0:0:
256,192,138031,5,0,0:0:0:0:
256,192,138168,1,0,0:0:0:0:
256,192,138304,5,8,0:0:0:0:
256,192,138440,1,8,0:0:0:0:
256,192,138713,5,4,0:0:0:0:
256,192,138986,5,8,0:0:0:0:
256,192,139122,5,0,0:0:0:0:
256,192,139395,1,0,0:0:0:0:
256,192,139531,5,8,0:0:0:0:
256,192,139668,5,0,0:0:0:0:
256,192,139804,5,8,0:0:0:0:
256,192,139940,1,8,0:0:0:0:
256,192,140009,1,8,0:0:0:0:
256,192,140077,5,0,0:0:0:0:
256,192,140213,1,0,0:0:0:0:
256,192,140349,1,0,0:0:0:0:
256,192,140486,1,0,0:0:0:0:
256,192,140554,1,0,0:0:0:0:
256,192,140622,5,8,0:0:0:0:
256,192,140759,1,8,0:0:0:0:
256,192,140895,5,0,0:0:0:0:
256,192,141031,1,0,0:0:0:0:
256,192,141099,1,0,0:0:0:0:
256,192,141168,1,0,0:0:0:0:
256,192,141304,1,0,0:0:0:0:
256,192,141577,1,0,0:0:0:0:
256,192,141713,5,8,0:0:0:0:
256,192,141849,5,0,0:0:0:0:
256,192,141986,5,8,0:0:0:0:
256,192,142122,1,8,0:0:0:0:
256,192,142190,1,8,0:0:0:0:
256,192,142259,5,0,0:0:0:0:
256,192,142395,1,0,0:0:0:0:
256,192,142531,1,0,0:0:0:0:
256,192,142599,1,0,0:0:0:0:
256,192,142667,1,0,0:0:0:0:
256,192,142736,1,0,0:0:0:0:
256,192,142804,5,8,0:0:0:0:
256,192,143077,5,4,0:0:0:0:
256,192,143622,5,8,0:0:0:0:
256,192,144168,5,0,0:0:0:0:
256,192,144440,5,8,0:0:0:0:
256,192,144577,5,0,0:0:0:0:
256,192,145259,1,0,0:0:0:0:
256,192,145804,5,8,0:0:0:0:
256,192,146077,5,0,0:0:0:0:
256,192,146349,5,8,0:0:0:0:
256,192,147440,5,0,0:0:0:0:
256,192,147986,5,8,0:0:0:0:
256,192,148531,5,0,0:0:0:0:
256,192,148668,5,8,0:0:0:0:
256,192,148940,1,8,0:0:0:0:
256,192,149622,5,0,0:0:0:0:
256,192,150168,1,0,0:0:0:0:
256,192,150440,5,8,0:0:0:0:
256,192,150713,1,8,0:0:0:0:
256,192,151259,5,0,0:0:0:0:
256,192,151804,1,0,0:0:0:0:
256,192,152077,1,0,0:0:0:0:
256,192,152213,1,0,0:0:0:0:
256,192,152349,5,8,0:0:0:0:
256,192,152622,5,0,0:0:0:0:
256,192,152759,5,8,0:0:0:0:
256,192,153031,1,8,0:0:0:0:
256,192,153304,5,0,0:0:0:0:
256,192,153713,5,8,0:0:0:0:
256,192,153849,5,0,0:0:0:0:
256,192,153986,1,0,0:0:0:0:
256,192,154259,1,0,0:0:0:0:
256,192,154395,5,8,0:0:0:0:
256,192,154531,1,8,0:0:0:0:
256,192,154804,1,8,0:0:0:0:
256,192,154940,5,0,0:0:0:0:
256,192,155077,5,8,0:0:0:0:
256,192,155349,5,0,0:0:0:0:
256,192,155486,5,8,0:0:0:0:
256,192,155622,1,8,0:0:0:0:
256,192,155895,5,0,0:0:0:0:
256,192,156168,1,0,0:0:0:0:
256,192,157122,5,8,0:0:0:0:
256,192,157259,5,0,0:0:0:0:
256,192,157531,1,0,0:0:0:0:
256,192,157940,1,0,0:0:0:0:
256,192,158077,5,8,0:0:0:0:
256,192,158349,1,8,0:0:0:0:
256,192,158622,5,0,0:0:0:0:
256,192,158895,5,8,0:0:0:0:
256,192,159304,1,8,0:0:0:0:
256,192,159440,5,0,0:0:0:0:
256,192,159577,5,8,0:0:0:0:
256,192,159713,5,0,0:0:0:0:
256,192,159986,5,8,0:0:0:0:
256,192,160259,1,8,0:0:0:0:
256,192,160395,1,8,0:0:0:0:
256,192,162713,5,0,0:0:0:0:
256,192,163259,5,8,0:0:0:0:
256,192,163804,1,8,0:0:0:0:
256,192,164077,5,0,0:0:0:0:
256,192,164349,1,0,0:0:0:0:
256,192,164895,1,0,0:0:0:0:
256,192,165440,1,0,0:0:0:0:
256,192,165986,1,0,0:0:0:0:
256,192,166259,5,8,0:0:0:0:
256,192,166531,5,0,0:0:0:0:
256,192,167077,1,0,0:0:0:0:
256,192,167622,5,8,0:0:0:0:
256,192,168168,1,8,0:0:0:0:
256,192,168440,5,0,0:0:0:0:
256,192,168713,1,0,0:0:0:0:
256,192,169259,1,0,0:0:0:0:
256,192,169804,5,8,0:0:0:0:
256,192,170349,5,4,0:0:0:0:
256,192,171168,5,8,0:0:0:0:
256,192,171440,5,4,0:0:0:0:
256,192,171849,1,0,0:0:0:0:
256,192,171986,5,8,0:0:0:0:
256,192,172395,5,0,0:0:0:0:
256,192,172531,5,8,0:0:0:0:
256,192,172804,5,0,0:0:0:0:
256,192,173077,1,0,0:0:0:0:
256,192,173349,5,8,0:0:0:0:
256,192,173486,1,8,0:0:0:0:
256,192,173622,5,0,0:0:0:0:
256,192,173895,5,8,0:0:0:0:
256,192,174031,1,8,0:0:0:0:
256,192,174168,5,0,0:0:0:0:
256,192,174440,5,8,0:0:0:0:
256,192,174713,5,0,0:0:0:0:
256,192,174986,5,8,0:0:0:0:
256,192,175122,5,0,0:0:0:0:
256,192,175259,5,8,0:0:0:0:
256,192,175531,5,0,0:0:0:0:
256,192,175804,1,4,0:0:0:0:
256,192,176213,5,8,0:0:0:0:
256,192,176349,5,0,0:0:0:0:
256,192,176622,1,0,0:0:0:0:
256,192,176759,5,8,0:0:0:0:
256,192,176895,1,8,0:0:0:0:
256,192,177031,5,0,0:0:0:0:
256,192,177304,5,8,0:0:0:0:
256,192,177440,5,0,0:0:0:0:
256,192,177577,1,0,0:0:0:0:
256,192,177713,5,8,0:0:0:0:
256,192,177986,1,8,0:0:0:0:
256,192,178395,1,8,0:0:0:0:
256,192,178531,5,0,0:0:0:0:
256,192,178668,5,8,0:0:0:0:
256,192,178804,5,0,0:0:0:0:
256,192,179077,1,0,0:0:0:0:
256,192,179349,5,8,0:0:0:0:
256,192,179622,5,0,0:0:0:0:
256,192,179895,5,8,0:0:0:0:
256,192,180168,5,4,0:0:0:0:
256,192,180440,1,0,0:0:0:0:
256,192,180577,1,0,0:0:0:0:
256,192,180713,5,8,0:0:0:0:
256,192,180986,1,8,0:0:0:0:
256,192,181122,5,0,0:0:0:0:
256,192,181259,5,8,0:0:0:0:
256,192,181395,1,8,0:0:0:0:
256,192,181463,1,8,0:0:0:0:
256,192,181531,5,0,0:0:0:0:
256,192,181668,5,8,0:0:0:0:
256,192,181804,5,0,0:0:0:0:
256,192,182077,1,0,0:0:0:0:
256,192,182213,5,8,0:0:0:0:
256,192,182349,5,0,0:0:0:0:
256,192,182622,5,8,0:0:0:0:
256,192,182895,5,0,0:0:0:0:
256,192,183031,1,0,0:0:0:0:
256,192,183099,1,0,0:0:0:0:
256,192,183168,1,0,0:0:0:0:
256,192,183304,1,0,0:0:0:0:
256,192,183440,1,0,0:0:0:0:
256,192,183509,1,0,0:0:0:0:
256,192,183577,1,0,0:0:0:0:
256,192,183645,1,0,0:0:0:0:
256,192,183713,5,8,0:0:0:0:
256,192,183849,1,8,0:0:0:0:
256,192,183986,1,8,0:0:0:0:
256,192,184054,1,8,0:0:0:0:
256,192,184122,5,0,0:0:0:0:
256,192,184190,1,0,0:0:0:0:
256,192,184259,5,8,0:0:0:0:
256,192,184395,5,0,0:0:0:0:
256,192,184531,1,0,0:0:0:0:
256,192,184804,1,0,0:0:0:0:
256,192,184940,1,0,0:0:0:0:
256,192,185077,5,8,0:0:0:0:
256,192,185349,1,8,0:0:0:0:
256,192,185486,5,0,0:0:0:0:
256,192,185622,5,12,0:0:0:0:
256,192,185895,5,4,0:0:0:0:
256,192,186168,1,4,0:0:0:0:
256,192,186440,5,8,0:0:0:0:
256,192,186577,1,8,0:0:0:0:
256,192,186713,5,0,0:0:0:0:
256,192,186986,1,0,0:0:0:0:
256,192,187122,5,8,0:0:0:0:
256,192,187259,1,8,0:0:0:0:
256,192,187395,5,0,0:0:0:0:
256,192,187463,1,0,0:0:0:0:
256,192,187531,5,8,0:0:0:0:
256,192,187668,1,8,0:0:0:0:
256,192,187804,5,0,0:0:0:0:
256,192,187872,1,0,0:0:0:0:
256,192,187940,1,0,0:0:0:0:
256,192,188077,5,12,0:0:0:0:
256,192,188349,5,0,0:0:0:0:
256,192,188486,5,8,0:0:0:0:
256,192,188554,1,8,0:0:0:0:
256,192,188622,5,0,0:0:0:0:
256,192,188759,1,0,0:0:0:0:
256,192,188895,5,12,0:0:0:0:
256,192,189099,5,0,0:0:0:0:
256,192,189168,1,0,0:0:0:0:
256,192,189304,1,0,0:0:0:0:
256,192,189440,5,8,0:0:0:0:
256,192,189645,5,0,0:0:0:0:
256,192,189713,5,8,0:0:0:0:
256,192,189849,5,0,0:0:0:0:
256,192,189986,5,8,0:0:0:0:
256,192,190122,1,8,0:0:0:0:
256,192,190190,1,8,0:0:0:0:
256,192,190259,5,0,0:0:0:0:
256,192,190395,5,8,0:0:0:0:
256,192,190531,5,0,0:0:0:0:
256,192,190804,1,0,0:0:0:0:
256,192,190940,5,8,0:0:0:0:
256,192,191077,5,0,0:0:0:0:
256,192,191349,5,8,0:0:0:0:
256,192,191486,1,8,0:0:0:0:
256,192,191622,5,0,0:0:0:0:
256,192,191759,1,0,0:0:0:0:
256,192,191827,1,0,0:0:0:0:
256,192,191895,1,0,0:0:0:0:
256,192,192031,1,0,0:0:0:0:
256,192,192168,1,0,0:0:0:0:
256,192,192236,1,0,0:0:0:0:
256,192,192304,1,0,0:0:0:0:
256,192,192372,1,0,0:0:0:0:
256,192,192440,5,8,0:0:0:0:
256,192,192577,1,8,0:0:0:0:
256,192,192713,1,8,0:0:0:0:
256,192,192781,1,8,0:0:0:0:
256,192,192849,1,8,0:0:0:0:
256,192,192918,1,8,0:0:0:0:
256,192,192986,5,0,0:0:0:0:
256,192,193122,1,0,0:0:0:0:
256,192,193259,1,0,0:0:0:0:
256,192,193668,1,0,0:0:0:0:
256,192,193804,5,8,0:0:0:0:
256,192,193940,1,8,0:0:0:0:
256,192,194009,1,8,0:0:0:0:
256,192,194077,1,8,0:0:0:0:
256,192,194213,5,0,0:0:0:0:
256,192,194349,5,12,0:0:0:0:
256,192,194622,1,12,0:0:0:0:
256,192,194895,1,12,0:0:0:0:
256,192,195168,1,8,0:0:0:0:
256,192,195304,1,8,0:0:0:0:
256,192,195440,5,0,0:0:0:0:
256,192,195713,1,0,0:0:0:0:
256,192,195849,5,8,0:0:0:0:
256,192,195986,1,8,0:0:0:0:
256,192,196122,5,0,0:0:0:0:
256,192,196190,1,0,0:0:0:0:
256,192,196259,5,8,0:0:0:0:
256,192,196395,5,0,0:0:0:0:
256,192,196531,1,0,0:0:0:0:
256,192,196668,5,8,0:0:0:0:
256,192,196736,1,8,0:0:0:0:
256,192,196804,5,0,0:0:0:0:
256,192,196940,5,8,0:0:0:0:
256,192,197077,5,0,0:0:0:0:
256,192,197349,1,0,0:0:0:0:
256,192,197486,5,8,0:0:0:0:
256,192,197622,5,0,0:0:0:0:
256,192,197759,1,0,0:0:0:0:
256,192,197827,1,0,0:0:0:0:
256,192,197895,5,8,0:0:0:0:
256,192,198031,1,8,0:0:0:0:
256,192,198168,1,8,0:0:0:0:
256,192,198236,1,8,0:0:0:0:
256,192,198304,5,0,0:0:0:0:
256,192,198372,5,8,0:0:0:0:
256,192,198440,5,0,0:0:0:0:
256,192,198577,5,8,0:0:0:0:
256,192,198713,5,0,0:0:0:0:
256,192,198986,5,8,0:0:0:0:
256,192,199122,1,8,0:0:0:0:
256,192,199259,5,0,0:0:0:0:
256,192,199395,1,0,0:0:0:0:
256,192,199531,5,8,0:0:0:0:
256,192,199804,5,4,0:0:0:0:
