osu file format v14

[General]
AudioFilename: audio.mp3
AudioLeadIn: 0
PreviewTime: 107349
Countdown: 0
SampleSet: Normal
StackLeniency: 0.7
Mode: 1
LetterboxInBreaks: 0
WidescreenStoryboard: 1

[Editor]
DistanceSpacing: 0.8
BeatDivisor: 4
GridSize: 32
TimelineZoom: 2.4

[Metadata]
Title:Toumei Elegy
TitleUnicode:透明エレジー
Artist:Konuko
ArtistUnicode:こぬこ
Creator:incandescence
Version:Muzukashii
Source:
Tags:gabe veus nardoxyribonucleic aloda hikikochan hikiko- kinomicandy aabc271 Vocaloid 櫻花アリス n-buna ouka alice Megpoid Gumi utau japanese novelty taikocracy
BeatmapID:1538454
BeatmapSetID:563743

[Difficulty]
HPDrainRate:5
CircleSize:2
OverallDifficulty:5
ApproachRate:10
SliderMultiplier:1.4
SliderTickRate:1

[Events]
//Background and Video events
0,0,"toumeielegy.jpg",0,0
//Break Periods
//Storyboard Layer 0 (Background)
//Storyboard Layer 1 (Fail)
//Storyboard Layer 2 (Pass)
//Storyboard Layer 3 (Foreground)
//Storyboard Sound Samples

[TimingPoints]
1259,272.727272727273,4,1,0,100,1,0
1259,-100,4,1,0,100,0,0
53622,-100,4,1,0,100,0,1
71077,-100,4,1,0,100,0,0
108168,-100,4,1,0,100,0,1
125622,-100,4,1,0,100,0,0
160531,-100,4,1,0,25,0,0
162168,-100,4,1,0,50,0,0
162440,-105.263157894737,4,1,0,60,0,0
162713,-111.111111111111,4,1,0,80,0,0
171440,-100,4,1,0,100,0,0
180168,-100,4,1,0,100,0,1
199804,-100,4,1,0,100,0,0

[HitObjects]
256,192,1259,5,0,0:0:0:0:
256,192,1668,1,0,0:0:0:0:
256,192,2077,1,8,0:0:0:0:
256,192,2349,1,0,0:0:0:0:
256,192,2759,1,0,0:0:0:0:
256,192,3168,1,8,0:0:0:0:
256,192,3440,1,0,0:0:0:0:
256,192,3849,1,0,0:0:0:0:
256,192,4259,1,8,0:0:0:0:
256,192,4531,1,0,0:0:0:0:
256,192,4940,1,0,0:0:0:0:
256,192,5349,1,8,0:0:0:0:
256,192,5622,1,0,0:0:0:0:
256,192,6031,1,0,0:0:0:0:
256,192,6440,1,8,0:0:0:0:
256,192,6713,1,0,0:0:0:0:
256,192,7122,1,0,0:0:0:0:
256,192,7531,1,8,0:0:0:0:
256,192,7804,1,0,0:0:0:0:
256,192,8213,1,0,0:0:0:0:
256,192,8622,1,8,0:0:0:0:
256,192,8759,1,0,0:0:0:0:
256,192,8895,1,8,0:0:0:0:
256,192,9168,1,0,0:0:0:0:
256,192,9440,1,8,0:0:0:0:
256,192,9986,1,12,0:0:0:0:
256,192,10259,1,0,0:0:0:0:
256,192,10395,1,8,0:0:0:0:
256,192,10668,1,8,0:0:0:0:
256,192,10804,1,0,0:0:0:0:
256,192,11077,1,8,0:0:0:0:
256,192,11213,1,8,0:0:0:0:
256,192,11349,1,0,0:0:0:0:
256,192,11622,1,0,0:0:0:0:
256,192,11759,1,0,0:0:0:0:
256,192,11895,1,8,0:0:0:0:
256,192,12031,1,8,0:0:0:0:
256,192,12168,1,0,0:0:0:0:
256,192,12440,1,8,0:0:0:0:
256,192,12713,1,0,0:0:0:0:
256,192,12986,1,0,0:0:0:0:
256,192,13122,1,8,0:0:0:0:
256,192,13395,1,8,0:0:0:0:
256,192,13531,1,0,0:0:0:0:
256,192,13804,1,8,0:0:0:0:
256,192,14077,1,0,0:0:0:0:
256,192,14213,1,0,0:0:0:0:
256,192,14349,1,8,0:0:0:0:
256,192,14622,1,0,0:0:0:0:
256,192,14759,1,0,0:0:0:0:
256,192,15031,1,0,0:0:0:0:
256,192,15168,1,8,0:0:0:0:
256,192,15577,1,8,0:0:0:0:
256,192,15849,1,0,0:0:0:0:
256,192,15986,1,8,0:0:0:0:
256,192,16122,1,8,0:0:0:0:
256,192,16259,1,0,0:0:0:0:
256,192,16395,1,8,0:0:0:0:
256,192,16531,1,0,0:0:0:0:
256,192,16804,1,8,0:0:0:0:
256,192,16940,1,8,0:0:0:0:
256,192,17077,1,0,0:0:0:0:
256,192,17349,1,8,0:0:0:0:
256,192,17622,1,0,0:0:0:0:
256,192,17895,1,0,0:0:0:0:
256,192,18168,1,8,0:0:0:0:
256,192,18440,1,0,0:0:0:0:
256,192,18713,1,0,0:0:0:0:
256,192,18849,1,8,0:0:0:0:
256,192,18986,1,0,0:0:0:0:
256,192,19122,1,8,0:0:0:0:
256,192,19395,1,0,0:0:0:0:
256,192,19531,1,8,0:0:0:0:
256,192,19804,1,8,0:0:0:0:
256,192,19940,1,8,0:0:0:0:
256,192,20077,1,0,0:0:0:0:
256,192,20349,1,8,0:0:0:0:
256,192,20486,1,0,0:0:0:0:
256,192,20622,1,0,0:0:0:0:
256,192,20759,1,8,0:0:0:0:
256,192,20895,1,0,0:0:0:0:
256,192,21168,1,8,0:0:0:0:
256,192,21440,1,0,0:0:0:0:
256,192,21713,1,8,0:0:0:0:
256,192,21849,1,0,0:0:0:0:
256,192,22259,1,8,0:0:0:0:
256,192,22531,1,0,0:0:0:0:
256,192,22804,1,8,0:0:0:0:
256,192,22940,1,8,0:0:0:0:
256,192,23077,1,0,0:0:0:0:
256,192,23349,1,8,0:0:0:0:
256,192,23486,1,0,0:0:0:0:
256,192,23895,1,8,0:0:0:0:
256,192,24304,1,0,0:0:0:0:
256,192,24440,1,8,0:0:0:0:
256,192,24577,1,0,0:0:0:0:
256,192,24713,1,8,0:0:0:0:
256,192,24849,1,8,0:0:0:0:
256,192,24986,1,0,0:0:0:0:
256,192,25122,1,8,0:0:0:0:
256,192,25259,1,0,0:0:0:0:
256,192,25531,1,8,0:0:0:0:
256,192,25668,1,8,0:0:0:0:
256,192,25804,1,0,0:0:0:0:
256,192,26077,1,8,0:0:0:0:
256,192,26349,1,4,0:0:0:0:
256,192,26895,1,8,0:0:0:0:
256,192,27168,1,0,0:0:0:0:
256,192,27440,1,0,0:0:0:0:
256,192,27849,1,0,0:0:0:0:
256,192,28259,1,8,0:0:0:0:
256,192,28531,1,0,0:0:0:0:
256,192,29622,1,0,0:0:0:0:
256,192,30031,1,0,0:0:0:0:
256,192,30440,1,8,0:0:0:0:
256,192,30713,1,0,0:0:0:0:
256,192,31804,1,0,0:0:0:0:
256,192,32213,1,0,0:0:0:0:
256,192,32622,1,8,0:0:0:0:
256,192,32895,1,0,0:0:0:0:
256,192,33986,1,0,0:0:0:0:
256,192,34395,1,0,0:0:0:0:
256,192,34804,1,8,0:0:0:0:
256,192,35077,1,0,0:0:0:0:
256,192,35349,1,8,0:0:0:0:
256,192,35486,1,8,0:0:0:0:
256,192,35622,1,0,0:0:0:0:
256,192,35895,1,8,0:0:0:0:
256,192,36168,1,4,0:0:0:0:
256,192,36577,1,0,0:0:0:0:
256,192,36986,1,8,0:0:0:0:
256,192,37259,1,0,0:0:0:0:
256,192,37668,1,0,0:0:0:0:
256,192,38077,1,8,0:0:0:0:
256,192,38349,1,0,0:0:0:0:
256,192,38759,1,0,0:0:0:0:
256,192,39168,1,8,0:0:0:0:
256,192,39440,1,0,0:0:0:0:
256,192,39713,1,0,0:0:0:0:
256,192,39986,1,8,0:0:0:0:
256,192,40259,1,8,0:0:0:0:
256,192,40531,1,0,0:0:0:0:
256,192,40940,1,0,0:0:0:0:
256,192,41349,1,8,0:0:0:0:
256,192,41622,1,0,0:0:0:0:
256,192,42031,1,0,0:0:0:0:
256,192,42440,1,8,0:0:0:0:
256,192,42713,1,0,0:0:0:0:
256,192,43122,1,0,0:0:0:0:
256,192,43531,1,8,0:0:0:0:
256,192,43804,1,0,0:0:0:0:
256,192,44077,1,8,0:0:0:0:
256,192,44213,1,8,0:0:0:0:
256,192,44349,1,0,0:0:0:0:
256,192,44622,1,8,0:0:0:0:
256,192,44895,1,4,0:0:0:0:
256,192,45304,1,0,0:0:0:0:
256,192,45440,1,8,0:0:0:0:
256,192,45713,1,0,0:0:0:0:
256,192,45986,1,8,0:0:0:0:
256,192,46395,1,8,0:0:0:0:
256,192,46531,1,8,0:0:0:0:
256,192,46804,1,0,0:0:0:0:
256,192,47077,1,8,0:0:0:0:
256,192,47349,1,0,0:0:0:0:
256,192,47622,1,0,0:0:0:0:
256,192,47895,1,8,0:0:0:0:
256,192,48168,1,0,0:0:0:0:
256,192,48713,1,8,0:0:0:0:
256,192,48986,1,0,0:0:0:0:
256,192,49259,1,8,0:0:0:0:
256,192,49668,1,0,0:0:0:0:
256,192,49804,1,8,0:0:0:0:
256,192,50077,1,0,0:0:0:0:
256,192,50349,1,8,0:0:0:0:
256,192,50622,1,0,0:0:0:0:
256,192,50895,1,8,0:0:0:0:
256,192,51168,1,8,0:0:0:0:
256,192,51440,1,0,0:0:0:0:
256,192,51713,1,8,0:0:0:0:
256,192,51986,1,8,0:0:0:0:
256,192,52259,1,0,0:0:0:0:
256,192,52531,1,8,0:0:0:0:
256,192,52804,1,0,0:0:0:0:
256,192,53077,1,8,0:0:0:0:
256,192,53622,1,4,0:0:0:0:
256,192,54031,1,0,0:0:0:0:
256,192,54168,1,8,0:0:0:0:
256,192,54236,1,8,0:0:0:0:
256,192,54304,1,8,0:0:0:0:
256,192,54440,1,0,0:0:0:0:
256,192,54577,1,8,0:0:0:0:
256,192,54713,1,0,0:0:0:0:
256,192,54986,1,8,0:0:0:0:
256,192,55259,1,0,0:0:0:0:
256,192,55531,1,8,0:0:0:0:
256,192,55668,1,0,0:0:0:0:
256,192,55804,1,8,0:0:0:0:
256,192,56077,1,0,0:0:0:0:
256,192,56349,1,8,0:0:0:0:
256,192,56486,1,0,0:0:0:0:
256,192,56554,1,0,0:0:0:0:
256,192,56622,1,0,0:0:0:0:
256,192,56759,1,8,0:0:0:0:
256,192,56895,1,0,0:0:0:0:
256,192,57031,1,0,0:0:0:0:
256,192,57168,1,8,0:0:0:0:
256,192,57440,1,0,0:0:0:0:
256,192,57713,1,8,0:0:0:0:
256,192,57849,1,8,0:0:0:0:
256,192,57986,1,0,0:0:0:0:
256,192,58395,1,0,0:0:0:0:
256,192,58531,1,8,0:0:0:0:
256,192,58599,1,8,0:0:0:0:
256,192,58668,1,8,0:0:0:0:
256,192,58804,1,0,0:0:0:0:
256,192,58940,1,0,0:0:0:0:
256,192,59077,1,12,0:0:0:0:
256,192,59349,1,4,0:0:0:0:
256,192,59622,1,12,0:0:0:0:
256,192,59895,1,8,0:0:0:0:
256,192,60031,1,8,0:0:0:0:
256,192,60168,1,0,0:0:0:0:
256,192,60440,1,8,0:0:0:0:
256,192,60577,1,0,0:0:0:0:
256,192,60713,1,8,0:0:0:0:
256,192,60849,1,0,0:0:0:0:
256,192,60986,1,0,0:0:0:0:
256,192,61122,1,8,0:0:0:0:
256,192,61259,1,0,0:0:0:0:
256,192,61531,1,12,0:0:0:0:
256,192,61804,1,12,0:0:0:0:
256,192,62077,1,4,0:0:0:0:
256,192,62349,1,12,0:0:0:0:
256,192,62759,1,0,0:0:0:0:
256,192,62895,1,8,0:0:0:0:
256,192,62963,1,8,0:0:0:0:
256,192,63031,1,8,0:0:0:0:
256,192,63168,1,0,0:0:0:0:
256,192,63304,1,8,0:0:0:0:
256,192,63440,1,0,0:0:0:0:
256,192,63713,1,8,0:0:0:0:
256,192,63986,1,0,0:0:0:0:
256,192,64259,1,8,0:0:0:0:
256,192,64395,1,8,0:0:0:0:
256,192,64531,1,0,0:0:0:0:
256,192,64804,1,0,0:0:0:0:
256,192,64940,1,0,0:0:0:0:
256,192,65077,1,8,0:0:0:0:
256,192,65349,1,8,0:0:0:0:
256,192,65486,1,0,0:0:0:0:
256,192,65622,1,8,0:0:0:0:
256,192,65759,1,8,0:0:0:0:
256,192,65895,1,0,0:0:0:0:
256,192,66168,1,8,0:0:0:0:
256,192,66304,1,8,0:0:0:0:
256,192,66440,1,0,0:0:0:0:
256,192,66577,1,0,0:0:0:0:
256,192,66713,1,8,0:0:0:0:
256,192,67122,1,0,0:0:0:0:
256,192,67259,1,8,0:0:0:0:
256,192,67395,1,8,0:0:0:0:
256,192,67463,1,8,0:0:0:0:
256,192,67531,1,8,0:0:0:0:
256,192,67668,1,0,0:0:0:0:
256,192,67804,1,8,0:0:0:0:
256,192,67940,1,8,0:0:0:0:
256,192,68077,1,0,0:0:0:0:
256,192,68213,1,0,0:0:0:0:
256,192,68349,1,8,0:0:0:0:
256,192,68622,1,0,0:0:0:0:
256,192,68759,1,8,0:0:0:0:
256,192,68895,1,0,0:0:0:0:
256,192,69168,1,0,0:0:0:0:
256,192,69304,1,0,0:0:0:0:
256,192,69440,1,8,0:0:0:0:
256,192,69713,1,8,0:0:0:0:
256,192,69849,1,0,0:0:0:0:
256,192,69986,1,8,0:0:0:0:
256,192,70259,1,0,0:0:0:0:
256,192,70531,1,8,0:0:0:0:
256,192,71077,1,4,0:0:0:0:
256,192,71486,1,0,0:0:0:0:
256,192,71895,1,8,0:0:0:0:
256,192,72168,1,0,0:0:0:0:
256,192,72577,1,0,0:0:0:0:
256,192,72986,1,8,0:0:0:0:
256,192,73259,1,0,0:0:0:0:
256,192,73668,1,0,0:0:0:0:
256,192,74077,1,8,0:0:0:0:
256,192,74349,1,0,0:0:0:0:
256,192,74759,1,0,0:0:0:0:
256,192,75168,1,8,0:0:0:0:
256,192,75440,1,0,0:0:0:0:
256,192,75849,1,0,0:0:0:0:
256,192,76259,1,8,0:0:0:0:
256,192,76395,1,8,0:0:0:0:
256,192,76531,1,0,0:0:0:0:
256,192,76804,1,8,0:0:0:0:
256,192,77077,1,0,0:0:0:0:
256,192,77349,1,8,0:0:0:0:
256,192,77622,1,0,0:0:0:0:
256,192,78031,1,0,0:0:0:0:
256,192,78168,1,8,0:0:0:0:
256,192,78440,1,0,0:0:0:0:
256,192,78577,1,0,0:0:0:0:
256,192,78713,1,8,0:0:0:0:
256,192,78849,1,0,0:0:0:0:
256,192,78986,1,8,0:0:0:0:
256,192,79122,1,8,0:0:0:0:
256,192,79259,1,0,0:0:0:0:
256,192,79531,1,8,0:0:0:0:
256,192,79804,1,4,0:0:0:0:
256,192,80077,1,8,0:0:0:0:
256,192,80349,1,0,0:0:0:0:
256,192,80486,1,0,0:0:0:0:
256,192,80622,1,8,0:0:0:0:
256,192,80895,1,0,0:0:0:0:
256,192,81031,1,0,0:0:0:0:
256,192,81168,1,8,0:0:0:0:
256,192,81304,1,0,0:0:0:0:
256,192,81440,1,8,0:0:0:0:
256,192,81577,1,8,0:0:0:0:
256,192,81713,1,0,0:0:0:0:
256,192,81986,5,4,0:0:0:0:
256,192,82395,1,0,0:0:0:0:
256,192,82804,1,8,0:0:0:0:
256,192,83077,1,0,0:0:0:0:
256,192,84168,1,0,0:0:0:0:
256,192,84577,1,0,0:0:0:0:
256,192,84986,1,8,0:0:0:0:
256,192,85259,1,0,0:0:0:0:
256,192,86349,1,0,0:0:0:0:
256,192,86759,1,0,0:0:0:0:
256,192,87168,1,8,0:0:0:0:
256,192,87440,1,0,0:0:0:0:
256,192,88531,1,0,0:0:0:0:
256,192,88940,1,0,0:0:0:0:
256,192,89349,1,8,0:0:0:0:
256,192,89622,2,8,L|192:192,12,35
256,192,90713,1,4,0:0:0:0:
256,192,91122,1,0,0:0:0:0:
256,192,91531,1,8,0:0:0:0:
256,192,91804,1,0,0:0:0:0:
256,192,92213,1,0,0:0:0:0:
256,192,92622,1,8,0:0:0:0:
256,192,92895,1,0,0:0:0:0:
256,192,93304,1,0,0:0:0:0:
256,192,93713,1,8,0:0:0:0:
256,192,93986,1,0,0:0:0:0:
256,192,94259,1,8,0:0:0:0:
256,192,94531,1,8,0:0:0:0:
256,192,94804,1,0,0:0:0:0:
256,192,95077,1,0,0:0:0:0:
256,192,95486,1,0,0:0:0:0:
256,192,95895,1,8,0:0:0:0:
256,192,96168,1,0,0:0:0:0:
256,192,96577,1,0,0:0:0:0:
256,192,96986,1,8,0:0:0:0:
256,192,97259,1,0,0:0:0:0:
256,192,97668,1,8,0:0:0:0:
256,192,97804,1,0,0:0:0:0:
256,192,98077,1,8,0:0:0:0:
256,192,98349,1,0,0:0:0:0:
256,192,98622,1,0,0:0:0:0:
256,192,98759,1,0,0:0:0:0:
256,192,98895,1,8,0:0:0:0:
256,192,99168,1,0,0:0:0:0:
256,192,99440,1,12,0:0:0:0:
256,192,99713,1,8,0:0:0:0:
256,192,99849,1,0,0:0:0:0:
256,192,99986,1,8,0:0:0:0:
256,192,100259,1,0,0:0:0:0:
256,192,100531,1,8,0:0:0:0:
256,192,100804,1,8,0:0:0:0:
256,192,100940,1,8,0:0:0:0:
256,192,101077,1,0,0:0:0:0:
256,192,101349,1,8,0:0:0:0:
256,192,101622,1,0,0:0:0:0:
256,192,101895,1,0,0:0:0:0:
256,192,102031,1,0,0:0:0:0:
256,192,102168,1,8,0:0:0:0:
256,192,102440,1,0,0:0:0:0:
256,192,102713,1,8,0:0:0:0:
256,192,103259,1,8,0:0:0:0:
256,192,103531,1,0,0:0:0:0:
256,192,103804,1,8,0:0:0:0:
256,192,104077,1,8,0:0:0:0:
256,192,104213,1,0,0:0:0:0:
256,192,104349,1,8,0:0:0:0:
256,192,104622,1,8,0:0:0:0:
256,192,104895,1,0,0:0:0:0:
256,192,105168,1,8,0:0:0:0:
256,192,105440,1,0,0:0:0:0:
256,192,105713,1,0,0:0:0:0:
256,192,105986,1,8,0:0:0:0:
256,192,106259,1,8,0:0:0:0:
256,192,106395,1,8,0:0:0:0:
256,192,106531,1,0,0:0:0:0:
256,192,106804,1,0,0:0:0:0:
256,192,106940,1,0,0:0:0:0:
256,192,107077,1,8,0:0:0:0:
256,192,107349,1,0,0:0:0:0:
256,192,107622,1,8,0:0:0:0:
256,192,107759,1,8,0:0:0:0:
256,192,107895,1,0,0:0:0:0:
256,192,108031,1,0,0:0:0:0:
256,192,108168,1,12,0:0:0:0:
256,192,108577,1,0,0:0:0:0:
256,192,108713,1,8,0:0:0:0:
256,192,108781,1,8,0:0:0:0:
256,192,108849,1,8,0:0:0:0:
256,192,108986,1,0,0:0:0:0:
256,192,109122,1,8,0:0:0:0:
256,192,109259,1,0,0:0:0:0:
256,192,109531,1,8,0:0:0:0:
256,192,109804,1,0,0:0:0:0:
256,192,110077,1,8,0:0:0:0:
256,192,110213,1,8,0:0:0:0:
256,192,110349,1,0,0:0:0:0:
256,192,110622,1,8,0:0:0:0:
256,192,110895,1,0,0:0:0:0:
256,192,111031,1,0,0:0:0:0:
256,192,111099,1,0,0:0:0:0:
256,192,111168,1,0,0:0:0:0:
256,192,111304,1,8,0:0:0:0:
256,192,111440,1,0,0:0:0:0:
256,192,111713,1,8,0:0:0:0:
256,192,111986,1,0,0:0:0:0:
256,192,112259,1,8,0:0:0:0:
256,192,112395,1,8,0:0:0:0:
256,192,112531,1,0,0:0:0:0:
256,192,112940,1,0,0:0:0:0:
256,192,113077,1,8,0:0:0:0:
256,192,113145,1,8,0:0:0:0:
256,192,113213,1,8,0:0:0:0:
256,192,113349,1,0,0:0:0:0:
256,192,113486,1,0,0:0:0:0:
256,192,113622,1,12,0:0:0:0:
256,192,113895,1,4,0:0:0:0:
256,192,114168,1,12,0:0:0:0:
256,192,114440,1,8,0:0:0:0:
256,192,114577,1,8,0:0:0:0:
256,192,114713,1,0,0:0:0:0:
256,192,114986,1,8,0:0:0:0:
256,192,115122,1,0,0:0:0:0:
256,192,115259,1,8,0:0:0:0:
256,192,115531,1,8,0:0:0:0:
256,192,115668,1,8,0:0:0:0:
256,192,115804,1,0,0:0:0:0:
256,192,116077,1,12,0:0:0:0:
256,192,116349,1,0,0:0:0:0:
256,192,116622,1,12,0:0:0:0:
256,192,116895,1,4,0:0:0:0:
256,192,117304,1,0,0:0:0:0:
256,192,117440,1,8,0:0:0:0:
256,192,117509,1,8,0:0:0:0:
256,192,117577,1,8,0:0:0:0:
256,192,117713,1,0,0:0:0:0:
256,192,117849,1,0,0:0:0:0:
256,192,117986,1,8,0:0:0:0:
256,192,118259,1,0,0:0:0:0:
256,192,118531,1,8,0:0:0:0:
256,192,118804,1,8,0:0:0:0:
256,192,118940,1,8,0:0:0:0:
256,192,119077,1,0,0:0:0:0:
256,192,119349,1,0,0:0:0:0:
256,192,119486,1,0,0:0:0:0:
256,192,119622,1,8,0:0:0:0:
256,192,119895,1,0,0:0:0:0:
256,192,120031,1,8,0:0:0:0:
256,192,120168,1,0,0:0:0:0:
256,192,120304,1,8,0:0:0:0:
256,192,120372,1,8,0:0:0:0:
256,192,120440,1,8,0:0:0:0:
256,192,120577,1,8,0:0:0:0:
256,192,120713,1,0,0:0:0:0:
256,192,120849,1,0,0:0:0:0:
256,192,120986,1,8,0:0:0:0:
256,192,121122,1,8,0:0:0:0:
256,192,121259,1,0,0:0:0:0:
256,192,121668,1,0,0:0:0:0:
256,192,121805,1,8,0:0:0:0:
256,192,121941,1,8,0:0:0:0:
256,192,122009,1,8,0:0:0:0:
256,192,122077,1,8,0:0:0:0:
256,192,122214,1,0,0:0:0:0:
256,192,122350,1,8,0:0:0:0:
256,192,122486,1,8,0:0:0:0:
256,192,122623,1,0,0:0:0:0:
256,192,122759,1,0,0:0:0:0:
256,192,122895,1,8,0:0:0:0:
256,192,123168,1,0,0:0:0:0:
256,192,123441,1,8,0:0:0:0:
256,192,123714,1,0,0:0:0:0:
256,192,123850,1,0,0:0:0:0:
256,192,123986,1,8,0:0:0:0:
256,192,124259,1,8,0:0:0:0:
256,192,124395,1,0,0:0:0:0:
256,192,124532,1,8,0:0:0:0:
256,192,125077,1,8,0:0:0:0:
256,192,125622,1,4,0:0:0:0:
256,192,125895,1,8,0:0:0:0:
256,192,126168,1,0,0:0:0:0:
256,192,126304,1,0,0:0:0:0:
256,192,126440,1,8,0:0:0:0:
256,192,126577,1,8,0:0:0:0:
256,192,126849,1,8,0:0:0:0:
256,192,126986,1,0,0:0:0:0:
256,192,127122,1,8,0:0:0:0:
256,192,127259,1,0,0:0:0:0:
256,192,127327,1,0,0:0:0:0:
256,192,127395,1,0,0:0:0:0:
256,192,127531,1,8,0:0:0:0:
256,192,127668,1,0,0:0:0:0:
256,192,127804,1,0,0:0:0:0:
256,192,127940,1,0,0:0:0:0:
256,192,128213,1,8,0:0:0:0:
256,192,128349,1,8,0:0:0:0:
256,192,128622,1,0,0:0:0:0:
256,192,128759,1,0,0:0:0:0:
256,192,128895,1,8,0:0:0:0:
256,192,129031,1,0,0:0:0:0:
256,192,129168,1,8,0:0:0:0:
256,192,129236,1,8,0:0:0:0:
256,192,129304,1,8,0:0:0:0:
256,192,129440,1,0,0:0:0:0:
256,192,129713,1,8,0:0:0:0:
256,192,129986,1,0,0:0:0:0:
256,192,130395,1,8,0:0:0:0:
256,192,130668,1,0,0:0:0:0:
256,192,130804,1,8,0:0:0:0:
256,192,130940,1,0,0:0:0:0:
256,192,131077,1,8,0:0:0:0:
256,192,131213,1,8,0:0:0:0:
256,192,131349,1,0,0:0:0:0:
256,192,131486,1,8,0:0:0:0:
256,192,131759,1,0,0:0:0:0:
256,192,131895,1,8,0:0:0:0:
256,192,132031,1,0,0:0:0:0:
256,192,132168,1,8,0:0:0:0:
256,192,132236,1,8,0:0:0:0:
256,192,132304,1,8,0:0:0:0:
256,192,132440,1,0,0:0:0:0:
256,192,132577,1,8,0:0:0:0:
256,192,132713,1,0,0:0:0:0:
256,192,132781,1,0,0:0:0:0:
256,192,132849,1,0,0:0:0:0:
256,192,132986,1,8,0:0:0:0:
256,192,133122,1,0,0:0:0:0:
256,192,133259,1,8,0:0:0:0:
256,192,133531,1,8,0:0:0:0:
256,192,133668,1,0,0:0:0:0:
256,192,134077,1,0,0:0:0:0:
256,192,134213,1,0,0:0:0:0:
256,192,134349,1,8,0:0:0:0:
256,192,134622,1,8,0:0:0:0:
256,192,134895,1,8,0:0:0:0:
256,192,135031,1,8,0:0:0:0:
256,192,135168,1,0,0:0:0:0:
256,192,135440,1,8,0:0:0:0:
256,192,135577,1,0,0:0:0:0:
256,192,135645,1,0,0:0:0:0:
256,192,135713,1,0,0:0:0:0:
256,192,135849,1,0,0:0:0:0:
256,192,135986,1,8,0:0:0:0:
256,192,136122,1,8,0:0:0:0:
256,192,136259,1,0,0:0:0:0:
256,192,136531,1,8,0:0:0:0:
256,192,136804,1,0,0:0:0:0:
256,192,136940,1,8,0:0:0:0:
256,192,137077,1,0,0:0:0:0:
256,192,137349,1,8,0:0:0:0:
256,192,137622,1,0,0:0:0:0:
256,192,137895,1,0,0:0:0:0:
256,192,138031,1,0,0:0:0:0:
256,192,138168,1,8,0:0:0:0:
256,192,138304,1,0,0:0:0:0:
256,192,138440,1,8,0:0:0:0:
256,192,138713,1,0,0:0:0:0:
256,192,139395,1,8,0:0:0:0:
256,192,139531,1,0,0:0:0:0:
256,192,139668,1,0,0:0:0:0:
256,192,139804,1,8,0:0:0:0:
256,192,139940,1,8,0:0:0:0:
256,192,140077,1,0,0:0:0:0:
256,192,140349,1,0,0:0:0:0:
256,192,140486,1,0,0:0:0:0:
256,192,140622,1,8,0:0:0:0:
256,192,140895,1,8,0:0:0:0:
256,192,141168,1,8,0:0:0:0:
256,192,141304,1,8,0:0:0:0:
256,192,141440,1,0,0:0:0:0:
256,192,141577,1,0,0:0:0:0:
256,192,141713,1,8,0:0:0:0:
256,192,141849,1,0,0:0:0:0:
256,192,141986,1,8,0:0:0:0:
256,192,142259,1,8,0:0:0:0:
256,192,142395,1,8,0:0:0:0:
256,192,142531,1,0,0:0:0:0:
256,192,142804,1,8,0:0:0:0:
256,192,143077,1,0,0:0:0:0:
256,192,143213,1,0,0:0:0:0:
256,192,143349,1,8,0:0:0:0:
256,192,143486,1,8,0:0:0:0:
256,192,143622,1,0,0:0:0:0:
256,192,143895,1,8,0:0:0:0:
256,192,144168,1,0,0:0:0:0:
256,192,144849,1,8,0:0:0:0:
256,192,144986,1,0,0:0:0:0:
256,192,145122,1,0,0:0:0:0:
256,192,145259,1,8,0:0:0:0:
256,192,145531,1,8,0:0:0:0:
256,192,145668,1,8,0:0:0:0:
256,192,145804,1,0,0:0:0:0:
256,192,146077,1,8,0:0:0:0:
256,192,146349,1,0,0:0:0:0:
256,192,147031,1,8,0:0:0:0:
256,192,147168,1,0,0:0:0:0:
256,192,147304,1,0,0:0:0:0:
256,192,147440,1,8,0:0:0:0:
256,192,147713,1,8,0:0:0:0:
256,192,147849,1,0,0:0:0:0:
256,192,147986,1,8,0:0:0:0:
256,192,148259,1,0,0:0:0:0:
256,192,148531,1,8,0:0:0:0:
256,192,148804,1,8,0:0:0:0:
256,192,148940,1,8,0:0:0:0:
256,192,149213,1,0,0:0:0:0:
256,192,149349,1,8,0:0:0:0:
256,192,149622,1,8,0:0:0:0:
256,192,149895,1,8,0:0:0:0:
256,192,150031,1,8,0:0:0:0:
256,192,150168,1,0,0:0:0:0:
256,192,150440,1,8,0:0:0:0:
256,192,150713,1,0,0:0:0:0:
256,192,151259,1,8,0:0:0:0:
256,192,151804,1,0,0:0:0:0:
256,192,151940,1,0,0:0:0:0:
256,192,152077,1,8,0:0:0:0:
256,192,152213,1,0,0:0:0:0:
256,192,152349,1,8,0:0:0:0:
256,192,152622,1,8,0:0:0:0:
256,192,152895,1,0,0:0:0:0:
256,192,153577,1,0,0:0:0:0:
256,192,153713,1,8,0:0:0:0:
256,192,153849,1,8,0:0:0:0:
256,192,153986,1,0,0:0:0:0:
256,192,154259,1,0,0:0:0:0:
256,192,154395,1,0,0:0:0:0:
256,192,154531,1,8,0:0:0:0:
256,192,154804,1,0,0:0:0:0:
256,192,155077,1,8,0:0:0:0:
256,192,155759,1,8,0:0:0:0:
256,192,155895,1,8,0:0:0:0:
256,192,156031,1,0,0:0:0:0:
256,192,156168,1,0,0:0:0:0:
256,192,156986,1,0,0:0:0:0:
256,192,157122,1,0,0:0:0:0:
256,192,157259,1,8,0:0:0:0:
256,192,157531,1,0,0:0:0:0:
256,192,157940,1,0,0:0:0:0:
256,192,158077,1,8,0:0:0:0:
256,192,158213,1,0,0:0:0:0:
256,192,158349,1,8,0:0:0:0:
256,192,158622,1,0,0:0:0:0:
256,192,158759,1,0,0:0:0:0:
256,192,158895,1,8,0:0:0:0:
256,192,159168,1,0,0:0:0:0:
256,192,159440,1,8,0:0:0:0:
256,192,159577,1,8,0:0:0:0:
256,192,159713,1,0,0:0:0:0:
256,192,159986,1,8,0:0:0:0:
256,192,160259,1,0,0:0:0:0:
256,192,160531,12,8,161622,0:0:0:0:
256,192,161895,5,8,0:0:0:0:
256,192,162168,1,0,0:0:0:0:
256,192,162440,1,8,0:0:0:0:
256,192,162713,1,0,0:0:0:0:
256,192,163259,1,0,0:0:0:0:
256,192,163804,1,8,0:0:0:0:
256,192,164349,1,8,0:0:0:0:
256,192,164895,1,0,0:0:0:0:
256,192,165440,1,0,0:0:0:0:
256,192,165986,1,8,0:0:0:0:
256,192,166531,1,8,0:0:0:0:
256,192,167077,1,0,0:0:0:0:
256,192,167622,1,0,0:0:0:0:
256,192,168168,1,8,0:0:0:0:
256,192,168713,1,8,0:0:0:0:
256,192,169259,1,0,0:0:0:0:
256,192,169804,1,0,0:0:0:0:
256,192,170349,1,12,0:0:0:0:
256,192,170486,2,0,L|192:192,5,62.9999980773926
256,192,171440,1,4,0:0:0:0:
256,192,171849,1,0,0:0:0:0:
256,192,172259,1,8,0:0:0:0:
256,192,172531,1,0,0:0:0:0:
256,192,172940,1,0,0:0:0:0:
256,192,173349,1,8,0:0:0:0:
256,192,173622,1,0,0:0:0:0:
256,192,174031,1,0,0:0:0:0:
256,192,174440,1,8,0:0:0:0:
256,192,174713,1,0,0:0:0:0:
256,192,175122,1,0,0:0:0:0:
256,192,175531,1,8,0:0:0:0:
256,192,175804,1,0,0:0:0:0:
256,192,176213,1,0,0:0:0:0:
256,192,176622,1,8,0:0:0:0:
256,192,176895,1,0,0:0:0:0:
256,192,177304,1,0,0:0:0:0:
256,192,177713,1,8,0:0:0:0:
256,192,177986,1,0,0:0:0:0:
256,192,178395,1,0,0:0:0:0:
256,192,178804,1,8,0:0:0:0:
256,192,179077,1,0,0:0:0:0:
256,192,179349,1,8,0:0:0:0:
256,192,179622,1,0,0:0:0:0:
256,192,179895,1,8,0:0:0:0:
256,192,180168,1,4,0:0:0:0:
256,192,180577,1,0,0:0:0:0:
256,192,180713,1,8,0:0:0:0:
256,192,180781,1,8,0:0:0:0:
256,192,180849,1,8,0:0:0:0:
256,192,180986,1,0,0:0:0:0:
256,192,181122,1,8,0:0:0:0:
256,192,181259,1,0,0:0:0:0:
256,192,181531,1,8,0:0:0:0:
256,192,181804,1,0,0:0:0:0:
256,192,182077,1,8,0:0:0:0:
256,192,182213,1,8,0:0:0:0:
256,192,182349,1,0,0:0:0:0:
256,192,182622,1,8,0:0:0:0:
256,192,182895,1,0,0:0:0:0:
256,192,183031,1,0,0:0:0:0:
256,192,183099,1,0,0:0:0:0:
256,192,183168,1,0,0:0:0:0:
256,192,183304,1,8,0:0:0:0:
256,192,183440,1,0,0:0:0:0:
256,192,183577,1,0,0:0:0:0:
256,192,183713,1,8,0:0:0:0:
256,192,183986,1,8,0:0:0:0:
256,192,184259,1,0,0:0:0:0:
256,192,184395,1,8,0:0:0:0:
256,192,184531,1,0,0:0:0:0:
256,192,184940,1,0,0:0:0:0:
256,192,185077,1,8,0:0:0:0:
256,192,185145,1,8,0:0:0:0:
256,192,185213,1,8,0:0:0:0:
256,192,185349,1,0,0:0:0:0:
256,192,185486,1,0,0:0:0:0:
256,192,185622,1,12,0:0:0:0:
256,192,185895,1,4,0:0:0:0:
256,192,186168,1,12,0:0:0:0:
256,192,186440,1,8,0:0:0:0:
256,192,186577,1,8,0:0:0:0:
256,192,186713,1,0,0:0:0:0:
256,192,186986,1,8,0:0:0:0:
256,192,187122,1,8,0:0:0:0:
256,192,187190,1,8,0:0:0:0:
256,192,187259,1,8,0:0:0:0:
256,192,187395,1,0,0:0:0:0:
256,192,187531,1,8,0:0:0:0:
256,192,187668,1,0,0:0:0:0:
256,192,187804,1,8,0:0:0:0:
256,192,188077,1,12,0:0:0:0:
256,192,188349,1,4,0:0:0:0:
256,192,188622,1,12,0:0:0:0:
256,192,188895,1,4,0:0:0:0:
256,192,189304,1,0,0:0:0:0:
256,192,189440,1,8,0:0:0:0:
256,192,189509,1,8,0:0:0:0:
256,192,189577,1,8,0:0:0:0:
256,192,189713,1,0,0:0:0:0:
256,192,189849,1,8,0:0:0:0:
256,192,189986,1,8,0:0:0:0:
256,192,190259,1,0,0:0:0:0:
256,192,190531,1,8,0:0:0:0:
256,192,190804,1,0,0:0:0:0:
256,192,190940,1,8,0:0:0:0:
256,192,191077,1,0,0:0:0:0:
256,192,191349,1,8,0:0:0:0:
256,192,191486,1,8,0:0:0:0:
256,192,191622,1,0,0:0:0:0:
256,192,191895,1,8,0:0:0:0:
256,192,192031,1,0,0:0:0:0:
256,192,192168,1,8,0:0:0:0:
256,192,192304,1,8,0:0:0:0:
256,192,192372,1,8,0:0:0:0:
256,192,192440,1,8,0:0:0:0:
256,192,192577,1,0,0:0:0:0:
256,192,192713,1,8,0:0:0:0:
256,192,192849,1,8,0:0:0:0:
256,192,192986,1,0,0:0:0:0:
256,192,193122,1,8,0:0:0:0:
256,192,193259,1,0,0:0:0:0:
256,192,193668,1,0,0:0:0:0:
256,192,193804,1,8,0:0:0:0:
256,192,193940,1,0,0:0:0:0:
256,192,194009,1,0,0:0:0:0:
256,192,194077,1,0,0:0:0:0:
256,192,194213,1,8,0:0:0:0:
256,192,194349,1,0,0:0:0:0:
256,192,194486,1,8,0:0:0:0:
256,192,194622,1,8,0:0:0:0:
256,192,194759,1,0,0:0:0:0:
256,192,194895,1,8,0:0:0:0:
256,192,195168,1,0,0:0:0:0:
256,192,195304,1,8,0:0:0:0:
256,192,195440,1,0,0:0:0:0:
256,192,195713,1,8,0:0:0:0:
256,192,195849,1,8,0:0:0:0:
256,192,195986,1,0,0:0:0:0:
256,192,196259,1,8,0:0:0:0:
256,192,196395,1,0,0:0:0:0:
256,192,196531,1,8,0:0:0:0:
256,192,197077,1,8,0:0:0:0:
256,192,197349,1,8,0:0:0:0:
256,192,197486,1,8,0:0:0:0:
256,192,197622,1,0,0:0:0:0:
256,192,197895,1,8,0:0:0:0:
256,192,198031,1,0,0:0:0:0:
256,192,198168,1,8,0:0:0:0:
256,192,198304,1,8,0:0:0:0:
256,192,198440,1,0,0:0:0:0:
256,192,198577,1,0,0:0:0:0:
256,192,198713,1,8,0:0:0:0:
256,192,198986,1,0,0:0:0:0:
256,192,199259,1,8,0:0:0:0:
256,192,199531,1,0,0:0:0:0:
256,192,199804,1,12,0:0:0:0:
