osu file format v14

[General]
AudioFilename: audio.mp3
AudioLeadIn: 0
PreviewTime: 107349
Countdown: 0
SampleSet: Normal
StackLeniency: 0.7
Mode: 1
LetterboxInBreaks: 0
WidescreenStoryboard: 1

[Editor]
Bookmarks: 1259,9986,27440,44895,53622,71077,81986,99440,108168,125622,143077,162713,180168,199804,217259
DistanceSpacing: 0.8
BeatDivisor: 4
GridSize: 32
TimelineZoom: 3.299999

[Metadata]
Title:Toumei Elegy
TitleUnicode:透明エレジー
Artist:Konuko
ArtistUnicode:こぬこ
Creator:incandescence
Version:Kinobles' Inner Oni
Source:
Tags:gabe veus nardoxyribonucleic aloda hikikochan hikiko- kinomicandy aabc271 Vocaloid 櫻花アリス n-buna ouka alice Megpoid Gumi utau japanese novelty taikocracy
BeatmapID:1538448
BeatmapSetID:563743

[Difficulty]
HPDrainRate:6
CircleSize:4
OverallDifficulty:6
ApproachRate:5
SliderMultiplier:1.4
SliderTickRate:1

[Events]
//Background and Video events
0,0,"toumeielegy.jpg",0,0
//Break Periods
//Storyboard Layer 0 (Background)
//Storyboard Layer 1 (Fail)
//Storyboard Layer 2 (Pass)
//Storyboard Layer 3 (Foreground)
//Storyboard Sound Samples

[TimingPoints]
1259,272.727272727273,4,1,0,70,1,0
1259,-125,4,1,0,70,0,0
9986,-100,4,1,0,70,0,0
27440,-125,4,1,0,70,0,0
44895,-111.111111111111,4,1,0,70,0,0
52531,-105.263157894737,4,1,0,70,0,0
53622,-100,4,1,0,70,0,1
71077,-111.111111111111,4,1,0,70,0,0
79804,-100,4,1,0,70,0,0
81986,-125,4,1,0,70,0,0
89622,-100,4,1,0,70,0,0
90986,-125,4,1,0,70,0,0
99440,-111.111111111111,4,1,0,70,0,0
107349,-105.263157894737,4,1,0,70,0,0
108168,-100,4,1,0,70,0,1
125622,-100,4,1,0,70,0,0
143077,-111.111111111111,4,1,0,70,0,0
161895,-117.647058823529,4,1,0,70,0,0
162713,-125,4,1,0,70,0,0
171440,-117.647058823529,4,1,0,70,0,0
179349,-111.111111111111,4,1,0,70,0,0
179622,-100,4,1,0,70,0,0
179895,-95.2380952380952,4,1,0,70,0,0
180168,-90.9090909090909,4,1,0,70,0,1
199804,-100,4,1,0,70,0,0

[HitObjects]
256,192,1259,5,4,0:0:0:0:
256,192,1668,1,0,0:0:0:0:
256,192,2077,1,8,0:0:0:0:
256,192,2349,1,0,0:0:0:0:
256,192,2759,1,0,0:0:0:0:
256,192,3168,1,8,0:0:0:0:
256,192,3440,1,0,0:0:0:0:
256,192,3849,1,0,0:0:0:0:
256,192,4259,1,8,0:0:0:0:
256,192,4531,1,0,0:0:0:0:
256,192,4940,1,0,0:0:0:0:
256,192,5349,1,8,0:0:0:0:
256,192,5622,1,4,0:0:0:0:
256,192,6031,1,0,0:0:0:0:
256,192,6440,1,8,0:0:0:0:
256,192,6713,1,0,0:0:0:0:
256,192,7122,1,0,0:0:0:0:
256,192,7531,1,8,0:0:0:0:
256,192,7804,1,0,0:0:0:0:
256,192,8213,1,0,0:0:0:0:
256,192,8622,1,8,0:0:0:0:
256,192,8895,1,0,0:0:0:0:
256,192,9986,1,4,0:0:0:0:
256,192,10122,1,8,0:0:0:0:
256,192,10190,1,8,0:0:0:0:
256,192,10259,1,0,0:0:0:0:
256,192,10395,1,8,0:0:0:0:
256,192,10668,1,8,0:0:0:0:
256,192,10804,1,8,0:0:0:0:
256,192,10940,1,0,0:0:0:0:
256,192,11009,1,0,0:0:0:0:
256,192,11077,1,8,0:0:0:0:
256,192,11213,1,0,0:0:0:0:
256,192,11349,1,8,0:0:0:0:
256,192,11486,1,8,0:0:0:0:
256,192,11622,1,0,0:0:0:0:
256,192,11690,1,8,0:0:0:0:
256,192,11759,1,0,0:0:0:0:
256,192,11827,1,0,0:0:0:0:
256,192,11895,1,8,0:0:0:0:
256,192,12031,1,0,0:0:0:0:
256,192,12168,1,8,0:0:0:0:
256,192,12304,1,8,0:0:0:0:
256,192,12372,1,8,0:0:0:0:
256,192,12440,1,0,0:0:0:0:
256,192,12577,1,0,0:0:0:0:
256,192,12713,1,8,0:0:0:0:
256,192,12849,1,0,0:0:0:0:
256,192,12986,1,8,0:0:0:0:
256,192,13054,1,8,0:0:0:0:
256,192,13122,1,0,0:0:0:0:
256,192,13190,1,0,0:0:0:0:
256,192,13259,1,8,0:0:0:0:
256,192,13395,1,0,0:0:0:0:
256,192,13463,1,0,0:0:0:0:
256,192,13531,1,8,0:0:0:0:
256,192,13668,1,0,0:0:0:0:
256,192,13804,1,8,0:0:0:0:
256,192,13940,1,8,0:0:0:0:
256,192,14009,1,8,0:0:0:0:
256,192,14077,1,0,0:0:0:0:
256,192,14213,1,8,0:0:0:0:
256,192,14349,1,4,0:0:0:0:
256,192,14622,1,8,0:0:0:0:
256,192,14759,1,8,0:0:0:0:
256,192,14827,1,8,0:0:0:0:
256,192,14895,1,0,0:0:0:0:
256,192,15031,1,0,0:0:0:0:
256,192,15168,1,8,0:0:0:0:
256,192,15236,1,0,0:0:0:0:
256,192,15304,1,0,0:0:0:0:
256,192,15372,1,0,0:0:0:0:
256,192,15440,1,8,0:0:0:0:
256,192,15577,1,0,0:0:0:0:
256,192,15713,1,8,0:0:0:0:
256,192,15849,1,0,0:0:0:0:
256,192,15918,1,0,0:0:0:0:
256,192,15986,1,8,0:0:0:0:
256,192,16122,1,0,0:0:0:0:
256,192,16259,1,8,0:0:0:0:
256,192,16327,1,8,0:0:0:0:
256,192,16395,1,0,0:0:0:0:
256,192,16463,1,0,0:0:0:0:
256,192,16531,1,8,0:0:0:0:
256,192,16668,1,0,0:0:0:0:
256,192,16804,1,8,0:0:0:0:
256,192,16940,1,8,0:0:0:0:
256,192,17077,1,0,0:0:0:0:
256,192,17213,1,8,0:0:0:0:
256,192,17281,1,8,0:0:0:0:
256,192,17349,1,0,0:0:0:0:
256,192,17486,1,8,0:0:0:0:
256,192,17622,1,4,0:0:0:0:
256,192,17759,1,0,0:0:0:0:
256,192,17895,1,8,0:0:0:0:
256,192,18031,1,0,0:0:0:0:
256,192,18168,1,8,0:0:0:0:
256,192,18304,1,0,0:0:0:0:
256,192,18440,1,12,0:0:0:0:
256,192,18713,1,4,0:0:0:0:
256,192,18849,1,8,0:0:0:0:
256,192,18917,1,8,0:0:0:0:
256,192,18986,1,0,0:0:0:0:
256,192,19122,1,8,0:0:0:0:
256,192,19395,1,8,0:0:0:0:
256,192,19531,1,8,0:0:0:0:
256,192,19667,1,0,0:0:0:0:
256,192,19736,1,0,0:0:0:0:
256,192,19804,1,8,0:0:0:0:
256,192,19940,1,0,0:0:0:0:
256,192,20076,1,8,0:0:0:0:
256,192,20213,1,8,0:0:0:0:
256,192,20349,1,0,0:0:0:0:
256,192,20417,1,8,0:0:0:0:
256,192,20486,1,0,0:0:0:0:
256,192,20554,1,0,0:0:0:0:
256,192,20622,1,8,0:0:0:0:
256,192,20758,1,0,0:0:0:0:
256,192,20895,1,8,0:0:0:0:
256,192,21031,1,8,0:0:0:0:
256,192,21099,1,8,0:0:0:0:
256,192,21167,1,0,0:0:0:0:
256,192,21304,1,0,0:0:0:0:
256,192,21440,1,8,0:0:0:0:
256,192,21576,1,0,0:0:0:0:
256,192,21713,1,8,0:0:0:0:
256,192,21781,1,8,0:0:0:0:
256,192,21849,1,0,0:0:0:0:
256,192,21917,1,0,0:0:0:0:
256,192,21986,1,8,0:0:0:0:
256,192,22122,1,0,0:0:0:0:
256,192,22190,1,0,0:0:0:0:
256,192,22258,1,8,0:0:0:0:
256,192,22395,1,0,0:0:0:0:
256,192,22531,1,8,0:0:0:0:
256,192,22667,1,8,0:0:0:0:
256,192,22736,1,8,0:0:0:0:
256,192,22804,1,0,0:0:0:0:
256,192,22940,1,8,0:0:0:0:
256,192,23076,1,4,0:0:0:0:
256,192,23349,1,8,0:0:0:0:
256,192,23486,1,8,0:0:0:0:
256,192,23554,1,8,0:0:0:0:
256,192,23622,1,0,0:0:0:0:
256,192,23758,1,0,0:0:0:0:
256,192,23895,1,8,0:0:0:0:
256,192,23963,1,8,0:0:0:0:
256,192,24031,1,0,0:0:0:0:
256,192,24099,1,0,0:0:0:0:
256,192,24167,1,0,0:0:0:0:
256,192,24304,1,8,0:0:0:0:
256,192,24440,1,8,0:0:0:0:
256,192,24576,1,0,0:0:0:0:
256,192,24645,1,0,0:0:0:0:
256,192,24713,1,8,0:0:0:0:
256,192,24849,1,0,0:0:0:0:
256,192,24986,1,8,0:0:0:0:
256,192,25054,1,8,0:0:0:0:
256,192,25122,1,0,0:0:0:0:
256,192,25190,1,0,0:0:0:0:
256,192,25258,1,8,0:0:0:0:
256,192,25395,1,0,0:0:0:0:
256,192,25531,1,8,0:0:0:0:
256,192,25667,1,8,0:0:0:0:
256,192,25804,1,0,0:0:0:0:
256,192,25940,1,8,0:0:0:0:
256,192,26008,1,8,0:0:0:0:
256,192,26076,1,0,0:0:0:0:
256,192,26213,1,8,0:0:0:0:
256,192,26349,1,4,0:0:0:0:
256,192,26486,1,0,0:0:0:0:
256,192,26622,1,8,0:0:0:0:
256,192,26758,1,8,0:0:0:0:
256,192,26895,1,0,0:0:0:0:
256,192,27031,1,0,0:0:0:0:
256,192,27167,1,12,0:0:0:0:
256,192,27440,1,0,0:0:0:0:
256,192,27713,1,0,0:0:0:0:
256,192,27849,1,8,0:0:0:0:
256,192,27986,1,0,0:0:0:0:
256,192,28259,1,8,0:0:0:0:
256,192,28531,1,0,0:0:0:0:
256,192,28804,1,0,0:0:0:0:
256,192,29077,1,8,0:0:0:0:
256,192,29349,1,8,0:0:0:0:
256,192,29622,1,0,0:0:0:0:
256,192,30031,1,0,0:0:0:0:
256,192,30440,1,8,0:0:0:0:
256,192,30713,1,0,0:0:0:0:
256,192,30986,1,0,0:0:0:0:
256,192,31259,1,8,0:0:0:0:
256,192,31531,1,0,0:0:0:0:
256,192,31804,1,0,0:0:0:0:
256,192,32213,1,0,0:0:0:0:
256,192,32622,1,8,0:0:0:0:
256,192,32895,1,0,0:0:0:0:
256,192,33713,1,8,0:0:0:0:
256,192,33986,1,0,0:0:0:0:
256,192,34259,1,0,0:0:0:0:
256,192,34395,1,8,0:0:0:0:
256,192,34531,1,0,0:0:0:0:
256,192,34804,1,8,0:0:0:0:
256,192,35077,1,0,0:0:0:0:
256,192,35349,1,8,0:0:0:0:
256,192,35486,1,8,0:0:0:0:
256,192,35622,1,0,0:0:0:0:
256,192,35759,1,0,0:0:0:0:
256,192,35895,1,12,0:0:0:0:
256,192,36168,1,4,0:0:0:0:
256,192,36440,1,0,0:0:0:0:
256,192,36577,1,8,0:0:0:0:
256,192,36713,1,0,0:0:0:0:
256,192,36986,1,8,0:0:0:0:
256,192,37259,1,0,0:0:0:0:
256,192,37531,1,8,0:0:0:0:
256,192,37668,1,0,0:0:0:0:
256,192,37804,1,8,0:0:0:0:
256,192,38077,1,8,0:0:0:0:
256,192,38349,1,0,0:0:0:0:
256,192,38759,1,0,0:0:0:0:
256,192,39168,1,8,0:0:0:0:
256,192,39440,1,0,0:0:0:0:
256,192,39713,1,0,0:0:0:0:
256,192,39849,1,8,0:0:0:0:
256,192,39986,1,0,0:0:0:0:
256,192,40259,1,8,0:0:0:0:
256,192,40531,1,4,0:0:0:0:
256,192,40940,1,0,0:0:0:0:
256,192,41349,1,8,0:0:0:0:
256,192,41622,1,0,0:0:0:0:
256,192,42031,1,0,0:0:0:0:
256,192,42440,1,8,0:0:0:0:
256,192,42713,1,4,0:0:0:0:
256,192,42986,1,8,0:0:0:0:
256,192,43122,1,8,0:0:0:0:
256,192,43259,1,0,0:0:0:0:
256,192,43531,1,8,0:0:0:0:
256,192,43804,1,0,0:0:0:0:
256,192,44077,1,8,0:0:0:0:
256,192,44213,1,8,0:0:0:0:
256,192,44349,1,0,0:0:0:0:
256,192,44486,1,0,0:0:0:0:
256,192,44622,1,12,0:0:0:0:
256,192,44895,1,4,0:0:0:0:
256,192,45168,1,0,0:0:0:0:
256,192,45304,1,0,0:0:0:0:
256,192,45440,1,8,0:0:0:0:
256,192,45713,1,0,0:0:0:0:
256,192,45849,1,0,0:0:0:0:
256,192,45918,1,8,0:0:0:0:
256,192,45986,1,0,0:0:0:0:
256,192,46259,1,0,0:0:0:0:
256,192,46395,1,0,0:0:0:0:
256,192,46531,1,8,0:0:0:0:
256,192,46804,1,8,0:0:0:0:
256,192,46872,1,8,0:0:0:0:
256,192,46940,1,0,0:0:0:0:
256,192,47009,1,0,0:0:0:0:
256,192,47077,1,0,0:0:0:0:
256,192,47349,1,0,0:0:0:0:
256,192,47486,1,0,0:0:0:0:
256,192,47622,1,8,0:0:0:0:
256,192,47759,1,8,0:0:0:0:
256,192,47895,1,8,0:0:0:0:
256,192,47963,1,8,0:0:0:0:
256,192,48031,1,0,0:0:0:0:
256,192,48168,1,0,0:0:0:0:
256,192,48440,1,12,0:0:0:0:
256,192,48577,1,0,0:0:0:0:
256,192,48713,1,0,0:0:0:0:
256,192,48849,1,0,0:0:0:0:
256,192,48986,1,8,0:0:0:0:
256,192,49054,1,8,0:0:0:0:
256,192,49122,1,0,0:0:0:0:
256,192,49190,1,0,0:0:0:0:
256,192,49259,1,0,0:0:0:0:
256,192,49531,1,4,0:0:0:0:
256,192,49668,1,0,0:0:0:0:
256,192,49804,1,8,0:0:0:0:
256,192,50077,1,0,0:0:0:0:
256,192,50213,1,8,0:0:0:0:
256,192,50281,1,8,0:0:0:0:
256,192,50349,1,0,0:0:0:0:
256,192,50622,1,0,0:0:0:0:
256,192,50895,1,0,0:0:0:0:
256,192,51168,1,8,0:0:0:0:
256,192,51440,1,0,0:0:0:0:
256,192,51713,1,8,0:0:0:0:
256,192,51849,1,0,0:0:0:0:
256,192,52122,1,0,0:0:0:0:
256,192,52259,1,8,0:0:0:0:
256,192,52531,1,0,0:0:0:0:
256,192,52668,1,0,0:0:0:0:
256,192,52804,1,8,0:0:0:0:
256,192,52940,1,8,0:0:0:0:
256,192,53077,1,0,0:0:0:0:
256,192,53349,1,8,0:0:0:0:
256,192,53622,1,4,0:0:0:0:
256,192,53759,1,8,0:0:0:0:
256,192,53895,1,0,0:0:0:0:
256,192,54031,1,8,0:0:0:0:
256,192,54099,1,8,0:0:0:0:
256,192,54168,1,0,0:0:0:0:
256,192,54304,1,0,0:0:0:0:
256,192,54440,1,8,0:0:0:0:
256,192,54509,1,8,0:0:0:0:
256,192,54577,1,0,0:0:0:0:
256,192,54645,1,0,0:0:0:0:
256,192,54713,1,0,0:0:0:0:
256,192,54849,1,8,0:0:0:0:
256,192,54918,1,8,0:0:0:0:
256,192,54986,1,0,0:0:0:0:
256,192,55122,1,8,0:0:0:0:
256,192,55259,1,0,0:0:0:0:
256,192,55327,1,0,0:0:0:0:
256,192,55395,1,0,0:0:0:0:
256,192,55463,1,8,0:0:0:0:
256,192,55531,1,0,0:0:0:0:
256,192,55668,1,8,0:0:0:0:
256,192,55736,1,8,0:0:0:0:
256,192,55804,1,0,0:0:0:0:
256,192,55940,1,8,0:0:0:0:
256,192,56077,1,0,0:0:0:0:
256,192,56145,1,0,0:0:0:0:
256,192,56213,1,8,0:0:0:0:
256,192,56349,1,0,0:0:0:0:
256,192,56418,1,0,0:0:0:0:
256,192,56486,1,8,0:0:0:0:
256,192,56554,1,8,0:0:0:0:
256,192,56622,1,0,0:0:0:0:
256,192,56690,1,8,0:0:0:0:
256,192,56759,1,0,0:0:0:0:
256,192,56827,1,0,0:0:0:0:
256,192,56895,1,8,0:0:0:0:
256,192,57031,1,8,0:0:0:0:
256,192,57099,1,8,0:0:0:0:
256,192,57168,1,0,0:0:0:0:
256,192,57304,1,8,0:0:0:0:
256,192,57440,1,0,0:0:0:0:
256,192,57577,1,0,0:0:0:0:
256,192,57645,1,0,0:0:0:0:
256,192,57713,1,8,0:0:0:0:
256,192,57849,1,0,0:0:0:0:
256,192,57986,1,4,0:0:0:0:
256,192,58122,1,8,0:0:0:0:
256,192,58190,1,8,0:0:0:0:
256,192,58259,1,0,0:0:0:0:
256,192,58395,1,0,0:0:0:0:
256,192,58531,1,8,0:0:0:0:
256,192,58668,1,0,0:0:0:0:
256,192,58736,1,0,0:0:0:0:
256,192,58804,1,8,0:0:0:0:
256,192,58940,1,0,0:0:0:0:
256,192,59077,1,8,0:0:0:0:
256,192,59145,1,8,0:0:0:0:
256,192,59213,1,0,0:0:0:0:
256,192,59281,1,0,0:0:0:0:
256,192,59349,1,0,0:0:0:0:
256,192,59418,1,8,0:0:0:0:
256,192,59486,1,0,0:0:0:0:
256,192,59554,1,0,0:0:0:0:
256,192,59622,1,8,0:0:0:0:
256,192,59759,1,8,0:0:0:0:
256,192,59827,1,8,0:0:0:0:
256,192,59895,1,0,0:0:0:0:
256,192,60031,1,8,0:0:0:0:
256,192,60168,1,0,0:0:0:0:
256,192,60304,1,0,0:0:0:0:
256,192,60440,1,8,0:0:0:0:
256,192,60509,1,8,0:0:0:0:
256,192,60577,1,0,0:0:0:0:
256,192,60645,1,0,0:0:0:0:
256,192,60713,1,8,0:0:0:0:
256,192,60849,1,8,0:0:0:0:
256,192,60918,1,8,0:0:0:0:
256,192,60986,1,0,0:0:0:0:
256,192,61122,1,0,0:0:0:0:
256,192,61259,1,8,0:0:0:0:
256,192,61531,1,4,0:0:0:0:
256,192,61804,1,12,0:0:0:0:
256,192,62077,1,12,0:0:0:0:
256,192,62349,1,4,0:0:0:0:
256,192,62486,1,8,0:0:0:0:
256,192,62554,1,8,0:0:0:0:
256,192,62622,1,0,0:0:0:0:
256,192,62759,1,8,0:0:0:0:
256,192,62895,1,0,0:0:0:0:
256,192,62963,1,8,0:0:0:0:
256,192,63031,1,0,0:0:0:0:
256,192,63099,1,0,0:0:0:0:
256,192,63168,1,8,0:0:0:0:
256,192,63304,1,0,0:0:0:0:
256,192,63440,1,8,0:0:0:0:
256,192,63509,1,8,0:0:0:0:
256,192,63577,1,0,0:0:0:0:
256,192,63645,1,0,0:0:0:0:
256,192,63713,1,8,0:0:0:0:
256,192,63781,1,8,0:0:0:0:
256,192,63849,1,8,0:0:0:0:
256,192,63918,1,8,0:0:0:0:
256,192,63986,1,0,0:0:0:0:
256,192,64122,1,8,0:0:0:0:
256,192,64259,1,0,0:0:0:0:
256,192,64395,1,8,0:0:0:0:
256,192,64463,1,8,0:0:0:0:
256,192,64531,1,0,0:0:0:0:
256,192,64668,1,8,0:0:0:0:
256,192,64804,1,0,0:0:0:0:
256,192,64872,1,8,0:0:0:0:
256,192,64940,1,0,0:0:0:0:
256,192,65009,1,0,0:0:0:0:
256,192,65077,1,8,0:0:0:0:
256,192,65213,1,0,0:0:0:0:
256,192,65349,1,8,0:0:0:0:
256,192,65486,1,8,0:0:0:0:
256,192,65622,1,0,0:0:0:0:
256,192,65690,1,0,0:0:0:0:
256,192,65759,1,8,0:0:0:0:
256,192,65827,1,8,0:0:0:0:
256,192,65895,1,0,0:0:0:0:
256,192,65963,1,8,0:0:0:0:
256,192,66031,1,0,0:0:0:0:
256,192,66099,1,0,0:0:0:0:
256,192,66168,1,8,0:0:0:0:
256,192,66304,1,0,0:0:0:0:
256,192,66440,1,8,0:0:0:0:
256,192,66577,1,8,0:0:0:0:
256,192,66713,1,4,0:0:0:0:
256,192,66849,1,0,0:0:0:0:
256,192,66986,1,8,0:0:0:0:
256,192,67122,1,8,0:0:0:0:
256,192,67259,1,0,0:0:0:0:
256,192,67327,1,8,0:0:0:0:
256,192,67395,1,8,0:0:0:0:
256,192,67463,1,8,0:0:0:0:
256,192,67531,1,0,0:0:0:0:
256,192,67599,1,8,0:0:0:0:
256,192,67668,1,0,0:0:0:0:
256,192,67736,1,0,0:0:0:0:
256,192,67804,1,8,0:0:0:0:
256,192,67940,1,8,0:0:0:0:
256,192,68009,1,8,0:0:0:0:
256,192,68077,1,0,0:0:0:0:
256,192,68213,1,0,0:0:0:0:
256,192,68349,1,8,0:0:0:0:
256,192,68486,1,0,0:0:0:0:
256,192,68554,1,0,0:0:0:0:
256,192,68622,1,8,0:0:0:0:
256,192,68759,1,0,0:0:0:0:
256,192,68895,1,4,0:0:0:0:
256,192,69031,1,8,0:0:0:0:
256,192,69099,1,8,0:0:0:0:
256,192,69168,1,0,0:0:0:0:
256,192,69304,1,0,0:0:0:0:
256,192,69440,1,8,0:0:0:0:
256,192,69577,1,8,0:0:0:0:
256,192,69713,1,0,0:0:0:0:
256,192,69849,1,8,0:0:0:0:
256,192,69986,1,0,0:0:0:0:
256,192,70259,1,4,0:0:0:0:
256,192,70531,1,12,0:0:0:0:
256,192,70803,1,12,0:0:0:0:
256,192,71077,1,4,0:0:0:0:
256,192,71349,1,8,0:0:0:0:
256,192,71486,1,0,0:0:0:0:
256,192,71622,1,8,0:0:0:0:
256,192,71895,1,8,0:0:0:0:
256,192,72031,1,8,0:0:0:0:
256,192,72168,1,0,0:0:0:0:
256,192,72304,1,0,0:0:0:0:
256,192,72440,1,8,0:0:0:0:
256,192,72577,1,8,0:0:0:0:
256,192,72713,1,0,0:0:0:0:
256,192,72986,1,8,0:0:0:0:
256,192,73122,1,8,0:0:0:0:
256,192,73259,1,0,0:0:0:0:
256,192,73531,1,0,0:0:0:0:
256,192,73668,1,8,0:0:0:0:
256,192,73804,1,0,0:0:0:0:
256,192,74077,1,8,0:0:0:0:
256,192,74349,1,0,0:0:0:0:
256,192,74622,1,8,0:0:0:0:
256,192,74759,1,0,0:0:0:0:
256,192,74895,1,8,0:0:0:0:
256,192,75168,1,8,0:0:0:0:
256,192,75440,1,0,0:0:0:0:
256,192,75713,1,0,0:0:0:0:
256,192,75849,1,8,0:0:0:0:
256,192,75986,1,0,0:0:0:0:
256,192,76122,1,0,0:0:0:0:
256,192,76259,1,8,0:0:0:0:
256,192,76395,1,8,0:0:0:0:
256,192,76531,1,0,0:0:0:0:
256,192,76804,1,8,0:0:0:0:
256,192,76940,1,8,0:0:0:0:
256,192,77077,1,0,0:0:0:0:
256,192,77349,1,8,0:0:0:0:
256,192,77622,1,0,0:0:0:0:
256,192,77895,1,0,0:0:0:0:
256,192,78031,1,8,0:0:0:0:
256,192,78168,1,0,0:0:0:0:
256,192,78304,1,0,0:0:0:0:
256,192,78440,1,8,0:0:0:0:
256,192,78577,1,8,0:0:0:0:
256,192,78713,1,0,0:0:0:0:
256,192,78849,1,8,0:0:0:0:
256,192,78986,1,8,0:0:0:0:
256,192,79122,1,0,0:0:0:0:
256,192,79259,1,8,0:0:0:0:
256,192,79531,1,12,0:0:0:0:
256,192,79804,1,4,0:0:0:0:
256,192,80077,1,0,0:0:0:0:
256,192,80213,1,0,0:0:0:0:
256,192,80349,1,8,0:0:0:0:
256,192,80486,1,8,0:0:0:0:
256,192,80622,1,0,0:0:0:0:
256,192,80690,1,0,0:0:0:0:
256,192,80759,1,0,0:0:0:0:
256,192,80827,1,0,0:0:0:0:
256,192,80895,1,0,0:0:0:0:
256,192,81031,1,8,0:0:0:0:
256,192,81168,1,0,0:0:0:0:
256,192,81304,1,8,0:0:0:0:
256,192,81440,1,8,0:0:0:0:
256,192,81577,1,0,0:0:0:0:
256,192,81713,1,8,0:0:0:0:
256,192,81986,5,12,0:0:0:0:
256,192,82259,1,0,0:0:0:0:
256,192,82395,1,8,0:0:0:0:
256,192,82532,1,0,0:0:0:0:
256,192,82805,1,8,0:0:0:0:
256,192,83077,1,0,0:0:0:0:
256,192,83350,1,0,0:0:0:0:
256,192,83623,1,8,0:0:0:0:
256,192,83895,1,8,0:0:0:0:
256,192,84168,1,0,0:0:0:0:
256,192,84577,1,0,0:0:0:0:
256,192,84986,1,8,0:0:0:0:
256,192,85259,1,0,0:0:0:0:
256,192,85532,1,0,0:0:0:0:
256,192,85805,1,8,0:0:0:0:
256,192,86077,1,0,0:0:0:0:
256,192,86350,1,0,0:0:0:0:
256,192,86759,1,0,0:0:0:0:
256,192,87168,1,8,0:0:0:0:
256,192,87441,1,0,0:0:0:0:
256,192,88259,1,8,0:0:0:0:
256,192,88532,5,0,0:0:0:0:
256,192,88805,1,0,0:0:0:0:
256,192,88941,1,8,0:0:0:0:
256,192,89077,1,0,0:0:0:0:
256,192,89350,1,8,0:0:0:0:
256,192,89622,5,8,0:0:0:0:
256,192,89690,5,8,0:0:0:0:
256,192,89759,5,8,0:0:0:0:
256,192,89827,5,8,0:0:0:0:
256,192,89895,5,8,0:0:0:0:
256,192,89963,5,8,0:0:0:0:
256,192,90031,5,8,0:0:0:0:
256,192,90099,5,8,0:0:0:0:
256,192,90168,5,8,0:0:0:0:
256,192,90236,5,8,0:0:0:0:
256,192,90304,5,8,0:0:0:0:
256,192,90372,5,8,0:0:0:0:
256,192,90440,5,8,0:0:0:0:
256,192,90509,5,8,0:0:0:0:
256,192,90577,5,8,0:0:0:0:
256,192,90645,5,8,0:0:0:0:
256,192,90713,5,0,0:0:0:0:
256,192,90986,1,0,0:0:0:0:
256,192,91123,1,8,0:0:0:0:
256,192,91259,1,0,0:0:0:0:
256,192,91532,1,8,0:0:0:0:
256,192,91805,1,0,0:0:0:0:
256,192,92077,1,8,0:0:0:0:
256,192,92214,1,0,0:0:0:0:
256,192,92350,1,8,0:0:0:0:
256,192,92623,1,8,0:0:0:0:
256,192,92895,1,0,0:0:0:0:
256,192,93305,1,0,0:0:0:0:
256,192,93714,1,8,0:0:0:0:
256,192,93986,1,0,0:0:0:0:
256,192,94259,1,0,0:0:0:0:
256,192,94395,1,8,0:0:0:0:
256,192,94532,1,0,0:0:0:0:
256,192,94805,1,8,0:0:0:0:
256,192,95077,1,4,0:0:0:0:
256,192,95486,1,0,0:0:0:0:
256,192,95895,1,8,0:0:0:0:
256,192,96168,1,0,0:0:0:0:
256,192,96577,1,0,0:0:0:0:
256,192,96986,1,8,0:0:0:0:
256,192,97259,1,4,0:0:0:0:
256,192,97532,1,8,0:0:0:0:
256,192,97668,1,8,0:0:0:0:
256,192,97805,1,0,0:0:0:0:
256,192,98077,1,8,0:0:0:0:
256,192,98350,1,0,0:0:0:0:
256,192,98623,1,8,0:0:0:0:
256,192,98759,1,8,0:0:0:0:
256,192,98895,1,0,0:0:0:0:
256,192,99032,1,0,0:0:0:0:
256,192,99168,1,12,0:0:0:0:
256,192,99441,1,4,0:0:0:0:
256,192,99713,1,8,0:0:0:0:
256,192,99849,1,0,0:0:0:0:
256,192,99986,1,8,0:0:0:0:
256,192,100259,1,8,0:0:0:0:
256,192,100395,1,0,0:0:0:0:
256,192,100463,1,0,0:0:0:0:
256,192,100531,1,0,0:0:0:0:
256,192,100804,1,8,0:0:0:0:
256,192,100940,1,8,0:0:0:0:
256,192,101077,1,0,0:0:0:0:
256,192,101213,1,0,0:0:0:0:
256,192,101349,1,8,0:0:0:0:
256,192,101486,1,0,0:0:0:0:
256,192,101622,1,4,0:0:0:0:
256,192,101895,1,8,0:0:0:0:
256,192,102031,1,8,0:0:0:0:
256,192,102168,1,0,0:0:0:0:
256,192,102304,1,0,0:0:0:0:
256,192,102440,1,8,0:0:0:0:
256,192,102577,1,8,0:0:0:0:
256,192,102713,1,0,0:0:0:0:
256,192,102986,1,12,0:0:0:0:
256,192,103122,1,8,0:0:0:0:
256,192,103259,1,0,0:0:0:0:
256,192,103395,1,0,0:0:0:0:
256,192,103531,1,8,0:0:0:0:
256,192,103599,1,8,0:0:0:0:
256,192,103668,1,0,0:0:0:0:
256,192,103736,1,0,0:0:0:0:
256,192,103804,1,0,0:0:0:0:
256,192,104077,1,8,0:0:0:0:
256,192,104213,1,8,0:0:0:0:
256,192,104349,1,0,0:0:0:0:
256,192,104486,1,0,0:0:0:0:
256,192,104622,1,8,0:0:0:0:
256,192,104759,1,0,0:0:0:0:
256,192,104827,1,0,0:0:0:0:
256,192,104895,1,0,0:0:0:0:
256,192,105168,1,8,0:0:0:0:
256,192,105304,1,8,0:0:0:0:
256,192,105440,1,0,0:0:0:0:
256,192,105577,1,0,0:0:0:0:
256,192,105713,1,8,0:0:0:0:
256,192,105986,1,0,0:0:0:0:
256,192,106259,1,12,0:0:0:0:
256,192,106395,1,0,0:0:0:0:
256,192,106531,1,0,0:0:0:0:
256,192,106668,1,8,0:0:0:0:
256,192,106804,1,8,0:0:0:0:
256,192,106940,1,0,0:0:0:0:
256,192,107077,1,8,0:0:0:0:
256,192,107213,1,0,0:0:0:0:
256,192,107349,1,8,0:0:0:0:
256,192,107486,1,8,0:0:0:0:
256,192,107622,1,0,0:0:0:0:
256,192,107759,1,0,0:0:0:0:
256,192,107895,1,12,0:0:0:0:
256,192,108168,1,4,0:0:0:0:
256,192,108304,1,8,0:0:0:0:
256,192,108440,1,0,0:0:0:0:
256,192,108577,1,8,0:0:0:0:
256,192,108645,1,8,0:0:0:0:
256,192,108713,1,0,0:0:0:0:
256,192,108849,1,0,0:0:0:0:
256,192,108986,1,8,0:0:0:0:
256,192,109122,1,8,0:0:0:0:
256,192,109259,1,0,0:0:0:0:
256,192,109327,1,8,0:0:0:0:
256,192,109395,1,0,0:0:0:0:
256,192,109463,1,0,0:0:0:0:
256,192,109531,1,8,0:0:0:0:
256,192,109668,1,8,0:0:0:0:
256,192,109736,1,8,0:0:0:0:
256,192,109804,1,0,0:0:0:0:
256,192,109940,1,0,0:0:0:0:
256,192,110077,1,8,0:0:0:0:
256,192,110213,1,8,0:0:0:0:
256,192,110281,1,8,0:0:0:0:
256,192,110349,1,0,0:0:0:0:
256,192,110486,1,0,0:0:0:0:
256,192,110622,1,8,0:0:0:0:
256,192,110759,1,8,0:0:0:0:
256,192,110895,1,0,0:0:0:0:
256,192,110963,1,0,0:0:0:0:
256,192,111031,1,0,0:0:0:0:
256,192,111099,1,8,0:0:0:0:
256,192,111168,1,0,0:0:0:0:
256,192,111236,1,0,0:0:0:0:
256,192,111304,1,8,0:0:0:0:
256,192,111372,1,8,0:0:0:0:
256,192,111440,1,0,0:0:0:0:
256,192,111577,1,8,0:0:0:0:
256,192,111645,1,8,0:0:0:0:
256,192,111713,1,0,0:0:0:0:
256,192,111849,1,0,0:0:0:0:
256,192,111986,1,8,0:0:0:0:
256,192,112122,1,0,0:0:0:0:
256,192,112190,1,0,0:0:0:0:
256,192,112259,1,0,0:0:0:0:
256,192,112395,1,8,0:0:0:0:
256,192,112531,1,4,0:0:0:0:
256,192,112668,1,8,0:0:0:0:
256,192,112736,1,8,0:0:0:0:
256,192,112804,1,0,0:0:0:0:
256,192,112940,1,8,0:0:0:0:
256,192,113077,1,0,0:0:0:0:
256,192,113213,1,0,0:0:0:0:
256,192,113281,1,0,0:0:0:0:
256,192,113349,1,8,0:0:0:0:
256,192,113486,1,0,0:0:0:0:
256,192,113622,1,8,0:0:0:0:
256,192,113690,1,8,0:0:0:0:
256,192,113759,1,0,0:0:0:0:
256,192,113827,1,0,0:0:0:0:
256,192,113895,1,8,0:0:0:0:
256,192,113963,1,8,0:0:0:0:
256,192,114031,1,8,0:0:0:0:
256,192,114099,1,8,0:0:0:0:
256,192,114168,1,0,0:0:0:0:
256,192,114304,1,8,0:0:0:0:
256,192,114372,1,8,0:0:0:0:
256,192,114440,1,0,0:0:0:0:
256,192,114577,1,8,0:0:0:0:
256,192,114713,1,0,0:0:0:0:
256,192,114849,1,0,0:0:0:0:
256,192,114986,1,8,0:0:0:0:
256,192,115054,1,8,0:0:0:0:
256,192,115122,1,0,0:0:0:0:
256,192,115190,1,0,0:0:0:0:
256,192,115259,1,8,0:0:0:0:
256,192,115395,1,8,0:0:0:0:
256,192,115463,1,8,0:0:0:0:
256,192,115531,1,0,0:0:0:0:
256,192,115668,1,0,0:0:0:0:
256,192,115804,1,8,0:0:0:0:
256,192,115940,1,8,0:0:0:0:
256,192,116077,1,4,0:0:0:0:
256,192,116349,1,12,0:0:0:0:
256,192,116622,1,12,0:0:0:0:
256,192,116895,1,4,0:0:0:0:
256,192,117031,1,8,0:0:0:0:
256,192,117099,1,8,0:0:0:0:
256,192,117168,1,0,0:0:0:0:
256,192,117304,1,8,0:0:0:0:
256,192,117440,1,0,0:0:0:0:
256,192,117509,1,8,0:0:0:0:
256,192,117577,1,0,0:0:0:0:
256,192,117645,1,0,0:0:0:0:
256,192,117713,1,8,0:0:0:0:
256,192,117849,1,8,0:0:0:0:
256,192,117986,1,0,0:0:0:0:
256,192,118054,1,0,0:0:0:0:
256,192,118122,1,0,0:0:0:0:
256,192,118190,1,0,0:0:0:0:
256,192,118259,1,8,0:0:0:0:
256,192,118327,1,8,0:0:0:0:
256,192,118395,1,8,0:0:0:0:
256,192,118463,1,8,0:0:0:0:
256,192,118531,1,0,0:0:0:0:
256,192,118668,1,8,0:0:0:0:
256,192,118736,1,8,0:0:0:0:
256,192,118804,1,0,0:0:0:0:
256,192,118940,1,0,0:0:0:0:
256,192,119077,1,8,0:0:0:0:
256,192,119213,1,0,0:0:0:0:
256,192,119281,1,0,0:0:0:0:
256,192,119349,1,8,0:0:0:0:
256,192,119486,1,0,0:0:0:0:
256,192,119622,1,8,0:0:0:0:
256,192,119690,1,8,0:0:0:0:
256,192,119759,1,0,0:0:0:0:
256,192,119827,1,0,0:0:0:0:
256,192,119895,1,8,0:0:0:0:
256,192,120031,1,8,0:0:0:0:
256,192,120099,1,8,0:0:0:0:
256,192,120168,1,8,0:0:0:0:
256,192,120304,1,0,0:0:0:0:
256,192,120440,1,8,0:0:0:0:
256,192,120509,1,0,0:0:0:0:
256,192,120577,1,0,0:0:0:0:
256,192,120645,1,0,0:0:0:0:
256,192,120713,1,8,0:0:0:0:
256,192,120849,1,8,0:0:0:0:
256,192,120918,1,8,0:0:0:0:
256,192,120986,1,0,0:0:0:0:
256,192,121122,1,0,0:0:0:0:
256,192,121259,1,8,0:0:0:0:
256,192,121395,1,8,0:0:0:0:
256,192,121531,1,0,0:0:0:0:
256,192,121668,1,8,0:0:0:0:
256,192,121804,1,0,0:0:0:0:
256,192,121872,1,0,0:0:0:0:
256,192,121940,1,8,0:0:0:0:
256,192,122009,1,8,0:0:0:0:
256,192,122077,1,0,0:0:0:0:
256,192,122145,1,0,0:0:0:0:
256,192,122213,1,0,0:0:0:0:
256,192,122281,1,0,0:0:0:0:
256,192,122349,1,8,0:0:0:0:
256,192,122486,1,8,0:0:0:0:
256,192,122554,1,8,0:0:0:0:
256,192,122622,1,0,0:0:0:0:
256,192,122759,1,0,0:0:0:0:
256,192,122895,1,8,0:0:0:0:
256,192,123031,1,0,0:0:0:0:
256,192,123099,1,0,0:0:0:0:
256,192,123168,1,8,0:0:0:0:
256,192,123304,1,0,0:0:0:0:
256,192,123440,1,8,0:0:0:0:
256,192,123577,1,0,0:0:0:0:
256,192,123645,1,0,0:0:0:0:
256,192,123713,1,0,0:0:0:0:
256,192,123849,1,8,0:0:0:0:
256,192,123986,1,8,0:0:0:0:
256,192,124122,1,8,0:0:0:0:
256,192,124190,1,8,0:0:0:0:
256,192,124259,1,0,0:0:0:0:
256,192,124395,1,8,0:0:0:0:
256,192,124531,1,0,0:0:0:0:
256,192,124668,1,0,0:0:0:0:
256,192,124804,1,8,0:0:0:0:
256,192,124940,1,8,0:0:0:0:
256,192,125077,1,0,0:0:0:0:
256,192,125349,1,8,0:0:0:0:
256,192,125486,1,8,0:0:0:0:
256,192,125622,1,4,0:0:0:0:
256,192,125895,1,8,0:0:0:0:
256,192,126031,1,0,0:0:0:0:
256,192,126168,1,8,0:0:0:0:
256,192,126236,1,8,0:0:0:0:
256,192,126304,1,0,0:0:0:0:
256,192,126440,1,0,0:0:0:0:
256,192,126577,1,8,0:0:0:0:
256,192,126713,1,8,0:0:0:0:
256,192,126849,1,0,0:0:0:0:
256,192,126918,1,0,0:0:0:0:
256,192,126986,1,0,0:0:0:0:
256,192,127122,1,8,0:0:0:0:
256,192,127259,1,8,0:0:0:0:
256,192,127327,1,8,0:0:0:0:
256,192,127395,1,0,0:0:0:0:
256,192,127463,1,0,0:0:0:0:
256,192,127531,1,8,0:0:0:0:
256,192,127668,1,0,0:0:0:0:
256,192,127804,1,8,0:0:0:0:
256,192,127940,1,8,0:0:0:0:
256,192,128077,1,0,0:0:0:0:
256,192,128145,1,0,0:0:0:0:
256,192,128213,1,8,0:0:0:0:
256,192,128349,1,8,0:0:0:0:
256,192,128486,1,0,0:0:0:0:
256,192,128622,1,8,0:0:0:0:
256,192,128759,1,8,0:0:0:0:
256,192,128895,1,0,0:0:0:0:
256,192,128963,1,8,0:0:0:0:
256,192,129031,1,0,0:0:0:0:
256,192,129099,1,0,0:0:0:0:
256,192,129168,1,8,0:0:0:0:
256,192,129304,1,8,0:0:0:0:
256,192,129372,1,8,0:0:0:0:
256,192,129440,1,0,0:0:0:0:
256,192,129577,1,0,0:0:0:0:
256,192,129713,1,8,0:0:0:0:
256,192,129849,1,8,0:0:0:0:
256,192,129986,1,4,0:0:0:0:
256,192,130259,1,8,0:0:0:0:
256,192,130395,1,0,0:0:0:0:
256,192,130531,1,8,0:0:0:0:
256,192,130668,1,0,0:0:0:0:
256,192,130736,1,0,0:0:0:0:
256,192,130804,1,8,0:0:0:0:
256,192,130940,5,8,0:0:0:0:
256,192,131077,1,0,0:0:0:0:
256,192,131145,1,0,0:0:0:0:
256,192,131213,1,0,0:0:0:0:
256,192,131281,1,8,0:0:0:0:
256,192,131349,1,0,0:0:0:0:
256,192,131486,1,8,0:0:0:0:
256,192,131622,1,0,0:0:0:0:
256,192,131759,1,8,0:0:0:0:
256,192,131827,1,8,0:0:0:0:
256,192,131895,1,0,0:0:0:0:
256,192,132031,1,8,0:0:0:0:
256,192,132168,1,0,0:0:0:0:
256,192,132236,1,0,0:0:0:0:
256,192,132304,1,8,0:0:0:0:
256,192,132372,1,8,0:0:0:0:
256,192,132440,1,0,0:0:0:0:
256,192,132509,1,8,0:0:0:0:
256,192,132577,1,0,0:0:0:0:
256,192,132645,1,0,0:0:0:0:
256,192,132713,1,8,0:0:0:0:
256,192,132781,1,8,0:0:0:0:
256,192,132849,1,8,0:0:0:0:
256,192,132918,1,8,0:0:0:0:
256,192,132986,1,0,0:0:0:0:
256,192,133054,1,0,0:0:0:0:
256,192,133122,1,8,0:0:0:0:
256,192,133190,1,8,0:0:0:0:
256,192,133259,1,0,0:0:0:0:
256,192,133395,1,8,0:0:0:0:
256,192,133531,1,8,0:0:0:0:
256,192,133668,1,0,0:0:0:0:
256,192,133940,1,8,0:0:0:0:
256,192,134077,1,8,0:0:0:0:
256,192,134213,1,0,0:0:0:0:
256,192,134349,1,8,0:0:0:0:
256,192,134486,1,8,0:0:0:0:
256,192,134622,1,0,0:0:0:0:
256,192,134759,1,8,0:0:0:0:
256,192,134827,1,8,0:0:0:0:
256,192,134895,1,0,0:0:0:0:
256,192,135031,1,0,0:0:0:0:
256,192,135168,1,8,0:0:0:0:
256,192,135304,1,8,0:0:0:0:
256,192,135440,1,0,0:0:0:0:
256,192,135577,1,0,0:0:0:0:
256,192,135645,1,8,0:0:0:0:
256,192,135713,1,0,0:0:0:0:
256,192,135849,1,8,0:0:0:0:
256,192,135986,1,8,0:0:0:0:
256,192,136054,1,8,0:0:0:0:
256,192,136122,1,0,0:0:0:0:
256,192,136190,1,0,0:0:0:0:
256,192,136259,1,0,0:0:0:0:
256,192,136395,1,8,0:0:0:0:
256,192,136531,1,0,0:0:0:0:
256,192,136668,1,8,0:0:0:0:
256,192,136804,1,8,0:0:0:0:
256,192,136940,1,0,0:0:0:0:
256,192,137009,1,0,0:0:0:0:
256,192,137077,1,8,0:0:0:0:
256,192,137213,1,8,0:0:0:0:
256,192,137349,1,0,0:0:0:0:
256,192,137418,1,8,0:0:0:0:
256,192,137486,1,0,0:0:0:0:
256,192,137554,1,0,0:0:0:0:
256,192,137622,1,8,0:0:0:0:
256,192,137759,1,8,0:0:0:0:
256,192,137827,1,8,0:0:0:0:
256,192,137895,1,0,0:0:0:0:
256,192,138031,1,8,0:0:0:0:
256,192,138168,1,8,0:0:0:0:
256,192,138304,1,0,0:0:0:0:
256,192,138440,1,8,0:0:0:0:
256,192,138577,1,0,0:0:0:0:
256,192,138713,1,4,0:0:0:0:
256,192,138849,1,0,0:0:0:0:
256,192,138986,1,8,0:0:0:0:
256,192,139122,1,0,0:0:0:0:
256,192,139395,1,0,0:0:0:0:
256,192,139531,1,8,0:0:0:0:
256,192,139668,1,0,0:0:0:0:
256,192,139736,1,8,0:0:0:0:
256,192,139804,1,0,0:0:0:0:
256,192,139940,1,0,0:0:0:0:
256,192,140077,1,8,0:0:0:0:
256,192,140145,1,8,0:0:0:0:
256,192,140213,1,8,0:0:0:0:
256,192,140281,1,8,0:0:0:0:
256,192,140349,1,0,0:0:0:0:
256,192,140486,1,0,0:0:0:0:
256,192,140622,1,8,0:0:0:0:
256,192,140759,1,8,0:0:0:0:
256,192,140827,1,8,0:0:0:0:
256,192,140895,1,0,0:0:0:0:
256,192,141031,1,0,0:0:0:0:
256,192,141168,1,8,0:0:0:0:
256,192,141304,1,0,0:0:0:0:
256,192,141372,1,0,0:0:0:0:
256,192,141440,1,0,0:0:0:0:
256,192,141577,1,0,0:0:0:0:
256,192,141713,1,8,0:0:0:0:
256,192,141849,1,8,0:0:0:0:
256,192,141986,1,4,0:0:0:0:
256,192,142122,1,0,0:0:0:0:
256,192,142259,5,8,0:0:0:0:
256,192,142327,1,8,0:0:0:0:
256,192,142395,1,0,0:0:0:0:
256,192,142463,1,0,0:0:0:0:
256,192,142531,1,8,0:0:0:0:
256,192,142668,1,0,0:0:0:0:
256,192,142804,1,12,0:0:0:0:
256,192,143077,5,4,0:0:0:0:
256,192,143213,1,0,0:0:0:0:
256,192,143349,1,0,0:0:0:0:
256,192,143486,1,8,0:0:0:0:
256,192,143622,1,0,0:0:0:0:
256,192,143895,1,8,0:0:0:0:
256,192,144031,1,8,0:0:0:0:
256,192,144168,1,0,0:0:0:0:
256,192,144304,1,0,0:0:0:0:
256,192,144440,1,8,0:0:0:0:
256,192,144577,1,8,0:0:0:0:
256,192,144849,1,0,0:0:0:0:
256,192,144986,1,0,0:0:0:0:
256,192,145122,1,8,0:0:0:0:
256,192,145259,1,0,0:0:0:0:
256,192,145531,1,0,0:0:0:0:
256,192,145668,1,8,0:0:0:0:
256,192,145804,1,0,0:0:0:0:
256,192,146077,1,8,0:0:0:0:
256,192,146349,1,0,0:0:0:0:
256,192,146622,1,8,0:0:0:0:
256,192,146895,1,0,0:0:0:0:
256,192,147031,1,8,0:0:0:0:
256,192,147168,1,0,0:0:0:0:
256,192,147304,1,8,0:0:0:0:
256,192,147440,1,8,0:0:0:0:
256,192,147577,1,0,0:0:0:0:
256,192,147713,1,0,0:0:0:0:
256,192,147849,1,8,0:0:0:0:
256,192,147986,1,0,0:0:0:0:
256,192,148259,1,8,0:0:0:0:
256,192,148395,1,8,0:0:0:0:
256,192,148531,1,0,0:0:0:0:
256,192,148668,1,8,0:0:0:0:
256,192,148804,1,0,0:0:0:0:
256,192,148940,1,8,0:0:0:0:
256,192,149213,1,8,0:0:0:0:
256,192,149349,1,0,0:0:0:0:
256,192,149486,1,8,0:0:0:0:
256,192,149622,1,0,0:0:0:0:
256,192,149895,1,0,0:0:0:0:
256,192,150031,1,0,0:0:0:0:
256,192,150168,1,8,0:0:0:0:
256,192,150440,1,8,0:0:0:0:
256,192,150577,1,8,0:0:0:0:
256,192,150713,1,0,0:0:0:0:
256,192,150986,1,0,0:0:0:0:
256,192,151259,1,8,0:0:0:0:
256,192,151531,1,8,0:0:0:0:
256,192,151804,1,4,0:0:0:0:
256,192,151940,1,0,0:0:0:0:
256,192,152077,1,8,0:0:0:0:
256,192,152213,1,8,0:0:0:0:
256,192,152349,1,0,0:0:0:0:
256,192,152622,1,8,0:0:0:0:
256,192,152759,1,0,0:0:0:0:
256,192,152895,1,0,0:0:0:0:
256,192,153031,1,8,0:0:0:0:
256,192,153304,1,8,0:0:0:0:
256,192,153577,1,0,0:0:0:0:
256,192,153713,1,0,0:0:0:0:
256,192,153849,1,8,0:0:0:0:
256,192,153986,1,0,0:0:0:0:
256,192,154259,1,8,0:0:0:0:
256,192,154395,1,0,0:0:0:0:
256,192,154531,1,8,0:0:0:0:
256,192,154804,1,8,0:0:0:0:
256,192,154940,1,8,0:0:0:0:
256,192,155077,1,0,0:0:0:0:
256,192,155349,1,0,0:0:0:0:
256,192,155486,1,0,0:0:0:0:
256,192,155622,1,8,0:0:0:0:
256,192,155759,1,8,0:0:0:0:
256,192,155895,1,0,0:0:0:0:
256,192,156031,1,0,0:0:0:0:
256,192,156168,1,0,0:0:0:0:
256,192,156986,1,0,0:0:0:0:
256,192,157122,1,8,0:0:0:0:
256,192,157259,1,0,0:0:0:0:
256,192,157395,1,8,0:0:0:0:
256,192,157531,1,8,0:0:0:0:
256,192,157804,1,0,0:0:0:0:
256,192,157940,1,8,0:0:0:0:
256,192,158077,1,0,0:0:0:0:
256,192,158213,1,8,0:0:0:0:
256,192,158349,1,0,0:0:0:0:
256,192,158622,1,0,0:0:0:0:
256,192,158895,1,8,0:0:0:0:
256,192,159168,1,0,0:0:0:0:
256,192,159304,1,8,0:0:0:0:
256,192,159440,1,0,0:0:0:0:
256,192,159577,1,8,0:0:0:0:
256,192,159713,1,0,0:0:0:0:
256,192,159986,1,0,0:0:0:0:
256,192,160259,1,0,0:0:0:0:
256,192,160395,1,8,0:0:0:0:
256,192,161895,1,0,0:0:0:0:
256,192,162168,1,0,0:0:0:0:
256,192,162440,1,8,0:0:0:0:
256,192,162713,1,4,0:0:0:0:
256,192,163122,1,0,0:0:0:0:
256,192,163259,1,0,0:0:0:0:
256,192,163668,1,8,0:0:0:0:
256,192,163804,1,8,0:0:0:0:
256,192,164077,1,0,0:0:0:0:
256,192,164213,1,0,0:0:0:0:
256,192,164349,1,8,0:0:0:0:
256,192,164622,1,8,0:0:0:0:
256,192,164759,1,8,0:0:0:0:
256,192,164895,1,0,0:0:0:0:
256,192,165168,1,8,0:0:0:0:
256,192,165440,1,0,0:0:0:0:
256,192,165577,1,0,0:0:0:0:
256,192,165713,1,8,0:0:0:0:
256,192,165849,1,8,0:0:0:0:
256,192,165986,1,0,0:0:0:0:
256,192,166122,1,0,0:0:0:0:
256,192,166259,1,8,0:0:0:0:
256,192,166531,1,0,0:0:0:0:
256,192,166804,1,8,0:0:0:0:
256,192,166940,1,0,0:0:0:0:
256,192,167077,1,8,0:0:0:0:
256,192,167486,1,0,0:0:0:0:
256,192,167622,1,0,0:0:0:0:
256,192,168031,1,8,0:0:0:0:
256,192,168168,1,8,0:0:0:0:
256,192,168440,1,0,0:0:0:0:
256,192,168577,1,0,0:0:0:0:
256,192,168713,1,8,0:0:0:0:
256,192,168986,1,8,0:0:0:0:
256,192,169122,1,8,0:0:0:0:
256,192,169259,1,0,0:0:0:0:
256,192,169395,1,0,0:0:0:0:
256,192,169531,1,8,0:0:0:0:
256,192,169804,1,0,0:0:0:0:
256,192,170077,1,8,0:0:0:0:
256,192,170349,1,4,0:0:0:0:
256,192,171168,5,8,0:0:0:0:
256,192,171440,1,4,0:0:0:0:
256,192,171849,1,0,0:0:0:0:
256,192,171986,1,0,0:0:0:0:
256,192,172259,1,8,0:0:0:0:
256,192,172531,1,0,0:0:0:0:
256,192,172804,1,0,0:0:0:0:
256,192,172940,1,8,0:0:0:0:
256,192,173077,1,0,0:0:0:0:
256,192,173349,1,8,0:0:0:0:
256,192,173486,1,8,0:0:0:0:
256,192,173622,1,0,0:0:0:0:
256,192,173895,1,0,0:0:0:0:
256,192,174031,1,0,0:0:0:0:
256,192,174168,1,8,0:0:0:0:
256,192,174440,1,8,0:0:0:0:
256,192,174713,1,0,0:0:0:0:
256,192,174986,1,8,0:0:0:0:
256,192,175122,1,0,0:0:0:0:
256,192,175259,1,8,0:0:0:0:
256,192,175531,1,8,0:0:0:0:
256,192,175804,1,4,0:0:0:0:
256,192,176213,1,0,0:0:0:0:
256,192,176622,1,8,0:0:0:0:
256,192,176759,1,8,0:0:0:0:
256,192,176895,1,0,0:0:0:0:
256,192,177031,1,8,0:0:0:0:
256,192,177168,1,0,0:0:0:0:
256,192,177304,1,0,0:0:0:0:
256,192,177440,1,0,0:0:0:0:
256,192,177577,1,0,0:0:0:0:
256,192,177713,1,8,0:0:0:0:
256,192,177986,1,0,0:0:0:0:
256,192,178395,1,0,0:0:0:0:
256,192,178804,1,8,0:0:0:0:
256,192,179077,1,0,0:0:0:0:
256,192,179349,1,0,0:0:0:0:
256,192,179622,1,8,0:0:0:0:
256,192,179895,1,8,0:0:0:0:
256,192,180168,1,4,0:0:0:0:
256,192,180304,1,8,0:0:0:0:
256,192,180440,1,0,0:0:0:0:
256,192,180577,1,8,0:0:0:0:
256,192,180645,1,8,0:0:0:0:
256,192,180713,1,0,0:0:0:0:
256,192,180849,1,0,0:0:0:0:
256,192,180986,1,8,0:0:0:0:
256,192,181122,1,8,0:0:0:0:
256,192,181259,1,0,0:0:0:0:
256,192,181327,1,0,0:0:0:0:
256,192,181395,1,8,0:0:0:0:
256,192,181463,1,8,0:0:0:0:
256,192,181531,1,0,0:0:0:0:
256,192,181599,1,8,0:0:0:0:
256,192,181668,1,0,0:0:0:0:
256,192,181736,1,0,0:0:0:0:
256,192,181804,1,8,0:0:0:0:
256,192,181940,1,8,0:0:0:0:
256,192,182009,1,8,0:0:0:0:
256,192,182077,1,0,0:0:0:0:
256,192,182213,1,8,0:0:0:0:
256,192,182349,1,0,0:0:0:0:
256,192,182486,1,0,0:0:0:0:
256,192,182622,1,8,0:0:0:0:
256,192,182690,1,8,0:0:0:0:
256,192,182759,1,0,0:0:0:0:
256,192,182827,1,0,0:0:0:0:
256,192,182895,1,8,0:0:0:0:
256,192,183031,1,0,0:0:0:0:
256,192,183168,1,8,0:0:0:0:
256,192,183304,1,8,0:0:0:0:
256,192,183372,1,8,0:0:0:0:
256,192,183440,1,0,0:0:0:0:
256,192,183577,1,8,0:0:0:0:
256,192,183713,1,0,0:0:0:0:
256,192,183781,1,8,0:0:0:0:
256,192,183849,1,0,0:0:0:0:
256,192,183918,1,0,0:0:0:0:
256,192,183986,1,0,0:0:0:0:
256,192,184122,1,8,0:0:0:0:
256,192,184190,1,8,0:0:0:0:
256,192,184259,1,0,0:0:0:0:
256,192,184395,1,8,0:0:0:0:
256,192,184531,1,4,0:0:0:0:
256,192,184668,1,0,0:0:0:0:
256,192,184804,1,8,0:0:0:0:
256,192,184940,1,0,0:0:0:0:
256,192,185009,1,8,0:0:0:0:
256,192,185077,1,0,0:0:0:0:
256,192,185213,1,0,0:0:0:0:
256,192,185349,1,8,0:0:0:0:
256,192,185486,1,0,0:0:0:0:
256,192,185622,1,8,0:0:0:0:
256,192,185690,1,8,0:0:0:0:
256,192,185759,1,8,0:0:0:0:
256,192,185827,1,8,0:0:0:0:
256,192,185895,1,0,0:0:0:0:
256,192,185963,1,0,0:0:0:0:
256,192,186031,1,8,0:0:0:0:
256,192,186099,1,8,0:0:0:0:
256,192,186168,1,0,0:0:0:0:
256,192,186304,1,8,0:0:0:0:
256,192,186372,1,8,0:0:0:0:
256,192,186440,1,0,0:0:0:0:
256,192,186577,1,0,0:0:0:0:
256,192,186713,1,8,0:0:0:0:
256,192,186849,1,8,0:0:0:0:
256,192,186986,1,0,0:0:0:0:
256,192,187054,1,0,0:0:0:0:
256,192,187122,1,0,0:0:0:0:
256,192,187190,1,8,0:0:0:0:
256,192,187259,1,0,0:0:0:0:
256,192,187395,1,0,0:0:0:0:
256,192,187531,1,8,0:0:0:0:
256,192,187668,1,8,0:0:0:0:
256,192,187804,5,0,0:0:0:0:
256,192,188077,1,12,0:0:0:0:
256,192,188349,1,12,0:0:0:0:
256,192,188622,1,4,0:0:0:0:
256,192,188895,1,4,0:0:0:0:
256,192,189031,1,8,0:0:0:0:
256,192,189099,1,8,0:0:0:0:
256,192,189168,1,0,0:0:0:0:
256,192,189304,1,8,0:0:0:0:
256,192,189440,1,0,0:0:0:0:
256,192,189509,1,8,0:0:0:0:
256,192,189577,1,0,0:0:0:0:
256,192,189645,1,0,0:0:0:0:
256,192,189713,1,8,0:0:0:0:
256,192,189849,1,8,0:0:0:0:
256,192,189986,1,0,0:0:0:0:
256,192,190054,1,0,0:0:0:0:
256,192,190122,1,8,0:0:0:0:
256,192,190190,1,8,0:0:0:0:
256,192,190259,1,0,0:0:0:0:
256,192,190327,1,0,0:0:0:0:
256,192,190395,1,0,0:0:0:0:
256,192,190463,1,0,0:0:0:0:
256,192,190531,1,8,0:0:0:0:
256,192,190668,1,8,0:0:0:0:
256,192,190736,1,8,0:0:0:0:
256,192,190804,1,0,0:0:0:0:
256,192,190940,1,0,0:0:0:0:
256,192,191077,1,8,0:0:0:0:
256,192,191213,1,0,0:0:0:0:
256,192,191281,1,0,0:0:0:0:
256,192,191349,1,8,0:0:0:0:
256,192,191486,1,0,0:0:0:0:
256,192,191622,1,8,0:0:0:0:
256,192,191690,1,8,0:0:0:0:
256,192,191759,1,0,0:0:0:0:
256,192,191827,1,0,0:0:0:0:
256,192,191895,1,8,0:0:0:0:
256,192,192031,1,8,0:0:0:0:
256,192,192168,1,0,0:0:0:0:
256,192,192236,1,8,0:0:0:0:
256,192,192304,1,0,0:0:0:0:
256,192,192372,1,0,0:0:0:0:
256,192,192440,1,8,0:0:0:0:
256,192,192509,1,8,0:0:0:0:
256,192,192577,1,0,0:0:0:0:
256,192,192645,1,0,0:0:0:0:
256,192,192713,1,8,0:0:0:0:
256,192,192849,1,8,0:0:0:0:
256,192,192918,1,8,0:0:0:0:
256,192,192986,1,0,0:0:0:0:
256,192,193122,1,8,0:0:0:0:
256,192,193259,1,0,0:0:0:0:
256,192,193395,1,0,0:0:0:0:
256,192,193531,1,8,0:0:0:0:
256,192,193668,1,8,0:0:0:0:
256,192,193736,1,8,0:0:0:0:
256,192,193804,1,0,0:0:0:0:
256,192,193940,1,8,0:0:0:0:
256,192,194077,1,0,0:0:0:0:
256,192,194145,1,0,0:0:0:0:
256,192,194213,1,8,0:0:0:0:
256,192,194281,1,8,0:0:0:0:
256,192,194349,1,0,0:0:0:0:
256,192,194486,1,0,0:0:0:0:
256,192,194554,1,0,0:0:0:0:
256,192,194622,1,8,0:0:0:0:
256,192,194759,1,0,0:0:0:0:
256,192,194895,1,8,0:0:0:0:
256,192,195031,1,8,0:0:0:0:
256,192,195168,1,0,0:0:0:0:
256,192,195236,1,0,0:0:0:0:
256,192,195304,1,0,0:0:0:0:
256,192,195372,1,8,0:0:0:0:
256,192,195440,1,0,0:0:0:0:
256,192,195577,1,8,0:0:0:0:
256,192,195713,1,0,0:0:0:0:
256,192,195849,1,8,0:0:0:0:
256,192,195918,1,8,0:0:0:0:
256,192,195986,1,0,0:0:0:0:
256,192,196122,1,0,0:0:0:0:
256,192,196259,1,8,0:0:0:0:
256,192,196395,1,8,0:0:0:0:
256,192,196531,1,0,0:0:0:0:
256,192,196804,1,4,0:0:0:0:
256,192,197077,1,12,0:0:0:0:
256,192,197349,1,12,0:0:0:0:
256,192,197486,1,0,0:0:0:0:
256,192,197622,5,4,0:0:0:0:
256,192,197895,1,8,0:0:0:0:
256,192,198031,1,0,0:0:0:0:
256,192,198168,1,8,0:0:0:0:
256,192,198304,1,0,0:0:0:0:
256,192,198372,1,0,0:0:0:0:
256,192,198440,1,0,0:0:0:0:
256,192,198577,1,8,0:0:0:0:
256,192,198713,5,0,0:0:0:0:
256,192,198986,1,8,0:0:0:0:
256,192,199259,1,0,0:0:0:0:
256,192,199395,1,0,0:0:0:0:
256,192,199531,1,12,0:0:0:0:
256,192,199804,5,4,0:0:0:0:
