osu file format v14

[General]
AudioFilename: audio.mp3
AudioLeadIn: 0
PreviewTime: 107349
Countdown: 0
SampleSet: Normal
StackLeniency: 0.7
Mode: 1
LetterboxInBreaks: 0
WidescreenStoryboard: 1

[Editor]
Bookmarks: 9986,27440,44895,81986,99440,143077,160531,171440
DistanceSpacing: 0.8
BeatDivisor: 2
GridSize: 32
TimelineZoom: 1.1

[Metadata]
Title:Toumei Elegy
TitleUnicode:透明エレジー
Artist:Konuko
ArtistUnicode:こぬこ
Creator:incandescence
Version:Gabe's Futsuu
Source:
Tags:gabe veus nardoxyribonucleic aloda hikikochan hikiko- kinomicandy aabc271 Vocaloid 櫻花アリス n-buna ouka alice Megpoid Gumi utau japanese novelty taikocracy
BeatmapID:1479606
BeatmapSetID:563743

[Difficulty]
HPDrainRate:6
CircleSize:2
OverallDifficulty:4
ApproachRate:5
SliderMultiplier:1.4
SliderTickRate:1

[Events]
//Background and Video events
0,0,"toumeielegy.jpg",0,0
//Break Periods
//Storyboard Layer 0 (Background)
//Storyboard Layer 1 (Fail)
//Storyboard Layer 2 (Pass)
//Storyboard Layer 3 (Foreground)
//Storyboard Sound Samples

[TimingPoints]
1259,272.727272727273,4,1,0,100,1,0
1259,-125,4,1,0,100,0,0
53622,-100,4,1,0,100,0,1
71077,-125,4,1,0,100,0,0
108168,-100,4,1,0,100,0,1
125622,-125,4,1,0,100,0,0
160531,-125,4,1,0,15,0,0
161895,-125,4,1,0,25,0,0
162168,-133.333333333333,4,1,0,50,0,0
162440,-142.857142857143,4,1,0,60,0,0
162713,-153.846153846154,4,1,0,80,0,0
167077,-142.857142857143,4,1,0,80,0,0
170349,-133.333333333333,4,1,0,80,0,0
171440,-125,4,1,0,100,0,0
180168,-100,4,1,0,100,0,1
199804,-100,4,1,0,100,0,0

[HitObjects]
160,192,1259,5,0,0:0:0:0:
160,192,1668,1,0,0:0:0:0:
352,192,2077,1,8,0:0:0:0:
160,192,2349,1,0,0:0:0:0:
352,192,3168,1,8,0:0:0:0:
160,192,3440,1,0,0:0:0:0:
160,192,3849,1,0,0:0:0:0:
352,192,4259,1,8,0:0:0:0:
160,192,4531,1,0,0:0:0:0:
352,192,5349,1,8,0:0:0:0:
160,192,5622,1,0,0:0:0:0:
160,192,6031,1,0,0:0:0:0:
352,192,6440,1,8,0:0:0:0:
160,192,6713,1,0,0:0:0:0:
352,192,7531,1,8,0:0:0:0:
160,192,7804,1,0,0:0:0:0:
160,192,8349,1,0,0:0:0:0:
352,192,8895,1,8,0:0:0:0:
352,192,9440,1,8,0:0:0:0:
160,192,9713,1,0,0:0:0:0:
352,192,9986,1,12,0:0:0:0:
352,192,10531,1,8,0:0:0:0:
160,192,10804,1,0,0:0:0:0:
160,192,10940,1,0,0:0:0:0:
352,192,11077,1,8,0:0:0:0:
160,192,11349,1,0,0:0:0:0:
352,192,11622,1,8,0:0:0:0:
160,192,11895,1,0,0:0:0:0:
160,192,12168,1,0,0:0:0:0:
352,192,12713,1,8,0:0:0:0:
160,192,13259,1,0,0:0:0:0:
352,192,13531,1,8,0:0:0:0:
352,192,13668,1,8,0:0:0:0:
352,192,13804,1,0,0:0:0:0:
352,192,14077,1,8,0:0:0:0:
352,192,14349,1,0,0:0:0:0:
160,192,14895,1,0,0:0:0:0:
352,192,15168,1,8,0:0:0:0:
352,192,15713,1,8,0:0:0:0:
160,192,15986,1,0,0:0:0:0:
352,192,16122,1,0,0:0:0:0:
352,192,16259,1,8,0:0:0:0:
352,192,16531,1,0,0:0:0:0:
160,192,17077,1,8,0:0:0:0:
352,192,17349,1,0,0:0:0:0:
160,192,17622,1,8,0:0:0:0:
160,192,18168,1,0,0:0:0:0:
160,192,18440,1,0,0:0:0:0:
352,192,18713,1,8,0:0:0:0:
352,192,19258,1,8,0:0:0:0:
160,192,19531,1,0,0:0:0:0:
160,192,19668,1,0,0:0:0:0:
160,192,19804,1,8,0:0:0:0:
160,192,20076,1,0,0:0:0:0:
352,192,20349,1,8,0:0:0:0:
160,192,20622,1,0,0:0:0:0:
160,192,20895,1,0,0:0:0:0:
352,192,21440,1,8,0:0:0:0:
160,192,21986,1,0,0:0:0:0:
352,192,22259,1,8,0:0:0:0:
352,192,22395,1,8,0:0:0:0:
352,192,22531,1,0,0:0:0:0:
352,192,22804,1,8,0:0:0:0:
160,192,23076,1,0,0:0:0:0:
160,192,23622,1,0,0:0:0:0:
352,192,23895,1,8,0:0:0:0:
352,192,24440,1,8,0:0:0:0:
160,192,24713,1,0,0:0:0:0:
160,192,24849,1,0,0:0:0:0:
352,192,24986,1,8,0:0:0:0:
160,192,25259,1,0,0:0:0:0:
160,192,25804,1,8,0:0:0:0:
160,192,26077,1,0,0:0:0:0:
160,192,26349,1,8,0:0:0:0:
352,192,26895,1,8,0:0:0:0:
160,192,27168,1,0,0:0:0:0:
160,192,27440,1,0,0:0:0:0:
160,192,27849,1,0,0:0:0:0:
352,192,28259,1,8,0:0:0:0:
160,192,28531,1,0,0:0:0:0:
160,192,29622,1,0,0:0:0:0:
160,192,30031,1,0,0:0:0:0:
352,192,30440,1,8,0:0:0:0:
160,192,30713,1,0,0:0:0:0:
160,192,31804,1,0,0:0:0:0:
160,192,32213,1,0,0:0:0:0:
352,192,32622,1,8,0:0:0:0:
160,192,32895,1,0,0:0:0:0:
160,192,33986,1,0,0:0:0:0:
160,192,34395,1,0,0:0:0:0:
352,192,34804,1,8,0:0:0:0:
160,192,35077,1,0,0:0:0:0:
352,192,35349,1,8,0:0:0:0:
352,192,35895,1,8,0:0:0:0:
160,192,36168,1,0,0:0:0:0:
160,192,36577,1,0,0:0:0:0:
352,192,36986,1,8,0:0:0:0:
160,192,37259,1,0,0:0:0:0:
352,192,38077,1,8,0:0:0:0:
160,192,38349,1,0,0:0:0:0:
160,192,38759,1,0,0:0:0:0:
352,192,39168,1,8,0:0:0:0:
160,192,39440,1,0,0:0:0:0:
352,192,40259,1,8,0:0:0:0:
160,192,40531,1,0,0:0:0:0:
160,192,40940,1,0,0:0:0:0:
352,192,41349,1,8,0:0:0:0:
160,192,41622,1,0,0:0:0:0:
352,192,42440,1,8,0:0:0:0:
160,192,42713,1,0,0:0:0:0:
160,192,43122,1,0,0:0:0:0:
352,192,43531,1,8,0:0:0:0:
160,192,43804,1,0,0:0:0:0:
352,192,44077,1,8,0:0:0:0:
352,192,44895,1,8,0:0:0:0:
352,192,45304,1,8,0:0:0:0:
160,192,45713,1,0,0:0:0:0:
352,192,45986,1,8,0:0:0:0:
160,192,46804,1,0,0:0:0:0:
352,192,47077,1,8,0:0:0:0:
160,192,47622,1,0,0:0:0:0:
352,192,47895,1,8,0:0:0:0:
160,192,48168,1,0,0:0:0:0:
352,192,48713,1,8,0:0:0:0:
160,192,48986,1,0,0:0:0:0:
352,192,49259,1,8,0:0:0:0:
160,192,49668,1,0,0:0:0:0:
160,192,50077,1,0,0:0:0:0:
352,192,50349,1,8,0:0:0:0:
160,192,50622,1,0,0:0:0:0:
352,192,50895,1,8,0:0:0:0:
160,192,51440,1,0,0:0:0:0:
352,192,51713,1,8,0:0:0:0:
352,192,51986,1,8,0:0:0:0:
160,192,52259,1,0,0:0:0:0:
352,192,52531,1,8,0:0:0:0:
352,192,53077,1,8,0:0:0:0:
160,192,53622,1,4,0:0:0:0:
160,192,53895,1,0,0:0:0:0:
160,192,54031,1,0,0:0:0:0:
352,192,54168,1,8,0:0:0:0:
160,192,54440,1,0,0:0:0:0:
160,192,54576,1,0,0:0:0:0:
352,192,54713,1,8,0:0:0:0:
352,192,54986,1,8,0:0:0:0:
160,192,55259,1,0,0:0:0:0:
352,192,55804,1,8,0:0:0:0:
160,192,56077,1,0,0:0:0:0:
352,192,56349,1,8,0:0:0:0:
160,192,56622,1,0,0:0:0:0:
160,192,56759,1,0,0:0:0:0:
352,192,57031,1,8,0:0:0:0:
352,192,57168,1,8,0:0:0:0:
160,192,57440,1,0,0:0:0:0:
160,192,57986,1,0,0:0:0:0:
160,192,58259,1,0,0:0:0:0:
160,192,58395,1,0,0:0:0:0:
352,192,58532,1,8,0:0:0:0:
160,192,58804,1,0,0:0:0:0:
160,192,58940,1,0,0:0:0:0:
352,192,59077,1,8,0:0:0:0:
352,192,59350,1,8,0:0:0:0:
160,192,59623,1,0,0:0:0:0:
352,192,60168,1,8,0:0:0:0:
352,192,60441,1,8,0:0:0:0:
160,192,60713,1,0,0:0:0:0:
352,192,60986,1,8,0:0:0:0:
352,192,61123,1,8,0:0:0:0:
160,192,61395,1,0,0:0:0:0:
160,192,61532,1,0,0:0:0:0:
352,192,61804,1,8,0:0:0:0:
160,192,62349,1,0,0:0:0:0:
352,192,62895,1,8,0:0:0:0:
160,192,63168,1,0,0:0:0:0:
352,192,63304,1,8,0:0:0:0:
160,192,63440,1,0,0:0:0:0:
352,192,63713,1,8,0:0:0:0:
160,192,63986,1,0,0:0:0:0:
160,192,64531,1,0,0:0:0:0:
160,192,64804,1,0,0:0:0:0:
160,192,64940,1,0,0:0:0:0:
352,192,65077,1,8,0:0:0:0:
160,192,65349,1,0,0:0:0:0:
160,192,65486,1,0,0:0:0:0:
352,192,65759,1,8,0:0:0:0:
352,192,65895,1,8,0:0:0:0:
352,192,66168,1,8,0:0:0:0:
160,192,66713,1,0,0:0:0:0:
352,192,67259,1,8,0:0:0:0:
352,192,67531,1,8,0:0:0:0:
352,192,67668,1,8,0:0:0:0:
160,192,67804,1,0,0:0:0:0:
160,192,68077,1,0,0:0:0:0:
352,192,68349,1,8,0:0:0:0:
160,192,68622,1,0,0:0:0:0:
160,192,68759,1,0,0:0:0:0:
352,192,68895,1,8,0:0:0:0:
160,192,69168,1,0,0:0:0:0:
352,192,69440,1,8,0:0:0:0:
160,192,69986,1,0,0:0:0:0:
352,192,70531,1,8,0:0:0:0:
352,192,70804,1,8,0:0:0:0:
256,96,71077,1,4,0:0:0:0:
160,192,71486,1,0,0:0:0:0:
352,192,71895,1,8,0:0:0:0:
160,192,72168,1,0,0:0:0:0:
352,192,72986,1,8,0:0:0:0:
160,192,73259,1,0,0:0:0:0:
160,192,73668,1,0,0:0:0:0:
352,192,74077,1,8,0:0:0:0:
160,192,74349,1,0,0:0:0:0:
352,192,75168,1,8,0:0:0:0:
160,192,75440,1,0,0:0:0:0:
160,192,75849,1,0,0:0:0:0:
352,192,76259,1,8,0:0:0:0:
160,192,76531,1,0,0:0:0:0:
352,192,77349,1,8,0:0:0:0:
160,192,77622,1,0,0:0:0:0:
160,192,78168,1,0,0:0:0:0:
352,192,78440,1,8,0:0:0:0:
352,192,78986,1,8,0:0:0:0:
160,192,79259,1,0,0:0:0:0:
352,192,79531,1,8,0:0:0:0:
160,192,79804,1,4,0:0:0:0:
352,192,80349,1,8,0:0:0:0:
160,192,80895,1,0,0:0:0:0:
352,192,81168,1,8,0:0:0:0:
352,192,81304,1,8,0:0:0:0:
352,192,81440,1,8,0:0:0:0:
352,192,81713,1,8,0:0:0:0:
160,192,81986,1,0,0:0:0:0:
160,192,82395,1,0,0:0:0:0:
352,192,82804,1,8,0:0:0:0:
160,192,83077,1,0,0:0:0:0:
160,192,84168,1,0,0:0:0:0:
160,192,84577,1,0,0:0:0:0:
352,192,84986,1,8,0:0:0:0:
160,192,85259,1,0,0:0:0:0:
160,192,86349,1,0,0:0:0:0:
160,192,86759,1,0,0:0:0:0:
352,192,87168,1,8,0:0:0:0:
160,192,87440,1,0,0:0:0:0:
160,192,88531,1,0,0:0:0:0:
160,192,88940,1,0,0:0:0:0:
352,192,89349,1,8,0:0:0:0:
352,192,89622,1,8,0:0:0:0:
160,192,90713,1,4,0:0:0:0:
160,192,91122,1,0,0:0:0:0:
352,192,91531,1,8,0:0:0:0:
160,192,91804,1,0,0:0:0:0:
352,192,92622,1,8,0:0:0:0:
160,192,92895,1,0,0:0:0:0:
160,192,93304,1,0,0:0:0:0:
352,192,93713,1,8,0:0:0:0:
160,192,93986,1,0,0:0:0:0:
160,192,94804,1,0,0:0:0:0:
160,192,95077,1,4,0:0:0:0:
160,192,95486,1,0,0:0:0:0:
352,192,95895,1,8,0:0:0:0:
160,192,96168,1,0,0:0:0:0:
352,192,96986,1,8,0:0:0:0:
352,192,97259,1,12,0:0:0:0:
160,192,97668,1,0,0:0:0:0:
352,192,98077,1,8,0:0:0:0:
160,192,98349,1,0,0:0:0:0:
352,192,98895,1,8,0:0:0:0:
160,192,99440,1,0,0:0:0:0:
160,192,99849,1,0,0:0:0:0:
352,192,100258,1,8,0:0:0:0:
160,192,100531,1,0,0:0:0:0:
160,192,100804,1,0,0:0:0:0:
160,192,100940,1,0,0:0:0:0:
352,192,101077,1,8,0:0:0:0:
160,192,101349,1,0,0:0:0:0:
352,192,101622,1,8,0:0:0:0:
160,192,102167,1,0,0:0:0:0:
352,192,102440,1,8,0:0:0:0:
160,192,102713,1,0,0:0:0:0:
352,192,103258,1,8,0:0:0:0:
160,192,103531,1,0,0:0:0:0:
352,192,103804,1,8,0:0:0:0:
160,192,104213,1,0,0:0:0:0:
160,192,104622,1,8,0:0:0:0:
160,192,104759,1,8,0:0:0:0:
352,192,104894,1,0,0:0:0:0:
160,192,105168,1,8,0:0:0:0:
160,192,105440,1,0,0:0:0:0:
160,192,105985,1,0,0:0:0:0:
352,192,106258,1,8,0:0:0:0:
352,192,106531,1,8,0:0:0:0:
160,192,106804,1,0,0:0:0:0:
352,192,107076,1,8,0:0:0:0:
352,192,107622,1,8,0:0:0:0:
160,192,107895,1,8,0:0:0:0:
160,192,108168,1,4,0:0:0:0:
160,192,108441,1,0,0:0:0:0:
160,192,108577,1,0,0:0:0:0:
352,192,108714,1,8,0:0:0:0:
160,192,108986,1,0,0:0:0:0:
160,192,109122,1,0,0:0:0:0:
352,192,109259,1,8,0:0:0:0:
352,192,109532,1,8,0:0:0:0:
160,192,109805,1,0,0:0:0:0:
352,192,110350,1,8,0:0:0:0:
160,192,110623,1,0,0:0:0:0:
352,192,110895,1,8,0:0:0:0:
160,192,111168,1,0,0:0:0:0:
160,192,111305,1,0,0:0:0:0:
352,192,111577,1,8,0:0:0:0:
352,192,111714,1,8,0:0:0:0:
160,192,111986,1,0,0:0:0:0:
160,192,112532,1,0,0:0:0:0:
160,192,112805,1,0,0:0:0:0:
160,192,112941,1,0,0:0:0:0:
352,192,113078,1,8,0:0:0:0:
160,192,113350,1,0,0:0:0:0:
160,192,113486,1,0,0:0:0:0:
352,192,113623,1,8,0:0:0:0:
352,192,113896,1,8,0:0:0:0:
160,192,114169,1,0,0:0:0:0:
160,192,114714,1,0,0:0:0:0:
352,192,114987,1,8,0:0:0:0:
160,192,115259,1,0,0:0:0:0:
352,192,115532,1,8,0:0:0:0:
352,192,115669,1,8,0:0:0:0:
160,192,115941,1,0,0:0:0:0:
160,192,116078,1,0,0:0:0:0:
352,192,116350,1,8,0:0:0:0:
160,192,116895,1,0,0:0:0:0:
352,192,117441,1,8,0:0:0:0:
160,192,117714,1,0,0:0:0:0:
352,192,117850,1,8,0:0:0:0:
160,192,117986,1,0,0:0:0:0:
352,192,118259,1,8,0:0:0:0:
160,192,118532,1,0,0:0:0:0:
160,192,119077,1,0,0:0:0:0:
160,192,119350,1,0,0:0:0:0:
160,192,119486,1,0,0:0:0:0:
352,192,119623,1,8,0:0:0:0:
160,192,119895,1,0,0:0:0:0:
160,192,120032,1,0,0:0:0:0:
352,192,120305,1,8,0:0:0:0:
352,192,120441,1,8,0:0:0:0:
352,192,120714,1,8,0:0:0:0:
160,192,121259,1,0,0:0:0:0:
352,192,121805,1,8,0:0:0:0:
352,192,122077,1,8,0:0:0:0:
352,192,122214,1,8,0:0:0:0:
160,192,122350,1,0,0:0:0:0:
160,192,122623,1,0,0:0:0:0:
352,192,122895,1,8,0:0:0:0:
160,192,123168,1,0,0:0:0:0:
160,192,123305,1,0,0:0:0:0:
352,192,123441,1,8,0:0:0:0:
160,192,123714,1,0,0:0:0:0:
352,192,123986,1,8,0:0:0:0:
160,192,124532,1,0,0:0:0:0:
352,192,125077,1,8,0:0:0:0:
352,192,125350,1,8,0:0:0:0:
160,192,125622,1,4,0:0:0:0:
160,192,126168,1,0,0:0:0:0:
352,192,126440,1,8,0:0:0:0:
352,192,126577,1,8,0:0:0:0:
352,192,126849,1,8,0:0:0:0:
352,192,126986,1,8,0:0:0:0:
160,192,127259,1,0,0:0:0:0:
160,192,127804,1,0,0:0:0:0:
160,192,127940,1,0,0:0:0:0:
352,192,128213,1,8,0:0:0:0:
352,192,128349,1,8,0:0:0:0:
160,192,128622,1,0,0:0:0:0:
160,192,128759,1,0,0:0:0:0:
352,192,129031,1,8,0:0:0:0:
352,192,129168,1,8,0:0:0:0:
160,192,129440,1,0,0:0:0:0:
160,192,129986,1,0,0:0:0:0:
352,192,130395,1,8,0:0:0:0:
352,192,130804,1,8,0:0:0:0:
160,192,131077,1,0,0:0:0:0:
352,192,131486,1,8,0:0:0:0:
352,192,131895,1,8,0:0:0:0:
160,192,132168,1,0,0:0:0:0:
160,192,132304,1,0,0:0:0:0:
352,192,132577,1,8,0:0:0:0:
352,192,132713,1,8,0:0:0:0:
160,192,132986,1,0,0:0:0:0:
352,192,133259,1,8,0:0:0:0:
160,192,133804,1,0,0:0:0:0:
160,192,134349,1,4,0:0:0:0:
160,192,134895,1,0,0:0:0:0:
352,192,135168,1,8,0:0:0:0:
352,192,135305,1,8,0:0:0:0:
352,192,135441,1,8,0:0:0:0:
160,192,135714,1,0,0:0:0:0:
352,192,135986,1,8,0:0:0:0:
160,192,136531,1,0,0:0:0:0:
160,192,136667,1,0,0:0:0:0:
160,192,136804,1,0,0:0:0:0:
352,192,137076,1,8,0:0:0:0:
160,192,137349,1,0,0:0:0:0:
160,192,137486,1,0,0:0:0:0:
160,192,137622,1,0,0:0:0:0:
352,192,137895,1,8,0:0:0:0:
160,192,138167,1,0,0:0:0:0:
160,192,138713,1,0,0:0:0:0:
352,192,139122,1,8,0:0:0:0:
352,192,139531,1,8,0:0:0:0:
160,192,139804,1,0,0:0:0:0:
352,192,140213,1,8,0:0:0:0:
352,192,140622,1,8,0:0:0:0:
160,192,140895,1,0,0:0:0:0:
160,192,141031,1,0,0:0:0:0:
352,192,141304,1,8,0:0:0:0:
352,192,141440,1,8,0:0:0:0:
160,192,141713,1,0,0:0:0:0:
352,192,141986,1,8,0:0:0:0:
160,192,142531,1,0,0:0:0:0:
160,192,143077,1,4,0:0:0:0:
352,192,143349,1,8,0:0:0:0:
352,192,143895,1,8,0:0:0:0:
160,192,144168,1,0,0:0:0:0:
352,192,144986,1,8,0:0:0:0:
160,192,145259,1,0,0:0:0:0:
352,192,145531,1,8,0:0:0:0:
352,192,146077,1,8,0:0:0:0:
160,192,146349,1,0,0:0:0:0:
160,192,147168,1,0,0:0:0:0:
160,192,147440,1,0,0:0:0:0:
352,192,147713,1,8,0:0:0:0:
352,192,147849,1,8,0:0:0:0:
160,192,148259,1,0,0:0:0:0:
160,192,148531,1,0,0:0:0:0:
160,192,148804,1,0,0:0:0:0:
352,192,149349,1,8,0:0:0:0:
160,192,149622,1,0,0:0:0:0:
352,192,149895,1,8,0:0:0:0:
352,192,150031,1,8,0:0:0:0:
352,192,150168,1,8,0:0:0:0:
160,192,150440,1,0,0:0:0:0:
352,192,150713,1,8,0:0:0:0:
352,192,151259,1,8,0:0:0:0:
160,192,151804,1,0,0:0:0:0:
352,192,152077,1,8,0:0:0:0:
352,192,152622,1,8,0:0:0:0:
160,192,152895,1,0,0:0:0:0:
352,192,153713,1,8,0:0:0:0:
160,192,153986,1,0,0:0:0:0:
160,192,154531,1,0,0:0:0:0:
160,192,154804,1,0,0:0:0:0:
352,192,155077,1,8,0:0:0:0:
352,192,155895,1,8,0:0:0:0:
160,192,156168,1,0,0:0:0:0:
160,192,156986,1,0,0:0:0:0:
352,192,157122,1,8,0:0:0:0:
160,192,157259,1,0,0:0:0:0:
160,192,157531,1,0,0:0:0:0:
160,192,158077,1,0,0:0:0:0:
352,192,158349,1,8,0:0:0:0:
160,192,158622,1,0,0:0:0:0:
352,192,158895,1,8,0:0:0:0:
160,192,159440,1,0,0:0:0:0:
352,192,159576,1,8,0:0:0:0:
352,192,159712,1,8,0:0:0:0:
160,192,159986,1,0,0:0:0:0:
352,192,160259,1,8,0:0:0:0:
352,192,161895,1,8,0:0:0:0:
352,192,162168,1,8,0:0:0:0:
352,192,162440,1,8,0:0:0:0:
256,96,162713,1,4,0:0:0:0:
160,192,163259,1,0,0:0:0:0:
352,192,163804,1,8,0:0:0:0:
352,192,164077,1,8,0:0:0:0:
160,192,164349,1,0,0:0:0:0:
352,192,164622,1,8,0:0:0:0:
160,192,164895,1,0,0:0:0:0:
160,192,165440,1,0,0:0:0:0:
352,192,165986,1,8,0:0:0:0:
160,192,167077,1,0,0:0:0:0:
160,192,167622,1,0,0:0:0:0:
352,192,168168,1,8,0:0:0:0:
352,192,168440,1,8,0:0:0:0:
160,192,168713,1,0,0:0:0:0:
352,192,168986,1,8,0:0:0:0:
160,192,169259,1,0,0:0:0:0:
160,192,169804,1,0,0:0:0:0:
256,288,170349,1,12,0:0:0:0:
256,96,171440,1,4,0:0:0:0:
160,192,171849,1,0,0:0:0:0:
352,192,172259,1,8,0:0:0:0:
160,192,172531,1,0,0:0:0:0:
160,192,172940,1,0,0:0:0:0:
352,192,173349,1,8,0:0:0:0:
160,192,173622,1,0,0:0:0:0:
160,192,174031,1,0,0:0:0:0:
352,192,174440,1,8,0:0:0:0:
160,192,174713,1,0,0:0:0:0:
352,192,175531,1,8,0:0:0:0:
160,192,175804,1,0,0:0:0:0:
160,192,176213,1,0,0:0:0:0:
352,192,176622,1,8,0:0:0:0:
160,192,176895,1,0,0:0:0:0:
160,192,177304,1,0,0:0:0:0:
352,192,177713,1,8,0:0:0:0:
160,192,177986,1,0,0:0:0:0:
160,192,178395,1,0,0:0:0:0:
352,192,178804,1,8,0:0:0:0:
160,192,179077,1,0,0:0:0:0:
256,96,180168,1,4,0:0:0:0:
160,192,180441,1,0,0:0:0:0:
160,192,180577,1,0,0:0:0:0:
352,192,180714,1,8,0:0:0:0:
160,192,180986,1,0,0:0:0:0:
160,192,181122,1,0,0:0:0:0:
352,192,181259,1,8,0:0:0:0:
352,192,181532,1,8,0:0:0:0:
160,192,181805,1,0,0:0:0:0:
352,192,182350,1,8,0:0:0:0:
160,192,182623,1,0,0:0:0:0:
352,192,182895,1,8,0:0:0:0:
160,192,183168,1,0,0:0:0:0:
160,192,183305,1,0,0:0:0:0:
352,192,183577,1,8,0:0:0:0:
352,192,183714,1,8,0:0:0:0:
160,192,183986,1,0,0:0:0:0:
160,192,184532,1,0,0:0:0:0:
160,192,184805,1,0,0:0:0:0:
160,192,184941,1,0,0:0:0:0:
352,192,185078,1,8,0:0:0:0:
160,192,185350,1,0,0:0:0:0:
160,192,185486,1,0,0:0:0:0:
352,192,185623,1,8,0:0:0:0:
352,192,185896,1,8,0:0:0:0:
160,192,186169,1,0,0:0:0:0:
160,192,186714,1,0,0:0:0:0:
352,192,186987,1,8,0:0:0:0:
160,192,187259,1,0,0:0:0:0:
352,192,187532,1,8,0:0:0:0:
352,192,187669,1,8,0:0:0:0:
160,192,187941,1,0,0:0:0:0:
160,192,188078,1,0,0:0:0:0:
352,192,188350,1,8,0:0:0:0:
160,192,188895,1,0,0:0:0:0:
352,192,189441,1,8,0:0:0:0:
160,192,189714,1,0,0:0:0:0:
352,192,189850,1,8,0:0:0:0:
160,192,189986,1,0,0:0:0:0:
352,192,190259,1,8,0:0:0:0:
160,192,190532,1,0,0:0:0:0:
160,192,191077,1,0,0:0:0:0:
160,192,191350,1,0,0:0:0:0:
160,192,191486,1,0,0:0:0:0:
352,192,191623,1,8,0:0:0:0:
160,192,191895,1,0,0:0:0:0:
160,192,192032,1,0,0:0:0:0:
352,192,192305,1,8,0:0:0:0:
352,192,192441,1,8,0:0:0:0:
352,192,192714,1,8,0:0:0:0:
160,192,193259,1,0,0:0:0:0:
352,192,193805,1,8,0:0:0:0:
352,192,194077,1,8,0:0:0:0:
352,192,194214,1,8,0:0:0:0:
160,192,194350,1,0,0:0:0:0:
160,192,194623,1,0,0:0:0:0:
352,192,194895,1,8,0:0:0:0:
160,192,195168,1,0,0:0:0:0:
160,192,195305,1,0,0:0:0:0:
352,192,195441,1,8,0:0:0:0:
160,192,195714,1,0,0:0:0:0:
352,192,195986,1,8,0:0:0:0:
160,192,196532,1,0,0:0:0:0:
352,192,197077,1,8,0:0:0:0:
160,192,197350,1,0,0:0:0:0:
160,192,197486,1,0,0:0:0:0:
352,192,197622,1,8,0:0:0:0:
160,192,197895,1,0,0:0:0:0:
352,192,198167,1,8,0:0:0:0:
160,192,198713,1,0,0:0:0:0:
160,192,198986,1,0,0:0:0:0:
352,192,199258,1,8,0:0:0:0:
352,192,199531,1,8,0:0:0:0:
256,96,199804,1,4,0:0:0:0:
