osu file format v14

[General]
AudioFilename: Elegy.mp3
AudioLeadIn: 0
PreviewTime: -1
Countdown: 1
SampleSet: Normal
StackLeniency: 0.7
Mode: 0
LetterboxInBreaks: 1
WidescreenStoryboard: 0

[Editor]
Bookmarks: 44727
DistanceSpacing: 1.5
BeatDivisor: 4
GridSize: 8
TimelineZoom: 1.8

[Metadata]
Title:Toumei Elegy
TitleUnicode:Toumei Elegy
Artist:Konuko
ArtistUnicode:Konuko
Creator:Yostel
Version:Ameyy
Source:
Tags:
BeatmapID:779449
BeatmapSetID:353797

[Difficulty]
HPDrainRate:6
CircleSize:4
OverallDifficulty:7
ApproachRate:9.5
SliderMultiplier:1.4
SliderTickRate:1

[Events]
//Background and Video events
//Break Periods
//Storyboard Layer 0 (Background)
//Storyboard Layer 1 (Fail)
//Storyboard Layer 2 (Pass)
//Storyboard Layer 3 (Foreground)
//Storyboard Sound Samples

[TimingPoints]
0,272.727272727273,4,1,0,100,1,0
8454,-200,4,1,0,100,0,0
9818,-66.6666666666667,4,1,0,100,0,1
17590,-66.6666666666667,4,1,0,100,0,0
18545,-66.6666666666667,4,1,0,100,0,1
27272,-100,4,1,0,100,0,0
52227,-66.6666666666667,4,1,0,100,0,0
53318,-66.6666666666667,4,1,0,100,0,1

[HitObjects]
256,176,1090,6,0,P|192:128|112:120,2,140
392,184,1909,2,0,L|384:232|376:280,1,70
128,64,2454,1,0,0:0:0:0:
184,208,3000,6,0,L|176:296,1,70
384,40,3545,1,0,0:0:0:0:
72,320,4090,5,0,0:0:0:0:
128,120,4363,1,0,0:0:0:0:
216,336,4636,1,0,0:0:0:0:
280,136,4909,1,0,0:0:0:0:
352,344,5181,1,0,0:0:0:0:
424,144,5454,1,0,0:0:0:0:
256,192,6272,6,0,L|280:104,2,70
64,272,6818,1,0,0:0:0:0:
128,72,7090,1,0,0:0:0:0:
184,272,7363,2,0,P|304:272|320:256,1,140
256,136,8045,1,0,0:0:0:0:
48,168,8590,6,0,P|80:256|152:272,1,175
264,160,9545,1,0,0:0:0:0:
440,288,9818,5,0,0:0:0:0:
392,120,9954,1,0,0:0:0:0:
360,320,10090,1,0,0:0:0:0:
456,80,10227,2,0,P|344:56|320:168,1,210.000008010865
288,256,10636,5,0,0:0:0:0:
176,128,10772,1,0,0:0:0:0:
192,288,10909,5,0,0:0:0:0:
288,88,11045,1,0,0:0:0:0:
360,224,11181,5,0,0:0:0:0:
96,144,11318,2,0,P|112:80|160:56,1,105.000004005432
272,64,11590,1,0,0:0:0:0:
400,232,11727,1,0,0:0:0:0:
256,216,11863,1,0,0:0:0:0:
416,72,12000,2,0,P|440:128|400:288,2,210.000008010865
208,64,12681,5,0,0:0:0:0:
320,208,12818,1,0,0:0:0:0:
112,224,12954,1,0,0:0:0:0:
224,64,13090,2,0,P|312:104|328:152,1,105.000004005432
384,232,13363,1,0,0:0:0:0:
376,288,13431,1,0,0:0:0:0:
368,336,13500,1,0,0:0:0:0:
224,160,13636,1,0,0:0:0:0:
200,128,13704,1,0,0:0:0:0:
176,96,13772,2,0,P|120:80|72:96,1,105.000004005432
240,272,14045,5,0,0:0:0:0:
136,144,14181,1,0,0:0:0:0:
304,120,14317,1,0,0:0:0:0:
152,288,14454,5,0,0:0:0:0:
224,56,14590,1,0,0:0:0:0:
368,264,14727,2,0,L|312:352,1,105.000004005432
288,136,15000,2,0,L|344:16,1,105.000004005432
224,216,15272,1,0,0:0:0:0:
144,168,15409,5,0,0:0:0:0:
232,296,15546,1,0,0:0:0:0:
360,216,15682,1,0,0:0:0:0:
280,96,15818,1,0,0:0:0:0:
144,248,15955,5,0,0:0:0:0:
320,296,16091,1,0,0:0:0:0:
368,128,16227,1,0,0:0:0:0:
192,80,16364,1,0,0:0:0:0:
256,192,16636,6,0,P|280:112|272:56,2,105.000004005432
448,224,17181,1,0,0:0:0:0:
152,288,17454,1,0,0:0:0:0:
256,88,17727,5,0,0:0:0:0:
272,240,17863,1,0,0:0:0:0:
176,136,18000,1,0,0:0:0:0:
312,160,18136,1,0,0:0:0:0:
176,224,18272,1,0,0:0:0:0:
360,232,18545,5,0,0:0:0:0:
208,200,18681,1,0,0:0:0:0:
312,328,18818,5,0,0:0:0:0:
280,112,18954,2,0,P|192:80|96:144,1,210.000008010865
392,96,19363,5,0,0:0:0:0:
456,264,19500,1,0,0:0:0:0:
336,184,19636,5,0,0:0:0:0:
320,336,19772,1,0,0:0:0:0:
208,184,19909,5,0,0:0:0:0:
120,320,20045,1,0,0:0:0:0:
80,192,20181,5,0,0:0:0:0:
304,64,20318,1,4,0:0:0:0:
272,216,20454,1,4,0:0:0:0:
112,48,20590,1,4,0:0:0:0:
192,128,20727,2,0,P|256:112|408:160,2,210.000008010865
184,224,21409,5,0,0:0:0:0:
312,336,21545,1,0,0:0:0:0:
424,208,21681,1,0,0:0:0:0:
392,88,21818,2,0,P|312:88|272:80,1,105.000004005432
120,104,22090,1,0,0:0:0:0:
96,144,22159,1,0,0:0:0:0:
72,184,22227,1,0,0:0:0:0:
240,200,22363,1,0,0:0:0:0:
256,240,22431,1,0,0:0:0:0:
272,272,22500,1,0,0:0:0:0:
376,152,22636,5,0,0:0:0:0:
272,48,22772,1,0,0:0:0:0:
168,160,22909,1,0,0:0:0:0:
336,224,23045,5,0,0:0:0:0:
272,136,23181,1,0,0:0:0:0:
224,224,23318,1,0,0:0:0:0:
280,320,23454,2,0,P|368:336|416:320,1,105.000004005432
440,128,23727,2,0,P|392:56|392:0,1,105.000004005432
256,176,24000,1,0,0:0:0:0:
104,240,24136,5,0,0:0:0:0:
160,72,24272,1,0,0:0:0:0:
272,80,24409,5,0,0:0:0:0:
280,224,24545,1,0,0:0:0:0:
416,304,24681,5,0,0:0:0:0:
408,112,24818,1,0,0:0:0:0:
272,96,24954,5,0,0:0:0:0:
200,288,25090,1,0,0:0:0:0:
120,192,25363,6,0,P|176:128|232:112,2,105.000004005432
288,80,25909,1,0,0:0:0:0:
288,264,26181,1,0,0:0:0:0:
400,200,26454,5,0,0:0:0:0:
304,112,26590,1,0,0:0:0:0:
328,240,26727,1,0,0:0:0:0:
384,120,26863,1,0,0:0:0:0:
272,184,27000,1,0,0:0:0:0:
160,104,27272,70,0,P|160:192|128:248,1,140
296,136,28091,1,0,0:0:0:0:
304,144,28363,2,0,P|328:200|400:248,1,140
280,336,28909,1,0,0:0:0:0:
184,232,29181,1,0,0:0:0:0:
144,96,29454,1,0,0:0:0:0:
256,48,30545,6,0,L|256:208,2,140
256,192,31363,2,0,L|256:360,1,140
368,160,32454,5,0,0:0:0:0:
368,160,32727,6,0,L|360:256,1,70
48,72,33545,5,0,0:0:0:0:
112,200,33818,5,0,0:0:0:0:
200,88,34090,5,0,0:0:0:0:
240,224,34363,5,0,0:0:0:0:
336,120,34636,5,0,0:0:0:0:
400,240,34909,5,0,0:0:0:0:
288,320,35181,6,0,P|296:256|288:232,2,70
216,304,35727,1,0,0:0:0:0:
136,184,36000,1,0,0:0:0:0:
216,72,36272,6,0,P|320:72|360:96,1,140
136,248,36818,6,0,P|112:328|64:352,2,140
376,248,37636,6,0,P|400:328|448:352,2,140
168,104,39272,5,0,0:0:0:0:
200,240,39545,1,0,0:0:0:0:
264,112,39818,1,0,0:0:0:0:
136,176,40090,1,0,0:0:0:0:
272,192,40363,1,0,0:0:0:0:
400,176,41181,5,0,0:0:0:0:
400,176,41454,6,0,L|408:256,1,70
88,96,42272,5,0,0:0:0:0:
88,240,42545,5,0,0:0:0:0:
184,136,42818,5,0,0:0:0:0:
184,272,43090,5,0,0:0:0:0:
288,176,43363,5,0,0:0:0:0:
280,312,43636,5,0,0:0:0:0:
416,288,43909,2,8,L|416:200,2,70,8|8|8,3:0|3:0|3:0,3:0:0:0:
352,272,44318,1,0,0:0:0:0:
224,224,44590,1,0,0:0:0:0:
168,184,44727,6,0,P|160:96|328:48,1,280
384,160,45545,1,0,0:0:0:0:
296,272,45818,1,0,0:0:0:0:
160,232,46090,5,0,0:0:0:0:
296,208,46363,1,0,0:0:0:0:
160,232,46636,1,0,0:0:0:0:
296,208,46909,1,0,0:0:0:0:
208,144,47181,5,0,0:0:0:0:
256,280,47454,1,0,0:0:0:0:
208,144,47727,1,0,0:0:0:0:
256,280,48000,1,0,0:0:0:0:
392,240,48272,6,8,P|416:160|416:152,2,70,8|8|8,3:0|3:0|3:0,3:0:0:0:
264,176,48818,5,0,0:0:0:0:
264,176,49090,6,0,P|336:128|432:272,1,280
312,296,49909,1,0,0:0:0:0:
184,240,50181,1,0,0:0:0:0:
192,104,50454,5,0,0:0:0:0:
328,136,50727,1,0,0:0:0:0:
296,272,51000,1,0,0:0:0:0:
160,248,51272,1,0,0:0:0:0:
248,192,51545,6,0,L|296:40,2,140
416,112,52363,6,0,B|424:168|408:176|416:216|440:224|448:248,1,105.000004005432
336,288,52636,2,0,B|280:288|272:256|224:272,1,105.000004005432
144,232,52909,2,0,B|160:176|152:152|184:128|168:104|160:72|184:16,1,210.000008010865
64,64,53454,6,0,P|152:112|192:136,1,105.000004005432
336,80,53726,1,0,0:0:0:0:
360,104,53795,1,0,0:0:0:0:
384,128,53863,1,0,0:0:0:0:
96,176,54000,2,0,L|192:248,1,105.000004005432
304,200,54272,1,0,0:0:0:0:
328,224,54340,1,0,0:0:0:0:
352,248,54409,1,0,0:0:0:0:
240,312,54545,5,0,0:0:0:0:
200,120,54681,1,0,0:0:0:0:
336,136,54818,5,0,0:0:0:0:
160,232,54954,1,0,0:0:0:0:
368,224,55090,2,0,P|400:160|432:104,1,105.000004005432
280,56,55363,1,0,0:0:0:0:
228,66,55431,1,0,0:0:0:0:
177,76,55499,1,0,0:0:0:0:
88,152,55636,2,0,L|152:272,1,105.000004005432
216,320,55909,1,0,0:0:0:0:
268,313,55977,1,0,0:0:0:0:
320,307,56045,1,0,0:0:0:0:
400,176,56181,5,0,0:0:0:0:
240,72,56318,1,0,0:0:0:0:
272,232,56454,5,0,0:0:0:0:
392,64,56590,1,0,0:0:0:0:
384,256,56727,5,0,0:0:0:0:
312,40,56863,1,0,0:0:0:0:
200,160,57000,6,0,L|448:120,1,210.000008010865
352,304,57409,1,0,0:0:0:0:
168,288,57545,2,0,P|112:232|112:184,2,105.000004005432
424,312,57954,6,0,L|464:168,1,105.000004005432
240,64,58227,1,0,0:0:0:0:
216,96,58295,1,0,0:0:0:0:
192,128,58363,1,0,0:0:0:0:
400,144,58500,2,0,L|352:24,1,105.000004005432
176,224,58772,1,0,0:0:0:0:
196,259,58840,1,0,0:0:0:0:
215,290,58909,1,0,0:0:0:0:
312,256,59045,5,0,0:0:0:0:
376,96,59181,1,0,0:0:0:0:
472,232,59318,1,0,0:0:0:0:
256,176,59454,5,0,0:0:0:0:
168,48,59590,1,0,0:0:0:0:
80,176,59727,1,0,0:0:0:0:
168,312,59863,5,0,0:0:0:0:
256,96,60000,1,0,0:0:0:0:
328,312,60136,2,0,P|352:232|368:168,1,105.000004005432
256,32,60409,5,0,0:0:0:0:
120,136,60545,1,0,0:0:0:0:
256,224,60681,1,0,0:0:0:0:
256,128,60818,5,0,0:0:0:0:
400,224,60954,1,0,0:0:0:0:
256,328,61090,2,0,P|145:351|52:275,2,210.000008010865
408,280,61772,5,0,0:0:0:0:
368,128,61909,1,0,0:0:0:0:
208,128,62045,1,0,0:0:0:0:
248,280,62181,1,0,0:0:0:0:
96,248,62318,6,0,L|80:112,1,105.000004005432
224,72,62590,1,0,0:0:0:0:
248,104,62659,1,0,0:0:0:0:
272,128,62727,1,0,0:0:0:0:
296,336,62863,2,0,L|192:224,1,105.000004005432
384,216,63136,1,0,0:0:0:0:
416,200,63204,1,0,0:0:0:0:
448,184,63272,1,0,0:0:0:0:
