osu file format v14

[General]
AudioFilename: audio.mp3
AudioLeadIn: 0
PreviewTime: -1
Countdown: 1
SampleSet: Soft
StackLeniency: 1
Mode: 0
LetterboxInBreaks: 0
WidescreenStoryboard: 0

[Editor]
DistanceSpacing: 1.3
BeatDivisor: 4
GridSize: 32
TimelineZoom: 1

[Metadata]
Title:Toumei Elegy
TitleUnicode:トゥメイエレギー
Artist:Konuko
ArtistUnicode:コヌコ
Creator:Bliitzz0214
Version:Medium
Source:
Tags:
BeatmapID:1554787
BeatmapSetID:736734

[Difficulty]
HPDrainRate:5
CircleSize:5
OverallDifficulty:5
ApproachRate:5
SliderMultiplier:0.8
SliderTickRate:1

[Events]
//Background and Video events
0,0,"Screenshot (1).png",0,0
//Break Periods
2,10185,26103
2,125207,141876
//Storyboard Layer 0 (Background)
//Storyboard Layer 1 (Fail)
//Storyboard Layer 2 (Pass)
//Storyboard Layer 3 (Foreground)
//Storyboard Sound Samples

[TimingPoints]
1122,272.727272727273,4,2,1,70,1,0
27303,-100,4,2,1,60,0,0
36031,-100,4,2,1,70,0,0
43940,-100,4,2,1,60,0,0
53485,-100,4,2,1,90,0,1
70940,-100,4,2,1,60,0,0
79667,-100,4,2,1,70,0,0
81849,-100,4,2,1,60,0,0
99303,-100,4,2,1,70,0,0
105849,-100,4,2,1,60,0,0
106122,-100,4,2,1,70,0,0
106394,-100,4,2,1,60,0,0
108031,-100,4,2,1,90,0,1
125485,-100,4,2,1,90,0,0
142940,-100,4,2,1,60,0,0
162577,-100,4,2,1,50,0,0
180031,-100,4,2,1,90,0,1
199667,-100,4,2,1,90,0,0

[HitObjects]
256,192,1122,5,0,0:0:0:0:
160,256,1531,2,0,B|160:128|192:128|288:128,1,220
352,128,2962,2,0,B|352:256|320:256|224:256,1,220
64,224,4122,2,0,P|96:128|160:128,1,160
320,192,5144,1,0,0:0:0:0:
320,288,5622,2,0,P|224:288|192:224,1,160
256,160,6440,1,0,0:0:0:0:
96,160,6849,2,0,P|160:256|384:256,1,340
256,192,8690,1,0,0:0:0:0:
256,192,9303,1,0,0:0:0:0:
256,192,9985,1,0,0:0:0:0:
288,192,27303,6,0,P|192:128|256:128,1,320
352,128,28872,1,0,0:0:0:0:
160,224,29349,2,0,B|160:128|224:128|224:192|288:224|288:128,1,220
128,192,30440,1,0,0:0:0:0:
224,224,30781,2,0,P|416:160|448:224,1,320
128,224,32417,1,0,0:0:0:0:
160,192,32622,1,0,0:0:0:0:
96,160,33712,1,0,0:0:0:0:
128,128,33917,1,0,0:0:0:0:
224,160,34190,2,0,P|352:192|320:256,1,240
64,192,36031,6,0,L|96:160,1,40
128,224,36235,2,0,L|160:192,1,40
192,256,36508,2,0,L|224:224,1,40
192,96,37053,2,0,L|288:192,1,120
416,224,37872,1,0,0:0:0:0:
416,192,38076,1,0,0:0:0:0:
224,128,38417,2,0,L|256:128,3,20
192,160,39235,2,0,B|256:192|288:192|320:160,1,140
256,160,40122,1,0,0:0:0:0:
160,128,41008,6,0,P|256:160|288:128,1,140
320,160,41894,2,0,P|384:256|288:256,2,260
224,224,44826,2,0,P|192:128|320:160,1,280
256,160,46190,1,0,0:0:0:0:
201,237,46667,2,0,P|201:109|329:109,1,280
252,166,48031,1,0,0:0:0:0:
313,192,48440,2,0,P|378:220|321:243,2,160
150,149,49940,1,0,0:0:0:0:
286,199,50417,2,0,B|483:308|162:16|345:86,1,280
352,95,51712,2,0,B|155:-14|476:278|293:208,1,280
175,144,52940,1,0,0:0:0:0:
239,66,53485,2,0,B|332:129|414:120|369:195,1,200
288,222,54508,6,0,B|259:224|259:224|258:220,5,20
50,206,55394,2,0,P|207:223|212:175,1,260
243,140,56622,1,0,0:0:0:0:
242,69,57031,2,0,P|178:168|260:209,1,220
339,211,58053,1,0,0:0:0:0:
314,268,58462,2,0,P|261:269|205:186,1,160
223,119,59144,2,0,P|303:103|356:196,1,200
334,233,60031,2,0,P|221:211|210:144,1,180
207,161,60781,2,0,P|277:77|324:233,1,340
255,193,62349,1,0,0:0:0:0:
295,118,62758,2,0,P|171:138|210:250,1,260
189,248,63985,6,0,L|278:138,2,140
116,154,65417,1,0,0:0:0:0:
139,158,65758,1,0,0:0:0:0:
147,166,66099,2,0,L|162:115,3,40
215,169,67190,2,0,P|274:77|206:168,1,380
218,177,68894,6,0,P|277:269|209:178,1,380
250,186,70940,1,0,0:0:0:0:
246,267,71417,2,0,P|172:147|263:104,1,260
245,102,72576,2,0,P|352:170|239:264,1,320
156,197,74008,1,0,0:0:0:0:
213,148,74281,1,0,0:0:0:0:
257,207,74485,1,0,0:0:0:0:
201,268,74758,1,0,0:0:0:0:
337,282,75099,1,0,0:0:0:0:
350,182,75440,5,0,0:0:0:0:
214,195,76053,2,0,P|202:86|210:52,3,140
330,146,77894,1,0,0:0:0:0:
165,204,78303,2,0,P|259:228|341:214,2,180
95,184,79872,1,0,0:0:0:0:
61,209,81985,2,0,P|232:77|345:148,1,360
404,165,83622,2,0,P|328:309|61:206,1,500
156,213,85940,1,0,0:0:0:0:
179,128,86281,1,0,0:0:0:0:
131,154,87031,6,0,L|165:126,4,40
117,193,88326,2,0,P|185:95|213:152,1,240
200,133,89485,1,0,0:0:0:0:
303,213,89894,2,0,P|327:183|330:178,6,40
233,238,90985,1,0,0:0:0:0:
169,194,91326,2,0,P|126:128|268:110,1,280
265,106,92690,2,0,P|252:188|169:194,1,180
143,109,93917,1,0,0:0:0:0:
148,211,94326,1,0,0:0:0:0:
235,143,94735,1,0,0:0:0:0:
130,188,95076,6,0,L|177:158,1,40
174,245,95553,2,0,L|209:215,1,40
223,310,95962,2,0,L|257:279,1,40
115,184,96712,2,0,L|233:318,1,160
214,307,97599,2,0,L|268:172,1,140
268,175,98349,2,0,L|117:184,1,140
258,188,99440,1,0,0:0:0:0:
287,146,99781,2,0,P|196:190|281:239,1,240
272,238,101008,2,0,P|194:195|296:155,1,240
286,144,102167,1,0,0:0:0:0:
286,170,102440,5,0,0:0:0:0:
111,130,102849,2,0,B|145:142|185:213|257:204|318:273|308:307,1,260
126,157,104144,1,0,0:0:0:0:
162,200,104417,2,0,B|235:250|310:165|244:93|119:158,1,260
157,237,105985,2,0,L|205:234,2,40
234,153,106735,1,0,0:0:0:0:
145,158,107144,2,0,P|243:216|296:202,1,160
282,208,108031,2,0,P|184:150|131:164,1,160
144,157,108781,1,0,0:0:0:0:
274,223,109053,1,0,0:0:0:0:
265,109,109667,6,0,P|397:151|393:214,1,220
396,219,110826,2,0,P|261:192|272:98,1,240
250,144,111917,1,0,0:0:0:0:
83,188,112258,1,0,0:0:0:0:
163,212,112531,1,0,0:0:0:0:
209,240,113008,2,0,P|238:255|288:257,3,80
291,159,114167,2,0,B|248:167|230:217|288:247,1,120
293,245,114781,2,0,B|358:226|380:211|397:201|322:155|286:151,1,180
217,208,115803,1,0,0:0:0:0:
217,208,116076,2,0,P|365:155|227:215,2,560
270,186,120303,1,0,0:0:0:0:
270,186,120508,5,0,0:0:0:0:
267,192,120644,2,0,P|342:233|363:171,1,160
365,182,121531,2,0,P|316:74|241:188,1,300
239,188,122690,1,0,0:0:0:0:
239,188,122826,1,0,0:0:0:0:
239,188,123031,1,0,0:0:0:0:
232,197,123576,2,0,L|371:197,3,140
151,157,143076,6,0,L|206:189,5,60
163,217,144576,2,0,B|234:278|290:129|408:199,2,260
232,193,147644,1,0,0:0:0:0:
136,193,147985,2,0,P|166:118|27:110,2,260
136,193,149962,1,0,0:0:0:0:
171,220,150235,2,0,B|357:306|354:304,1,200
361,295,151326,1,0,0:0:0:0:
361,295,151462,1,0,0:0:0:0:
122,193,151803,2,0,B|231:275|348:87|432:178,2,320
121,157,154326,1,0,0:0:0:0:
95,181,154803,6,0,B|354:170|186:219,2,220
238,166,156644,1,0,0:0:0:0:
298,157,157053,2,0,B|386:200|348:298|263:227,2,180
252,186,158553,1,0,0:0:0:0:
170,226,158962,2,0,P|170:202|171:195,6,20
225,229,159849,2,0,L|226:203,2,20
297,232,160326,2,0,L|297:208,2,20
369,233,160803,2,0,L|369:212,2,20
221,247,162031,2,0,P|219:186|217:172,2,60
308,238,162781,6,0,P|306:177|304:163,1,60
14,173,163258,1,0,0:0:0:0:
158,201,163803,1,0,0:0:0:0:
265,109,164417,1,0,0:0:0:0:
351,254,164894,1,0,0:0:0:0:
70,251,165440,1,0,0:0:0:0:
212,103,165985,1,0,0:0:0:0:
292,268,166531,1,0,0:0:0:0:
128,227,167008,1,0,0:0:0:0:
188,171,167349,2,0,P|242:172|243:171,1,60
249,168,167894,2,0,P|303:167|304:168,1,60
316,173,168440,2,0,P|370:174|371:173,1,60
199,238,168985,5,0,0:0:0:0:
63,126,169326,1,0,0:0:0:0:
103,124,169667,2,0,P|201:119|202:231,1,220
357,240,171440,2,0,B|518:188|251:214,1,220
201,181,172599,1,0,0:0:0:0:
250,91,173008,1,0,0:0:0:0:
319,213,173417,1,0,0:0:0:0:
247,149,173826,1,0,0:0:0:0:
232,104,174235,2,0,L|292:209,1,120
288,200,174917,6,0,L|160:196,1,120
160,196,175599,6,0,L|234:87,1,120
234,91,176349,2,0,B|245:245|175:299|370:260|350:105,2,360
210,182,179212,2,0,P|236:51|214:180,1,500
201,169,181258,2,0,P|356:247|195:177,1,540
270,225,183576,1,0,0:0:0:0:
201,177,184053,2,0,P|174:127|174:121,3,60
196,192,185008,2,0,P|265:209|264:202,1,140
196,192,185894,2,0,P|238:152|263:209,1,140
128,164,186712,1,0,0:0:0:0:
222,196,187190,1,0,0:0:0:0:
173,247,187462,6,0,P|157:170|285:193,1,260
323,240,188622,1,0,0:0:0:0:
243,256,188962,2,0,B|-49:258|144:207,1,260
183,149,190190,1,0,0:0:0:0:
193,200,190599,2,0,L|310:198,5,100
297,215,192781,2,0,L|245:117,3,100
117,243,194144,1,0,0:0:0:0:
215,138,194553,1,0,0:0:0:0:
284,246,194962,1,0,0:0:0:0:
151,133,195508,5,0,0:0:0:0:
314,127,196190,1,0,0:0:0:0:
323,282,196735,1,0,0:0:0:0:
162,285,197349,1,0,0:0:0:0:
246,134,197826,5,0,0:0:0:0:
409,128,198508,1,0,0:0:0:0:
418,283,199053,1,0,0:0:0:0:
257,286,199667,1,0,0:0:0:0:
