osu file format v14

[General]
AudioFilename: audio.mp3
AudioLeadIn: 0
PreviewTime: -1
Countdown: 1
SampleSet: None
StackLeniency: 0.7
Mode: 0
LetterboxInBreaks: 0
WidescreenStoryboard: 0

[Editor]
DistanceSpacing: 1
BeatDivisor: 3
GridSize: 4
TimelineZoom: 1

[Metadata]
Title:Lost (feat. Savoi)
TitleUnicode:Lost (feat. Savoi)
Artist:Kontinuum
ArtistUnicode:Kontinuum
Creator:King_29
Version:Moonlight
Source:
Tags:Lost, NCS. Kontinuum
BeatmapID:1586386
BeatmapSetID:753477

[Difficulty]
HPDrainRate:7
CircleSize:4.5
OverallDifficulty:8
ApproachRate:9.5
SliderMultiplier:1.30000000596046
SliderTickRate:1

[Events]
//Background and Video events
0,0,"blue-moon-wallpaper6.jpg",0,0
//Break Periods
2,129805,135980
//Storyboard Layer 0 (Background)
//Storyboard Layer 1 (Fail)
//Storyboard Layer 2 (Pass)
//Storyboard Layer 3 (Foreground)
//Storyboard Sound Samples

[TimingPoints]
35127.0910879473,265.389745177845,4,2,0,100,1,0

[HitObjects]
256,192,35127,12,0,38046,0:0:0:0:
222,87,38577,6,0,B|368:224|326:171,1,130.000000596046
326,180,39373,2,0,L|222:80,1,130.000000596046
193,68,40169,1,0,0:0:0:0:
115,147,40700,1,0,0:0:0:0:
170,250,41407,2,0,L|317:248,1,130.000000596046
177,79,42292,2,0,L|392:219,1,216.666667660077
372,206,43050,2,0,B|411:69|411:71,1,130.000000596046
276,63,44150,1,0,0:0:0:0:
277,202,44415,1,0,0:0:0:0:
282,116,44946,2,0,P|184:120|146:127,1,130.000000596046
161,205,45436,1,0,0:0:0:0:
196,229,45574,1,0,0:0:0:0:
288,230,45797,1,0,0:0:0:0:
417,215,46050,6,0,L|356:120,1,86.6666670640307
262,69,46715,1,0,0:0:0:0:
357,157,47246,1,0,0:0:0:0:
113,66,47777,2,0,L|114:205,1,130.000000596046
287,190,48661,1,0,0:0:0:0:
416,191,49192,1,0,0:0:0:0:
330,87,49988,2,0,L|215:199,1,130.000000596046
123,183,50785,2,0,L|352:185,1,216.666667660077
264,78,51540,1,0,0:0:0:0:
135,94,51846,2,0,P|134:310|141:318,1,216.666667660077
252,278,52595,1,0,0:0:0:0:
252,278,52857,5,0,0:0:0:0:
94,56,53438,2,0,L|238:124,1,130.000000596046
211,111,53969,1,0,0:0:0:0:
211,111,54058,1,0,0:0:0:0:
336,76,54323,1,0,0:0:0:0:
360,203,54589,1,0,0:0:0:0:
360,203,54765,2,0,L|179:235,1,173.333334128061
189,233,55296,1,0,0:0:0:0:
128,171,55473,2,0,L|223:99,1,86.6666670640307
263,62,55827,1,0,0:0:0:0:
372,131,55915,1,0,0:0:0:0:
298,85,56046,5,0,0:0:0:0:
372,131,56219,1,0,0:0:0:0:
372,131,56493,2,0,L|302:220,1,86.6666670640307
238,233,56844,1,0,0:0:0:0:
108,228,57112,1,0,0:0:0:0:
117,98,57419,2,0,L|264:95,1,130.000000596046
246,95,57812,1,0,0:0:0:0:
246,95,57950,1,0,0:0:0:0:
304,159,58085,5,0,0:0:0:0:
304,159,58195,1,0,0:0:0:0:
304,159,58304,2,0,L|201:256,1,130.000000596046
112,155,58835,1,0,0:0:0:0:
112,155,59012,2,0,B|196:72|189:79,1,86.6666670640307
345,69,59542,5,0,0:0:0:0:
353,128,59760,1,0,0:0:0:0:
359,214,59938,1,0,0:0:0:0:
359,214,60027,1,0,0:0:0:0:
359,214,60162,1,0,0:0:0:0:
353,344,60283,5,0,0:0:0:0:
353,344,60389,2,0,L|223:262,1,130.000000596046
96,249,60958,2,0,P|175:178|192:163,1,86.6666670640307
160,190,61400,1,0,0:0:0:0:
161,137,61666,2,0,L|281:93,1,86.6666670640307
327,92,62019,1,0,0:0:0:0:
268,155,62146,1,0,0:0:0:0:
216,85,62276,1,0,0:0:0:0:
125,80,62416,6,0,L|126:180,1,86.6666670640307
188,179,62816,2,0,L|290:76,1,130.000000596046
203,54,63258,1,0,0:0:0:0:
203,54,63523,1,0,0:0:0:0:
169,180,63789,1,0,0:0:0:0:
230,118,64054,1,0,0:0:0:0:
230,118,64231,2,0,B|229:237|229:236,1,86.6666670640307
229,204,64585,1,0,0:0:0:0:
229,204,64673,1,0,0:0:0:0:
418,98,65116,5,0,0:0:0:0:
289,105,65381,1,0,0:0:0:0:
354,216,65646,1,0,0:0:0:0:
94,228,66177,6,0,L|190:134,1,130.000000596046
440,81,66973,1,0,0:0:0:0:
441,167,67239,6,0,B|282:168|323:165,1,130.000000596046
346,279,68035,1,0,0:0:0:0:
221,241,68300,2,0,L|119:129,1,130.000000596046
76,126,69096,2,0,L|76:263,1,130.000000596046
76,256,69627,1,0,0:0:0:0:
308,138,70158,5,0,0:0:0:0:
76,256,70423,1,0,0:0:0:0:
113,131,70689,1,0,0:0:0:0:
181,241,70954,1,0,0:0:0:0:
95,142,71220,6,0,L|177:245,1,130.000000596046
330,164,71750,1,0,0:0:0:0:
113,173,72193,2,0,L|200:70,1,130.000000596046
326,81,72723,5,0,0:0:0:0:
258,287,72989,1,0,0:0:0:0:
147,219,73166,1,0,0:0:0:0:
259,152,73431,1,0,0:0:0:0:
85,144,73697,5,0,0:0:0:0:
85,144,73873,2,0,P|295:57|295:57,1,216.666667660077
357,219,74670,1,0,0:0:0:0:
272,197,74935,1,0,0:0:0:0:
15,152,75466,1,0,0:0:0:0:
135,104,75731,1,0,0:0:0:0:
121,233,75997,1,0,0:0:0:0:
250,234,76262,6,0,L|249:93,1,130.000000596046
373,151,76793,1,0,0:0:0:0:
286,156,77058,2,0,B|153:157|154:157,1,130.000000596046
156,156,77589,1,0,0:0:0:0:
248,64,77854,6,0,L|156:165,1,130.000000596046
265,237,78385,1,0,0:0:0:0:
144,186,78651,1,0,0:0:0:0:
251,112,78916,1,0,0:0:0:0:
145,187,79181,5,0,0:0:0:0:
251,112,79447,1,0,0:0:0:0:
254,241,79712,1,0,0:0:0:0:
254,241,79977,2,0,B|254:108|255:92|254:106,2,130.000000596046
28,37,81039,5,0,0:0:0:0:
158,38,81304,1,0,0:0:0:0:
93,150,81570,1,0,0:0:0:0:
93,150,81658,1,0,0:0:0:0:
266,147,82012,5,0,0:0:0:0:
476,63,82189,1,0,0:0:0:0:
389,67,82366,2,0,L|238:67,1,130.000000596046
259,67,82897,1,0,0:0:0:0:
330,175,83162,1,0,0:0:0:0:
261,64,83428,1,0,0:0:0:0:
187,170,83693,1,0,0:0:0:0:
187,170,83958,2,0,B|188:306|243:297|226:300|229:298,1,130.000000596046
351,291,84489,5,0,0:0:0:0:
251,208,84754,2,0,L|129:154,1,130.000000596046
9,110,85285,1,0,0:0:0:0:
113,31,85551,2,0,L|237:109,1,130.000000596046
117,176,86081,1,0,0:0:0:0:
226,246,86347,2,0,B|386:243|353:235,2,130.000000596046
109,186,87143,5,0,0:0:0:0:
180,77,87408,1,0,0:0:0:0:
251,185,87674,1,0,0:0:0:0:
326,79,87939,6,0,L|326:216,1,130.000000596046
157,249,88470,1,0,0:0:0:0:
76,146,88735,2,0,L|234:146,1,130.000000596046
189,68,91389,5,0,0:0:0:0:
189,237,91655,1,0,0:0:0:0:
273,92,91920,1,0,0:0:0:0:
122,217,92185,1,0,0:0:0:0:
311,163,92451,1,0,0:0:0:0:
78,162,92716,1,0,0:0:0:0:
258,232,92982,1,0,0:0:0:0:
125,91,93247,1,0,0:0:0:0:
182,267,93512,5,0,0:0:0:0:
187,61,93778,1,0,0:0:0:0:
269,104,94043,2,0,P|269:239|254:251,1,130.000000596046
209,232,94574,1,0,0:0:0:0:
209,232,94839,1,0,0:0:0:0:
204,227,95105,2,0,P|67:227|56:227,1,130.000000596046
234,69,95635,5,0,0:0:0:0:
344,303,95901,1,0,0:0:0:0:
91,140,96166,1,0,0:0:0:0:
369,134,96432,1,0,0:0:0:0:
128,306,96697,1,0,0:0:0:0:
252,73,96962,1,0,0:0:0:0:
124,301,97228,2,0,L|257:300,1,130.000000596046
334,150,97759,6,0,L|336:289,1,130.000000596046
247,258,98289,2,0,L|178:193,1,86.6666670640307
148,176,98786,1,0,0:0:0:0:
148,176,99043,1,0,0:0:0:0:
233,81,99304,2,0,L|141:180,1,130.000000596046
379,79,99882,5,0,0:0:0:0:
379,179,100147,2,0,L|299:122,1,86.6666670640307
271,88,100678,1,0,0:0:0:0:
99,87,100943,1,0,0:0:0:0:
178,197,101209,1,0,0:0:0:0:
95,303,101474,6,0,L|226:302,1,130.000000596046
153,152,102005,2,0,L|59:57,1,130.000000596046
67,59,102447,1,0,0:0:0:0:
198,62,102713,1,0,0:0:0:0:
69,64,102978,2,0,L|201:62,1,130.000000596046
161,151,103597,1,0,0:0:0:0:
58,54,103863,1,0,0:0:0:0:
311,67,104128,6,0,B|194:182|217:155,1,130.000000596046
317,242,104659,2,0,L|214:155,1,130.000000596046
218,159,105189,1,0,0:0:0:0:
115,62,105455,1,0,0:0:0:0:
217,165,105720,5,0,0:0:0:0:
114,273,105986,1,0,0:0:0:0:
120,106,106516,5,0,0:0:0:0:
325,104,106782,1,0,0:0:0:0:
329,296,107047,1,0,0:0:0:0:
114,295,107313,1,0,0:0:0:0:
160,94,107578,5,0,0:0:0:0:
350,175,107843,1,0,0:0:0:0:
240,346,108109,1,0,0:0:0:0:
74,254,108374,1,0,0:0:0:0:
111,197,108640,5,0,0:0:0:0:
215,100,108905,1,0,0:0:0:0:
328,194,109170,1,0,0:0:0:0:
211,305,109436,1,0,0:0:0:0:
211,179,109701,2,0,L|211:313,1,130.000000596046
309,307,110232,2,0,L|309:168,1,130.000000596046
304,175,110763,5,0,0:0:0:0:
304,175,111028,1,0,0:0:0:0:
63,189,111293,2,0,P|311:174|314:177,1,260.000001192092
254,56,112090,5,0,0:0:0:0:
259,344,112355,1,0,0:0:0:0:
456,189,112620,1,0,0:0:0:0:
85,194,112886,1,0,0:0:0:0:
375,58,113151,5,0,0:0:0:0:
135,320,113417,1,0,0:0:0:0:
135,68,113682,1,0,0:0:0:0:
371,324,113947,1,0,0:0:0:0:
256,182,114213,5,0,0:0:0:0:
256,182,114478,1,0,0:0:0:0:
343,94,114744,6,0,L|248:187,1,130.000000596046
340,280,115274,2,0,L|243:160,1,130.000000596046
119,192,115805,2,0,B|269:190|256:189|258:192,2,130.000000596046
137,108,116601,5,0,0:0:0:0:
241,39,116867,1,0,0:0:0:0:
330,106,117132,1,0,0:0:0:0:
241,39,117397,5,0,0:0:0:0:
330,106,117663,1,0,0:0:0:0:
148,112,117928,1,0,0:0:0:0:
330,106,118194,1,0,0:0:0:0:
151,104,118459,1,0,0:0:0:0:
256,328,118724,5,0,0:0:0:0:
256,68,118990,1,0,0:0:0:0:
256,328,119255,2,0,L|256:66,1,260.000001192092
63,191,120051,5,0,0:0:0:0:
448,196,120317,1,0,0:0:0:0:
99,94,120582,1,0,0:0:0:0:
385,284,120847,1,0,0:0:0:0:
179,43,121113,1,0,0:0:0:0:
305,322,121378,1,0,0:0:0:0:
254,32,121644,6,0,L|254:190,1,130.000000596046
150,185,122174,1,0,0:0:0:0:
150,185,122301,1,0,0:0:0:0:
150,185,122440,2,0,L|151:52,1,130.000000596046
68,36,122971,1,0,0:0:0:0:
153,159,123236,6,0,L|152:297,1,130.000000596046
67,302,123767,1,0,0:0:0:0:
70,154,124032,1,0,0:0:0:0:
219,291,124298,5,0,0:0:0:0:
221,143,124563,1,0,0:0:0:0:
74,295,124828,1,0,0:0:0:0:
75,140,125094,1,0,0:0:0:0:
396,49,125359,6,0,B|396:211|397:206,1,130.000000596046
266,57,125890,1,0,0:0:0:0:
265,191,126155,1,0,0:0:0:0:
394,55,126421,1,0,0:0:0:0:
396,187,126686,1,0,0:0:0:0:
397,332,126951,6,0,L|397:182,1,130.000000596046
260,326,127482,1,0,0:0:0:0:
256,52,127748,1,0,0:0:0:0:
152,276,128013,1,0,0:0:0:0:
369,105,128278,1,0,0:0:0:0:
108,186,128544,1,0,0:0:0:0:
419,187,128809,1,0,0:0:0:0:
256,191,129340,5,0,0:0:0:0:
256,191,129605,1,0,0:0:0:0:
256,192,136505,12,0,140221,0:0:0:0:
395,57,140486,5,0,0:0:0:0:
257,64,140752,1,0,0:0:0:0:
255,185,140975,1,0,0:0:0:0:
255,185,141110,2,0,P|256:50|256:33,1,130.000000596046
97,32,141636,5,0,0:0:0:0:
97,32,141813,2,0,L|259:193,1,216.666667660077
250,184,142609,1,0,0:0:0:0:
250,184,143140,1,0,0:0:0:0:
250,184,143671,1,0,0:0:0:0:
250,184,144202,1,0,0:0:0:0:
250,184,144733,1,0,0:0:0:0:
250,184,145263,5,0,0:0:0:0:
254,180,145794,1,0,0:0:0:0:
254,180,146325,1,0,0:0:0:0:
254,180,146856,1,0,0:0:0:0:
254,180,147386,1,0,0:0:0:0:
259,181,147917,1,0,0:0:0:0:
259,56,148183,6,0,L|259:204,1,130.000000596046
256,192,148713,12,0,152429,0:0:0:0:
256,192,152694,12,0,155525,0:0:0:0:
256,192,155790,12,0,159064,0:0:0:0:
256,185,159329,5,0,0:0:0:0:
180,256,159557,1,0,0:0:0:0:
340,253,159733,1,0,0:0:0:0:
176,113,159915,1,0,0:0:0:0:
336,113,160037,1,0,0:0:0:0:
79,326,160159,1,0,0:0:0:0:
413,334,160302,1,0,0:0:0:0:
82,53,160521,1,0,0:0:0:0:
421,50,160804,1,0,0:0:0:0:
291,50,160933,6,0,L|428:49,1,130.000000596046
255,191,161452,1,0,0:0:0:0:
255,191,161671,1,0,0:0:0:0:
153,110,161806,5,0,0:0:0:0:
153,110,161983,1,0,0:0:0:0:
143,115,162160,1,0,0:0:0:0:
162,104,162291,1,0,0:0:0:0:
141,87,162425,1,0,0:0:0:0:
330,97,162691,1,0,0:0:0:0:
235,186,162956,5,0,0:0:0:0:
330,97,163221,2,0,L|223:198,1,130.000000596046
256,192,163841,12,0,167998,0:0:0:0:
126,188,168352,5,0,0:0:0:0:
201,89,168618,1,0,0:0:0:0:
261,186,168883,1,0,0:0:0:0:
407,72,169148,5,0,0:0:0:0:
411,310,169679,1,0,0:0:0:0:
117,309,170210,1,0,0:0:0:0:
126,79,170741,1,0,0:0:0:0:
350,130,171272,1,0,0:0:0:0:
233,343,171802,1,0,0:0:0:0:
59,192,172333,1,0,0:0:0:0:
194,58,172864,1,0,0:0:0:0:
413,187,173395,5,0,0:0:0:0:
256,342,173925,1,0,0:0:0:0:
84,188,174456,1,0,0:0:0:0:
256,76,174987,1,0,0:0:0:0:
256,192,175518,1,0,0:0:0:0:
