osu file format v14

[General]
AudioFilename: audio.mp3
AudioLeadIn: 0
PreviewTime: 34065
Countdown: 0
SampleSet: Soft
StackLeniency: 0.7
Mode: 3
LetterboxInBreaks: 0
SpecialStyle: 0
WidescreenStoryboard: 0

[Editor]
DistanceSpacing: 2
BeatDivisor: 4
GridSize: 16
TimelineZoom: 1.1

[Metadata]
Title:Lost (feat. Savoi) [Sunroof Remix]
TitleUnicode:Lost (feat. Savoi) [Sunroof Remix]
Artist:Kontinuum
ArtistUnicode:Kontinuum
Creator:Dreamwalker
Version:Lastopia's Advanced
Source:
Tags:Fontes Lastopia Otakujanai NoCopyrightSounds NCS house
BeatmapID:1315355
BeatmapSetID:624059

[Difficulty]
HPDrainRate:7
CircleSize:4
OverallDifficulty:7
ApproachRate:5
SliderMultiplier:1.4
SliderTickRate:1

[Events]
//Background and Video events
0,0,"lost.jpg",0,0
//Break Periods
2,65045,79005
//Storyboard Layer 0 (Background)
//Storyboard Layer 1 (Fail)
//Storyboard Layer 2 (Pass)
//Storyboard Layer 3 (Foreground)
//Storyboard Sound Samples
Sample,13005,0,"LR_Hit Med Click.wav",70
Sample,13725,0,"LR_Hit Med Click.wav",70
Sample,14445,0,"LR_Hit Med Click.wav",70
Sample,15165,0,"LR_Hit Med Click.wav",70
Sample,32205,0,"LR_Hit Med Click.wav",100
Sample,64845,0,"LR4_KickGBDV.wav",50
Sample,80205,0,"LR2_KickBassFast2.wav",50
Sample,84045,0,"LR5_HiHat NSynth.wav",40
Sample,87885,0,"LR2_KickBassFast2.wav",50
Sample,91725,0,"LR5_HiHat NSynth.wav",40
Sample,99405,0,"LR5_HiHat NSynth.wav",50
Sample,103245,0,"LR5_HiHat NSynth.wav",50
Sample,107085,0,"LR5_HiHat NSynth.wav",50
Sample,126285,0,"LR_Hit Med Click.wav",100

[TimingPoints]
1485,480,4,2,1,40,1,0
34125,-100,4,2,1,40,0,1
49485,-100,4,2,1,40,0,0
128205,-100,4,2,1,40,0,1
143565,-100,4,2,1,40,0,0

[HitObjects]
64,192,1485,5,0,0:0:0:70:LR4_KickGBDV.wav
192,192,1485,1,0,0:0:0:0:
448,192,1485,128,0,3405:0:0:0:0:
192,192,3405,128,0,5325:0:0:0:40:LR2_KickBassFast2.wav
320,192,5325,128,0,7245:0:0:0:40:LR2_KickBassFast2.wav
64,192,7245,128,0,9165:0:0:0:40:LR2_KickBassFast2.wav
448,192,7725,128,0,9165:0:0:0:0:
192,192,9165,128,0,11085:0:0:0:30:LR_CymbalG.wav
320,192,9165,1,0,0:0:0:40:LR2_KickBassFast2.wav
64,192,11085,1,0,0:0:0:30:LR_CymbalG.wav
320,192,11085,128,0,13005:0:0:0:40:LR2_KickBassFast2.wav
64,192,13005,1,0,0:0:0:60:LR_CymbalG.wav
192,192,13005,1,0,0:0:0:70:LR4_KickGBDV.wav
320,192,13245,1,0,0:0:0:0:
64,192,13485,1,0,0:0:0:70:LR_Hit Med Click.wav
64,192,13725,1,0,0:0:0:60:LR_CymbalG.wav
448,192,13725,1,0,0:0:0:70:LR4_KickGBDV.wav
448,192,14205,1,0,0:0:0:70:LR_Hit Med Click.wav
192,192,14325,1,0,0:0:0:70:LR_Hit Med Click.wav
64,192,14445,1,0,0:0:0:60:LR_CymbalG.wav
320,192,14445,1,0,0:0:0:70:LR4_KickGBDV.wav
320,192,14685,1,0,0:0:0:70:LR_Hit Med Click.wav
192,192,14925,1,0,0:0:0:70:LR_Hit Med Click.wav
192,192,15165,1,0,0:0:0:60:LR_CymbalG.wav
448,192,15165,1,0,0:0:0:70:LR4_KickGBDV.wav
64,192,16845,1,0,0:0:0:50:LR2_KickBassFast2.wav
320,192,16845,1,0,0:0:0:30:LR_Tom Drop.wav
64,192,17325,1,0,0:0:0:50:LR2_KickBassFast2.wav
192,192,17325,1,0,0:0:0:20:LR_Hit Med Click.wav
320,192,17805,1,0,0:0:0:50:LR2_KickBassFast2.wav
448,192,17805,1,0,0:0:0:25:LR_Hit Med Click.wav
64,192,18285,1,0,0:0:0:50:LR2_KickBassFast2.wav
192,192,18285,1,0,0:0:0:25:LR_Hit Med Click.wav
192,192,18765,1,0,0:0:0:50:LR2_KickBassFast2.wav
320,192,18765,1,0,0:0:0:30:LR_Hit Med Click.wav
320,192,19245,1,0,0:0:0:50:LR2_KickBassFast2.wav
448,192,19245,1,0,0:0:0:30:LR_Hit Med Click.wav
192,192,19725,1,0,0:0:0:50:LR2_KickBassFast2.wav
448,192,19725,1,0,0:0:0:35:LR_Hit Med Click.wav
64,192,20205,1,0,0:0:0:50:LR2_KickBassFast2.wav
320,192,20205,1,0,0:0:0:35:LR_Hit Med Click.wav
192,192,20685,1,0,0:0:0:50:LR2_KickBassFast2.wav
320,192,20685,1,0,0:0:0:40:LR_Hit Med Click.wav
64,192,21165,1,0,0:0:0:50:LR2_KickBassFast2.wav
448,192,21165,1,0,0:0:0:40:LR_Hit Med Click.wav
64,192,21645,1,0,0:0:0:50:LR2_KickBassFast2.wav
320,192,21645,1,0,0:0:0:40:LR_Hit Med Click.wav
192,192,22125,1,0,0:0:0:50:LR2_KickBassFast2.wav
448,192,22125,1,0,0:0:0:45:LR_Hit Med Click.wav
192,192,22605,1,0,0:0:0:50:LR2_KickBassFast2.wav
320,192,22605,1,0,0:0:0:45:LR_Hit Med Click.wav
64,192,23085,1,0,0:0:0:50:LR2_KickBassFast2.wav
320,192,23085,1,0,0:0:0:50:LR_Hit Med Click.wav
192,192,23565,1,0,0:0:0:50:LR2_KickBassFast2.wav
448,192,23565,1,0,0:0:0:50:LR_Hit Med Click.wav
64,192,24045,1,0,0:0:0:50:LR2_KickBassFast2.wav
448,192,24045,1,0,0:0:0:50:LR_Hit Med Click.wav
64,192,24525,1,0,0:0:0:70:LR4_KickGBDV.wav
320,192,24525,1,0,0:0:0:100:LR_Hit Med Click.wav
192,192,24765,1,0,0:0:0:40:LR2_KickBassFast2.wav
320,192,24765,1,0,0:0:0:100:LR_Hit Med Click.wav
192,192,25005,1,0,0:0:0:70:LR4_KickGBDV.wav
448,192,25005,1,0,0:0:0:100:LR_Hit Med Click.wav
64,192,25245,1,0,0:0:0:40:LR2_KickBassFast2.wav
448,192,25245,1,0,0:0:0:100:LR_Hit Med Click.wav
64,192,25485,1,0,0:0:0:70:LR4_KickGBDV.wav
320,192,25485,1,0,0:0:0:100:LR_Hit Med Click.wav
192,192,25725,1,0,0:0:0:40:LR2_KickBassFast2.wav
448,192,25725,1,0,0:0:0:100:LR_Hit Med Click.wav
64,192,25965,1,0,0:0:0:70:LR4_KickGBDV.wav
192,192,25965,1,0,0:0:0:100:LR_Hit Med Click.wav
320,192,26205,1,0,0:0:0:40:LR2_KickBassFast2.wav
448,192,26205,1,0,0:0:0:100:LR_Hit Med Click.wav
64,192,26445,1,0,0:0:0:70:LR4_KickGBDV.wav
192,192,26445,1,0,0:0:0:100:LR_Hit Med Click.wav
64,192,26685,1,0,0:0:0:40:LR2_KickBassFast2.wav
192,192,26685,1,0,0:0:0:100:LR_Hit Med Click.wav
320,192,26925,1,0,0:0:0:70:LR4_KickGBDV.wav
448,192,26925,1,0,0:0:0:100:LR_Hit Med Click.wav
320,192,27165,1,0,0:0:0:40:LR2_KickBassFast2.wav
448,192,27165,1,0,0:0:0:100:LR_Hit Med Click.wav
64,192,27405,1,0,0:0:0:70:LR4_KickGBDV.wav
192,192,27405,1,0,0:0:0:100:LR_Hit Med Click.wav
64,192,27645,1,0,0:0:0:40:LR2_KickBassFast2.wav
192,192,27645,1,0,0:0:0:100:LR_Hit Med Click.wav
320,192,27885,1,0,0:0:0:70:LR4_KickGBDV.wav
448,192,27885,1,0,0:0:0:100:LR_Hit Med Click.wav
320,192,28125,128,0,28365:0:0:0:40:LR2_KickBassFast2.wav
448,192,28125,1,0,0:0:0:100:LR_Hit Med Click.wav
64,192,28365,1,0,0:0:0:70:LR4_KickGBDV.wav
192,192,28365,1,0,0:0:0:100:LR_Hit Med Click.wav
448,192,28485,1,0,0:0:0:100:LR_Hit Med Click.wav
192,192,28605,1,0,0:0:0:100:LR_Hit Med Click.wav
320,192,28725,1,0,0:0:0:100:LR_Hit Med Click.wav
64,192,28845,1,0,0:0:0:70:LR4_KickGBDV.wav
448,192,28845,1,0,0:0:0:100:LR_Hit Med Click.wav
192,192,28965,1,0,0:0:0:100:LR_Hit Med Click.wav
448,192,29085,1,0,0:0:0:100:LR_Hit Med Click.wav
320,192,29205,1,0,0:0:0:100:LR_Hit Med Click.wav
64,192,29325,1,0,0:0:0:70:LR4_KickGBDV.wav
192,192,29325,1,0,0:0:0:100:LR_Hit Med Click.wav
448,192,29445,1,0,0:0:0:100:LR_Hit Med Click.wav
64,192,29565,1,0,0:0:0:100:LR_Hit Med Click.wav
320,192,29685,1,0,0:0:0:100:LR_Hit Med Click.wav
192,192,29805,1,0,0:0:0:70:LR4_KickGBDV.wav
448,192,29805,1,0,0:0:0:100:LR_Hit Med Click.wav
320,192,29925,1,0,0:0:0:100:LR_Hit Med Click.wav
64,192,30045,1,0,0:0:0:100:LR_Hit Med Click.wav
448,192,30165,1,0,0:0:0:100:LR_Hit Med Click.wav
64,192,30285,128,0,30765:0:0:0:70:LR4_KickGBDV.wav
320,192,30285,1,0,0:0:0:100:LR_Hit Med Click.wav
320,192,30525,1,0,0:0:0:0:
192,192,30765,128,0,31245:0:0:0:70:LR4_KickGBDV.wav
448,192,30765,1,0,0:0:0:100:LR_Hit Med Click.wav
448,192,31005,1,0,0:0:0:0:
64,192,31245,1,0,0:0:0:70:LR4_KickGBDV.wav
320,192,31245,128,0,31725:0:0:0:100:LR_Hit Med Click.wav
64,192,31485,1,0,0:0:0:0:
192,192,31725,1,0,0:0:0:70:LR4_KickGBDV.wav
448,192,31725,128,0,32205:0:0:0:100:LR_Hit Med Click.wav
192,192,31965,1,0,0:0:0:0:
64,192,32205,1,0,0:0:0:60:LR_CymbalG.wav
320,192,32205,1,0,0:0:0:80:LR4_KickGBDV.wav
192,192,33525,1,0,0:0:0:40:LR_Tom Drop.wav
64,192,33645,1,0,0:0:0:40:LR_Tom Drop.wav
448,192,33645,1,0,0:0:0:0:
192,192,33765,1,0,0:0:0:40:LR_Tom Drop.wav
448,192,33885,1,0,0:0:0:40:LR_Tom Drop.wav
64,192,34125,1,0,0:0:0:70:LR4_KickGBDV.wav
192,192,34125,1,0,0:0:0:0:
320,192,34365,128,0,34605:0:0:0:100:LR5_HiHat NSynth.wav
64,192,34605,1,0,0:0:0:60:LR_CymbalSSD.wav
448,192,34605,1,0,0:0:0:70:LR4_KickGBDV.wav
192,192,34845,128,0,35085:0:0:0:100:LR5_HiHat NSynth.wav
64,192,35085,1,0,0:0:0:70:LR4_KickGBDV.wav
448,192,35085,1,0,0:0:0:0:
320,192,35205,1,0,0:0:0:0:
192,192,35325,1,0,0:0:0:100:LR5_HiHat NSynth.wav
64,192,35445,1,0,0:0:0:0:
320,192,35565,1,0,0:0:0:60:LR_CymbalSSD.wav
448,192,35565,1,0,0:0:0:70:LR4_KickGBDV.wav
192,192,35685,1,0,0:0:0:0:
448,192,35805,1,0,0:0:0:100:LR5_HiHat NSynth.wav
320,192,35925,1,0,0:0:0:0:
64,192,36045,1,0,0:0:0:70:LR4_KickGBDV.wav
448,192,36045,1,0,0:0:0:0:
64,192,36285,128,0,36525:0:0:0:100:LR5_HiHat NSynth.wav
320,192,36525,1,0,0:0:0:60:LR_CymbalSSD.wav
448,192,36525,1,0,0:0:0:70:LR4_KickGBDV.wav
192,192,36765,128,0,37005:0:0:0:100:LR5_HiHat NSynth.wav
64,192,37005,1,0,0:0:0:70:LR4_KickGBDV.wav
448,192,37005,1,0,0:0:0:0:
320,192,37125,1,0,0:0:0:0:
64,192,37245,1,0,0:0:0:100:LR5_HiHat NSynth.wav
192,192,37365,1,0,0:0:0:0:
320,192,37485,1,0,0:0:0:60:LR_CymbalSSD.wav
448,192,37485,1,0,0:0:0:70:LR4_KickGBDV.wav
64,192,37605,1,0,0:0:0:0:
320,192,37725,1,0,0:0:0:100:LR5_HiHat NSynth.wav
192,192,37845,1,0,0:0:0:0:
64,192,37965,1,0,0:0:0:70:LR4_KickGBDV.wav
448,192,37965,1,0,0:0:0:0:
320,192,38205,128,0,38445:0:0:0:100:LR5_HiHat NSynth.wav
64,192,38445,1,0,0:0:0:60:LR_CymbalSSD.wav
448,192,38445,1,0,0:0:0:70:LR4_KickGBDV.wav
192,192,38685,128,0,38925:0:0:0:100:LR5_HiHat NSynth.wav
64,192,38925,1,0,0:0:0:70:LR4_KickGBDV.wav
320,192,38925,1,0,0:0:0:0:
448,192,39045,128,0,39165:0:0:0:0:
192,192,39165,1,0,0:0:0:100:LR5_HiHat NSynth.wav
320,192,39285,1,0,0:0:0:0:
64,192,39405,1,0,0:0:0:60:LR_CymbalSSD.wav
448,192,39405,1,0,0:0:0:70:LR4_KickGBDV.wav
192,192,39525,1,0,0:0:0:0:
448,192,39645,1,0,0:0:0:100:LR5_HiHat NSynth.wav
320,192,39765,1,0,0:0:0:0:
64,192,39885,128,0,40125:0:0:0:70:LR4_KickGBDV.wav
192,192,39885,1,0,0:0:0:0:
192,192,40125,128,0,40365:0:0:0:100:LR5_HiHat NSynth.wav
320,192,40365,1,0,0:0:0:60:LR_CymbalSSD.wav
448,192,40365,128,0,40605:0:0:0:70:LR4_KickGBDV.wav
320,192,40605,128,0,40845:0:0:0:100:LR5_HiHat NSynth.wav
64,192,40845,1,0,0:0:0:70:LR4_KickGBDV.wav
448,192,40845,1,0,0:0:0:0:
64,192,41085,128,0,41325:0:0:0:100:LR5_HiHat NSynth.wav
320,192,41325,1,0,0:0:0:60:LR_CymbalSSD.wav
448,192,41325,1,0,0:0:0:70:LR4_KickGBDV.wav
192,192,41565,128,0,41805:0:0:0:0:
320,192,41565,128,0,41805:0:0:0:0:
448,192,41805,1,0,0:0:0:70:LR4_KickGBDV.wav
320,192,42045,128,0,42285:0:0:0:100:LR5_HiHat NSynth.wav
64,192,42285,1,0,0:0:0:60:LR_CymbalSSD.wav
192,192,42285,1,0,0:0:0:70:LR4_KickGBDV.wav
448,192,42525,128,0,42765:0:0:0:100:LR5_HiHat NSynth.wav
64,192,42765,1,0,0:0:0:70:LR4_KickGBDV.wav
320,192,42765,1,0,0:0:0:0:
192,192,42885,1,0,0:0:0:0:
320,192,43005,1,0,0:0:0:100:LR5_HiHat NSynth.wav
448,192,43125,1,0,0:0:0:0:
64,192,43245,1,0,0:0:0:60:LR_CymbalSSD.wav
192,192,43245,1,0,0:0:0:70:LR4_KickGBDV.wav
448,192,43365,1,0,0:0:0:0:
320,192,43485,1,0,0:0:0:100:LR5_HiHat NSynth.wav
64,192,43605,1,0,0:0:0:0:
192,192,43725,1,0,0:0:0:70:LR4_KickGBDV.wav
448,192,43725,1,0,0:0:0:0:
192,192,43965,128,0,44205:0:0:0:100:LR5_HiHat NSynth.wav
64,192,44205,1,0,0:0:0:60:LR_CymbalSSD.wav
448,192,44205,1,0,0:0:0:70:LR4_KickGBDV.wav
320,192,44445,128,0,44685:0:0:0:100:LR5_HiHat NSynth.wav
64,192,44685,1,0,0:0:0:70:LR4_KickGBDV.wav
448,192,44685,1,0,0:0:0:0:
320,192,44805,1,0,0:0:0:0:
64,192,44925,1,0,0:0:0:100:LR5_HiHat NSynth.wav
192,192,45045,1,0,0:0:0:0:
320,192,45165,1,0,0:0:0:60:LR_CymbalSSD.wav
448,192,45165,1,0,0:0:0:70:LR4_KickGBDV.wav
64,192,45285,1,0,0:0:0:0:
448,192,45405,1,0,0:0:0:100:LR5_HiHat NSynth.wav
192,192,45525,1,0,0:0:0:0:
320,192,45645,1,0,0:0:0:70:LR4_KickGBDV.wav
448,192,45645,1,0,0:0:0:0:
64,192,45885,128,0,46125:0:0:0:100:LR5_HiHat NSynth.wav
192,192,46125,1,0,0:0:0:60:LR_CymbalSSD.wav
448,192,46125,1,0,0:0:0:70:LR4_KickGBDV.wav
320,192,46365,128,0,46605:0:0:0:100:LR5_HiHat NSynth.wav
192,192,46605,1,0,0:0:0:70:LR4_KickGBDV.wav
448,192,46605,1,0,0:0:0:0:
64,192,46725,128,0,46845:0:0:0:0:
192,192,46845,1,0,0:0:0:100:LR5_HiHat NSynth.wav
320,192,46965,1,0,0:0:0:0:
64,192,47085,1,0,0:0:0:60:LR_CymbalSSD.wav
448,192,47085,1,0,0:0:0:70:LR4_KickGBDV.wav
192,192,47205,1,0,0:0:0:0:
320,192,47325,1,0,0:0:0:100:LR5_HiHat NSynth.wav
192,192,47445,1,0,0:0:0:0:
64,192,47565,128,0,47805:0:0:0:70:LR4_KickGBDV.wav
320,192,47565,1,0,0:0:0:0:
448,192,47805,128,0,48045:0:0:0:100:LR5_HiHat NSynth.wav
64,192,48045,1,0,0:0:0:60:LR_CymbalSSD.wav
192,192,48045,128,0,48285:0:0:0:70:LR4_KickGBDV.wav
320,192,48285,128,0,48525:0:0:0:100:LR5_HiHat NSynth.wav
64,192,48525,128,0,48765:0:0:0:70:LR4_KickGBDV.wav
448,192,48525,1,0,0:0:0:0:
192,192,48765,128,0,49005:0:0:0:100:LR5_HiHat NSynth.wav
320,192,48765,128,0,49005:0:0:0:0:
64,192,49005,1,0,0:0:0:60:LR_CymbalSSD.wav
448,192,49005,1,0,0:0:0:100:LR5_HiHat NSynth.wav
64,192,49245,1,0,0:0:0:100:LR5_HiHat NSynth.wav
448,192,49245,1,0,0:0:0:0:
64,192,49485,1,0,0:0:0:70:LR4_KickGBDV.wav
192,192,49485,1,0,0:0:0:0:
320,192,49485,128,0,50445:0:0:0:0:
64,192,50445,1,0,0:0:0:60:LR_CymbalSSD.wav
448,192,50445,1,0,0:0:0:0:
64,192,50685,1,0,0:0:0:70:LR4_KickGBDV.wav
192,192,50685,1,0,0:0:0:0:
448,192,50925,1,0,0:0:0:0:
192,192,51165,1,0,0:0:0:0:
320,192,51405,128,0,51765:0:0:0:70:LR4_KickGBDV.wav
192,192,51765,128,0,52125:0:0:0:0:
64,192,52125,128,0,52365:0:0:0:70:LR4_KickGBDV.wav
448,192,52125,1,0,0:0:0:0:
320,192,52365,1,0,0:0:0:60:LR_CymbalSSD.wav
448,192,52365,128,0,52725:0:0:0:70:LR4_KickGBDV.wav
192,192,52725,128,0,53085:0:0:0:0:
320,192,53085,1,0,0:0:0:70:LR4_KickGBDV.wav
64,192,53325,128,0,54285:0:0:0:70:LR4_KickGBDV.wav
320,192,53325,1,0,0:0:0:0:
448,192,53805,128,0,54285:0:0:0:0:
192,192,54285,1,0,0:0:0:60:LR_CymbalSSD.wav
320,192,54285,1,0,0:0:0:70:LR4_KickGBDV.wav
320,192,54525,1,0,0:0:0:0:
192,192,54645,1,0,0:0:0:0:
320,192,54765,1,0,0:0:0:0:
64,192,55005,1,0,0:0:0:70:LR4_KickGBDV.wav
192,192,55005,1,0,0:0:0:0:
64,192,55245,128,0,55965:0:0:0:70:LR4_KickGBDV.wav
320,192,55245,1,0,0:0:0:0:
320,192,55965,1,0,0:0:0:70:LR4_KickGBDV.wav
448,192,55965,128,0,56685:0:0:0:0:
64,192,56685,1,0,0:0:0:50:LR_Tom Drop.wav
320,192,56805,1,0,0:0:0:50:LR_Tom Drop.wav
192,192,56925,1,0,0:0:0:50:LR_Tom Drop.wav
448,192,57045,1,0,0:0:0:50:LR_Tom Drop.wav
64,192,57165,128,0,58125:0:0:0:70:LR4_KickGBDV.wav
320,192,57165,1,0,0:0:0:0:
320,192,57885,128,0,58125:0:0:0:80:LR5_HiHat NSynth.wav
192,192,58125,1,0,0:0:0:60:LR_CymbalSSD.wav
448,192,58125,1,0,0:0:0:80:LR5_HiHat NSynth.wav
192,192,58365,1,0,0:0:0:70:LR4_KickGBDV.wav
320,192,58365,1,0,0:0:0:0:
64,192,58605,1,0,0:0:0:0:
448,192,58845,1,0,0:0:0:0:
192,192,59085,1,0,0:0:0:70:LR4_KickGBDV.wav
320,192,59085,128,0,59445:0:0:0:0:
64,192,59445,128,0,59805:0:0:0:0:
320,192,59805,1,0,0:0:0:70:LR4_KickGBDV.wav
448,192,59805,128,0,60045:0:0:0:0:
64,192,60045,1,0,0:0:0:60:LR_CymbalSSD.wav
192,192,60045,128,0,60405:0:0:0:70:LR4_KickGBDV.wav
320,192,60405,128,0,60765:0:0:0:0:
64,192,60765,1,0,0:0:0:70:LR4_KickGBDV.wav
64,192,61005,1,0,0:0:0:70:LR4_KickGBDV.wav
448,192,61005,128,0,61965:0:0:0:0:
64,192,61965,1,0,0:0:0:60:LR_CymbalSSD.wav
320,192,61965,1,0,0:0:0:70:LR4_KickGBDV.wav
192,192,62205,1,0,0:0:0:0:
320,192,62325,1,0,0:0:0:0:
192,192,62445,1,0,0:0:0:0:
192,192,62685,128,0,62925:0:0:0:50:LR_Tom Drop.wav
320,192,62925,1,0,0:0:0:70:LR4_KickGBDV.wav
448,192,62925,128,0,63645:0:0:0:0:
64,192,63645,128,0,64845:0:0:0:70:LR4_KickGBDV.wav
192,192,63645,1,0,0:0:0:0:
320,192,64845,1,0,0:0:0:100:LR_Chm Med.wav
448,192,64845,1,0,0:0:0:30:LR_CymbalSSD.wav
64,192,80205,5,0,0:0:0:40:LR_CymbalG.wav
448,192,80205,1,0,0:0:0:50:LR_Chm Med.wav
320,192,84045,1,0,0:0:0:50:LR_Chm Med.wav
64,192,87885,1,0,0:0:0:40:LR_CymbalG.wav
448,192,87885,1,0,0:0:0:50:LR_Chm Med.wav
192,192,91725,1,0,0:0:0:50:LR_Chm Med.wav
64,192,95565,128,0,99405:0:0:0:70:LR_Chm Med.wav
448,192,95565,1,0,0:0:0:50:LR5_HiHat NSynth.wav
320,192,99405,128,0,103245:0:0:0:70:LR_Chm Med.wav
64,192,103245,128,0,107085:0:0:0:70:LR_Chm Med.wav
448,192,107085,128,0,110925:0:0:0:70:LR_Chm Med.wav
192,192,109005,128,0,110925:0:0:0:0:
64,192,110925,1,0,0:0:0:50:LR2_KickBassFast2.wav
320,192,110925,1,0,0:0:0:30:LR_Tom Drop.wav
320,192,111405,1,0,0:0:0:50:LR2_KickBassFast2.wav
448,192,111405,1,0,0:0:0:20:LR_Hit Med Click.wav
64,192,111885,1,0,0:0:0:50:LR2_KickBassFast2.wav
192,192,111885,1,0,0:0:0:25:LR_Hit Med Click.wav
320,192,112365,1,0,0:0:0:50:LR2_KickBassFast2.wav
448,192,112365,1,0,0:0:0:25:LR_Hit Med Click.wav
64,192,112845,1,0,0:0:0:50:LR2_KickBassFast2.wav
448,192,112845,1,0,0:0:0:30:LR_Hit Med Click.wav
64,192,113325,1,0,0:0:0:50:LR2_KickBassFast2.wav
192,192,113325,1,0,0:0:0:30:LR_Hit Med Click.wav
320,192,113805,1,0,0:0:0:50:LR2_KickBassFast2.wav
448,192,113805,1,0,0:0:0:35:LR_Hit Med Click.wav
64,192,114285,1,0,0:0:0:50:LR2_KickBassFast2.wav
192,192,114285,1,0,0:0:0:35:LR_Hit Med Click.wav
192,192,114765,1,0,0:0:0:50:LR2_KickBassFast2.wav
320,192,114765,1,0,0:0:0:40:LR_Hit Med Click.wav
192,192,115245,1,0,0:0:0:50:LR2_KickBassFast2.wav
448,192,115245,1,0,0:0:0:40:LR_Hit Med Click.wav
64,192,115725,1,0,0:0:0:50:LR2_KickBassFast2.wav
448,192,115725,1,0,0:0:0:40:LR_Hit Med Click.wav
64,192,116205,1,0,0:0:0:50:LR2_KickBassFast2.wav
320,192,116205,1,0,0:0:0:45:LR_Hit Med Click.wav
192,192,116685,1,0,0:0:0:50:LR2_KickBassFast2.wav
320,192,116685,1,0,0:0:0:45:LR_Hit Med Click.wav
64,192,117165,1,0,0:0:0:50:LR2_KickBassFast2.wav
320,192,117165,1,0,0:0:0:50:LR_Hit Med Click.wav
64,192,117645,1,0,0:0:0:50:LR2_KickBassFast2.wav
448,192,117645,1,0,0:0:0:50:LR_Hit Med Click.wav
192,192,118125,1,0,0:0:0:50:LR2_KickBassFast2.wav
448,192,118125,1,0,0:0:0:50:LR_Hit Med Click.wav
64,192,118605,1,0,0:0:0:70:LR4_KickGBDV.wav
320,192,118605,1,0,0:0:0:100:LR_Hit Med Click.wav
64,192,118845,1,0,0:0:0:40:LR2_KickBassFast2.wav
192,192,118845,1,0,0:0:0:100:LR_Hit Med Click.wav
320,192,119085,1,0,0:0:0:70:LR4_KickGBDV.wav
448,192,119085,1,0,0:0:0:100:LR_Hit Med Click.wav
192,192,119325,1,0,0:0:0:40:LR2_KickBassFast2.wav
320,192,119325,1,0,0:0:0:100:LR_Hit Med Click.wav
64,192,119565,1,0,0:0:0:70:LR4_KickGBDV.wav
448,192,119565,1,0,0:0:0:100:LR_Hit Med Click.wav
320,192,119805,1,0,0:0:0:40:LR2_KickBassFast2.wav
448,192,119805,1,0,0:0:0:100:LR_Hit Med Click.wav
64,192,120045,1,0,0:0:0:70:LR4_KickGBDV.wav
192,192,120045,1,0,0:0:0:100:LR_Hit Med Click.wav
192,192,120285,1,0,0:0:0:40:LR2_KickBassFast2.wav
320,192,120285,1,0,0:0:0:100:LR_Hit Med Click.wav
64,192,120525,1,0,0:0:0:70:LR4_KickGBDV.wav
448,192,120525,1,0,0:0:0:100:LR_Hit Med Click.wav
64,192,120765,1,0,0:0:0:40:LR2_KickBassFast2.wav
448,192,120765,1,0,0:0:0:100:LR_Hit Med Click.wav
192,192,121005,1,0,0:0:0:70:LR4_KickGBDV.wav
320,192,121005,1,0,0:0:0:100:LR_Hit Med Click.wav
192,192,121245,1,0,0:0:0:40:LR2_KickBassFast2.wav
320,192,121245,1,0,0:0:0:100:LR_Hit Med Click.wav
64,192,121485,1,0,0:0:0:70:LR4_KickGBDV.wav
448,192,121485,1,0,0:0:0:100:LR_Hit Med Click.wav
64,192,121725,1,0,0:0:0:40:LR2_KickBassFast2.wav
448,192,121725,1,0,0:0:0:100:LR_Hit Med Click.wav
192,192,121965,1,0,0:0:0:70:LR4_KickGBDV.wav
320,192,121965,1,0,0:0:0:100:LR_Hit Med Click.wav
192,192,122205,1,0,0:0:0:40:LR2_KickBassFast2.wav
320,192,122205,1,0,0:0:0:100:LR_Hit Med Click.wav
64,192,122445,1,0,0:0:0:70:LR4_KickGBDV.wav
448,192,122445,1,0,0:0:0:100:LR_Hit Med Click.wav
192,192,122565,1,0,0:0:0:100:LR_Hit Med Click.wav
320,192,122685,1,0,0:0:0:100:LR_Hit Med Click.wav
192,192,122805,1,0,0:0:0:100:LR_Hit Med Click.wav
320,192,122925,1,0,0:0:0:70:LR4_KickGBDV.wav
448,192,122925,1,0,0:0:0:100:LR_Hit Med Click.wav
64,192,123045,1,0,0:0:0:100:LR_Hit Med Click.wav
448,192,123165,1,0,0:0:0:100:LR_Hit Med Click.wav
64,192,123285,1,0,0:0:0:100:LR_Hit Med Click.wav
192,192,123405,1,0,0:0:0:70:LR4_KickGBDV.wav
448,192,123405,1,0,0:0:0:100:LR_Hit Med Click.wav
320,192,123525,1,0,0:0:0:100:LR_Hit Med Click.wav
192,192,123645,1,0,0:0:0:100:LR_Hit Med Click.wav
448,192,123765,1,0,0:0:0:100:LR_Hit Med Click.wav
64,192,123885,1,0,0:0:0:70:LR4_KickGBDV.wav
320,192,123885,1,0,0:0:0:100:LR_Hit Med Click.wav
192,192,124005,1,0,0:0:0:100:LR_Hit Med Click.wav
320,192,124125,1,0,0:0:0:100:LR_Hit Med Click.wav
64,192,124245,1,0,0:0:0:100:LR_Hit Med Click.wav
320,192,124365,128,0,124845:0:0:0:70:LR4_KickGBDV.wav
448,192,124365,1,0,0:0:0:100:LR_Hit Med Click.wav
448,192,124605,1,0,0:0:0:0:
64,192,124845,1,0,0:0:0:70:LR4_KickGBDV.wav
192,192,124845,128,0,125325:0:0:0:100:LR_Hit Med Click.wav
64,192,125085,1,0,0:0:0:0:
320,192,125325,1,0,0:0:0:70:LR4_KickGBDV.wav
448,192,125325,128,0,125805:0:0:0:100:LR_Hit Med Click.wav
320,192,125565,1,0,0:0:0:0:
192,192,125805,1,0,0:0:0:70:LR4_KickGBDV.wav
320,192,125805,128,0,126285:0:0:0:100:LR_Hit Med Click.wav
192,192,126045,1,0,0:0:0:0:
64,192,126285,1,0,0:0:0:60:LR_CymbalG.wav
448,192,126285,1,0,0:0:0:80:LR4_KickGBDV.wav
320,192,127605,1,0,0:0:0:40:LR_Tom Drop.wav
64,192,127725,1,0,0:0:0:40:LR_Tom Drop.wav
448,192,127725,1,0,0:0:0:0:
320,192,127845,1,0,0:0:0:40:LR_Tom Drop.wav
64,192,127965,1,0,0:0:0:40:LR_Tom Drop.wav
64,192,128205,1,0,0:0:0:70:LR4_KickGBDV.wav
448,192,128205,1,0,0:0:0:0:
320,192,128445,128,0,128685:0:0:0:100:LR5_HiHat NSynth.wav
64,192,128685,1,0,0:0:0:60:LR_CymbalSSD.wav
192,192,128685,1,0,0:0:0:70:LR4_KickGBDV.wav
448,192,128925,128,0,129165:0:0:0:100:LR5_HiHat NSynth.wav
64,192,129165,1,0,0:0:0:70:LR4_KickGBDV.wav
320,192,129165,1,0,0:0:0:0:
192,192,129285,1,0,0:0:0:0:
448,192,129405,1,0,0:0:0:100:LR5_HiHat NSynth.wav
320,192,129525,1,0,0:0:0:0:
64,192,129645,1,0,0:0:0:60:LR_CymbalSSD.wav
448,192,129645,1,0,0:0:0:70:LR4_KickGBDV.wav
192,192,129765,1,0,0:0:0:0:
320,192,129885,1,0,0:0:0:100:LR5_HiHat NSynth.wav
192,192,130005,1,0,0:0:0:0:
64,192,130125,1,0,0:0:0:70:LR4_KickGBDV.wav
448,192,130125,1,0,0:0:0:0:
192,192,130365,128,0,130605:0:0:0:100:LR5_HiHat NSynth.wav
320,192,130605,1,0,0:0:0:60:LR_CymbalSSD.wav
448,192,130605,1,0,0:0:0:70:LR4_KickGBDV.wav
64,192,130845,128,0,131085:0:0:0:100:LR5_HiHat NSynth.wav
192,192,131085,1,0,0:0:0:70:LR4_KickGBDV.wav
448,192,131085,1,0,0:0:0:0:
320,192,131205,1,0,0:0:0:0:
192,192,131325,1,0,0:0:0:100:LR5_HiHat NSynth.wav
64,192,131445,1,0,0:0:0:0:
320,192,131565,1,0,0:0:0:60:LR_CymbalSSD.wav
448,192,131565,1,0,0:0:0:70:LR4_KickGBDV.wav
192,192,131685,1,0,0:0:0:0:
320,192,131805,1,0,0:0:0:100:LR5_HiHat NSynth.wav
192,192,131925,1,0,0:0:0:0:
64,192,132045,1,0,0:0:0:70:LR4_KickGBDV.wav
448,192,132045,1,0,0:0:0:0:
320,192,132285,128,0,132525:0:0:0:100:LR5_HiHat NSynth.wav
64,192,132525,1,0,0:0:0:60:LR_CymbalSSD.wav
448,192,132525,1,0,0:0:0:70:LR4_KickGBDV.wav
192,192,132765,128,0,133005:0:0:0:100:LR5_HiHat NSynth.wav
64,192,133005,1,0,0:0:0:70:LR4_KickGBDV.wav
448,192,133005,1,0,0:0:0:0:
320,192,133125,128,0,133245:0:0:0:0:
64,192,133245,1,0,0:0:0:100:LR5_HiHat NSynth.wav
192,192,133365,1,0,0:0:0:0:
320,192,133485,1,0,0:0:0:60:LR_CymbalSSD.wav
448,192,133485,1,0,0:0:0:70:LR4_KickGBDV.wav
64,192,133605,1,0,0:0:0:0:
320,192,133725,1,0,0:0:0:100:LR5_HiHat NSynth.wav
192,192,133845,1,0,0:0:0:0:
64,192,133965,1,0,0:0:0:70:LR4_KickGBDV.wav
448,192,133965,128,0,134205:0:0:0:0:
320,192,134205,128,0,134445:0:0:0:100:LR5_HiHat NSynth.wav
64,192,134445,128,0,134685:0:0:0:60:LR_CymbalSSD.wav
448,192,134445,1,0,0:0:0:70:LR4_KickGBDV.wav
192,192,134685,128,0,134925:0:0:0:100:LR5_HiHat NSynth.wav
64,192,134925,1,0,0:0:0:70:LR4_KickGBDV.wav
448,192,134925,1,0,0:0:0:0:
64,192,135165,128,0,135405:0:0:0:100:LR5_HiHat NSynth.wav
320,192,135405,1,0,0:0:0:60:LR_CymbalSSD.wav
448,192,135405,1,0,0:0:0:70:LR4_KickGBDV.wav
192,192,135645,128,0,135885:0:0:0:0:
320,192,135645,128,0,135885:0:0:0:0:
64,192,135885,1,0,0:0:0:70:LR4_KickGBDV.wav
448,192,136125,128,0,136365:0:0:0:100:LR5_HiHat NSynth.wav
64,192,136365,1,0,0:0:0:60:LR_CymbalSSD.wav
320,192,136365,1,0,0:0:0:70:LR4_KickGBDV.wav
192,192,136605,128,0,136845:0:0:0:100:LR5_HiHat NSynth.wav
64,192,136845,1,0,0:0:0:70:LR4_KickGBDV.wav
448,192,136845,1,0,0:0:0:0:
320,192,136965,1,0,0:0:0:0:
192,192,137085,1,0,0:0:0:100:LR5_HiHat NSynth.wav
320,192,137205,1,0,0:0:0:0:
64,192,137325,1,0,0:0:0:60:LR_CymbalSSD.wav
448,192,137325,1,0,0:0:0:70:LR4_KickGBDV.wav
192,192,137445,1,0,0:0:0:0:
448,192,137565,1,0,0:0:0:100:LR5_HiHat NSynth.wav
320,192,137685,1,0,0:0:0:0:
64,192,137805,1,0,0:0:0:70:LR4_KickGBDV.wav
192,192,137805,1,0,0:0:0:0:
448,192,138045,128,0,138285:0:0:0:100:LR5_HiHat NSynth.wav
64,192,138285,1,0,0:0:0:60:LR_CymbalSSD.wav
192,192,138285,1,0,0:0:0:70:LR4_KickGBDV.wav
64,192,138525,128,0,138765:0:0:0:100:LR5_HiHat NSynth.wav
320,192,138765,1,0,0:0:0:70:LR4_KickGBDV.wav
448,192,138765,1,0,0:0:0:0:
192,192,138885,1,0,0:0:0:0:
448,192,139005,1,0,0:0:0:100:LR5_HiHat NSynth.wav
320,192,139125,1,0,0:0:0:0:
64,192,139245,1,0,0:0:0:60:LR_CymbalSSD.wav
192,192,139245,1,0,0:0:0:70:LR4_KickGBDV.wav
448,192,139365,1,0,0:0:0:0:
192,192,139485,1,0,0:0:0:100:LR5_HiHat NSynth.wav
320,192,139605,1,0,0:0:0:0:
64,192,139725,1,0,0:0:0:70:LR4_KickGBDV.wav
448,192,139725,1,0,0:0:0:0:
192,192,139965,128,0,140205:0:0:0:100:LR5_HiHat NSynth.wav
320,192,140205,1,0,0:0:0:60:LR_CymbalSSD.wav
448,192,140205,1,0,0:0:0:70:LR4_KickGBDV.wav
320,192,140445,128,0,140685:0:0:0:100:LR5_HiHat NSynth.wav
192,192,140685,1,0,0:0:0:70:LR4_KickGBDV.wav
448,192,140685,1,0,0:0:0:0:
64,192,140805,128,0,140925:0:0:0:0:
320,192,140925,1,0,0:0:0:100:LR5_HiHat NSynth.wav
192,192,141045,1,0,0:0:0:0:
64,192,141165,1,0,0:0:0:60:LR_CymbalSSD.wav
448,192,141165,1,0,0:0:0:70:LR4_KickGBDV.wav
320,192,141285,1,0,0:0:0:0:
192,192,141405,1,0,0:0:0:100:LR5_HiHat NSynth.wav
448,192,141525,1,0,0:0:0:0:
64,192,141645,1,0,0:0:0:70:LR4_KickGBDV.wav
192,192,141645,128,0,141885:0:0:0:0:
64,192,141885,128,0,142125:0:0:0:100:LR5_HiHat NSynth.wav
320,192,142125,128,0,142365:0:0:0:60:LR_CymbalSSD.wav
448,192,142125,1,0,0:0:0:70:LR4_KickGBDV.wav
448,192,142365,128,0,142605:0:0:0:100:LR5_HiHat NSynth.wav
64,192,142605,1,0,0:0:0:70:LR4_KickGBDV.wav
192,192,142605,128,0,142845:0:0:0:0:
320,192,142845,128,0,143085:0:0:0:100:LR5_HiHat NSynth.wav
448,192,142845,128,0,143085:0:0:0:0:
64,192,143085,1,0,0:0:0:60:LR_CymbalSSD.wav
192,192,143085,1,0,0:0:0:100:LR5_HiHat NSynth.wav
192,192,143325,1,0,0:0:0:100:LR5_HiHat NSynth.wav
320,192,143325,1,0,0:0:0:0:
64,192,143565,1,0,0:0:0:70:LR4_KickGBDV.wav
448,192,143565,128,0,144525:0:0:0:0:
64,192,144525,1,0,0:0:0:60:LR_CymbalSSD.wav
192,192,144525,1,0,0:0:0:0:
320,192,144765,1,0,0:0:0:70:LR4_KickGBDV.wav
448,192,144765,1,0,0:0:0:0:
448,192,145005,1,0,0:0:0:0:
64,192,145245,1,0,0:0:0:0:
64,192,145485,1,0,0:0:0:70:LR4_KickGBDV.wav
192,192,145485,128,0,145845:0:0:0:0:
448,192,145845,128,0,146205:0:0:0:0:
64,192,146205,128,0,146445:0:0:0:70:LR4_KickGBDV.wav
192,192,146205,1,0,0:0:0:0:
320,192,146445,1,0,0:0:0:60:LR_CymbalSSD.wav
448,192,146445,128,0,146805:0:0:0:70:LR4_KickGBDV.wav
192,192,146805,128,0,147165:0:0:0:0:
320,192,147165,1,0,0:0:0:70:LR4_KickGBDV.wav
192,192,147405,128,0,148365:0:0:0:70:LR4_KickGBDV.wav
320,192,147405,1,0,0:0:0:0:
64,192,148365,1,0,0:0:0:60:LR_CymbalSSD.wav
448,192,148365,1,0,0:0:0:70:LR4_KickGBDV.wav
320,192,148605,1,0,0:0:0:0:
192,192,148725,1,0,0:0:0:0:
320,192,148845,1,0,0:0:0:0:
64,192,149085,1,0,0:0:0:70:LR4_KickGBDV.wav
448,192,149085,1,0,0:0:0:0:
64,192,149325,128,0,150045:0:0:0:70:LR4_KickGBDV.wav
192,192,149325,1,0,0:0:0:0:
320,192,150045,1,0,0:0:0:70:LR4_KickGBDV.wav
448,192,150045,128,0,150765:0:0:0:0:
192,192,150765,1,0,0:0:0:50:LR_Tom Drop.wav
320,192,150885,1,0,0:0:0:50:LR_Tom Drop.wav
64,192,151005,1,0,0:0:0:50:LR_Tom Drop.wav
192,192,151125,1,0,0:0:0:50:LR_Tom Drop.wav
320,192,151245,1,0,0:0:0:70:LR4_KickGBDV.wav
448,192,151245,128,0,152205:0:0:0:0:
64,192,151965,128,0,152205:0:0:0:80:LR5_HiHat NSynth.wav
192,192,152205,1,0,0:0:0:60:LR_CymbalSSD.wav
320,192,152205,1,0,0:0:0:80:LR5_HiHat NSynth.wav
64,192,152445,1,0,0:0:0:70:LR4_KickGBDV.wav
448,192,152445,1,0,0:0:0:0:
320,192,152565,1,0,0:0:0:0:
192,192,152685,1,0,0:0:0:0:
64,192,152925,1,0,0:0:0:0:
64,192,153165,1,0,0:0:0:70:LR4_KickGBDV.wav
320,192,153165,128,0,153525:0:0:0:0:
192,192,153525,128,0,153885:0:0:0:0:
64,192,153885,128,0,154125:0:0:0:70:LR4_KickGBDV.wav
448,192,153885,1,0,0:0:0:0:
192,192,154125,1,0,0:0:0:60:LR_CymbalSSD.wav
320,192,154125,128,0,154485:0:0:0:70:LR4_KickGBDV.wav
192,192,154485,128,0,154845:0:0:0:0:
320,192,154845,1,0,0:0:0:70:LR4_KickGBDV.wav
64,192,155085,128,0,156045:0:0:0:70:LR4_KickGBDV.wav
320,192,155085,1,0,0:0:0:0:
320,192,156045,1,0,0:0:0:60:LR_CymbalSSD.wav
448,192,156045,1,0,0:0:0:70:LR4_KickGBDV.wav
192,192,156285,1,0,0:0:0:0:
320,192,156405,1,0,0:0:0:0:
192,192,156525,1,0,0:0:0:0:
192,192,156765,128,0,157005:0:0:0:50:LR_Tom Drop.wav
64,192,157005,1,0,0:0:0:70:LR4_KickGBDV.wav
448,192,157005,128,0,157725:0:0:0:0:
64,192,157725,128,0,158925:0:0:0:70:LR4_KickGBDV.wav
192,192,157725,1,0,0:0:0:0:
320,192,158925,1,0,0:0:0:70:LR2_KickBassFast2.wav
192,192,159045,1,0,0:0:0:0:
448,192,159165,1,0,0:0:0:0:
320,192,159285,1,0,0:0:0:0:
64,192,159405,1,0,0:0:0:0:
192,192,159525,1,0,0:0:0:0:
320,192,159645,1,0,0:0:0:0:
448,192,159765,1,0,0:0:0:0:
64,192,159885,1,0,0:0:0:60:LR_CymbalSSD.wav
192,192,159885,1,0,0:0:0:70:LR2_KickBassFast2.wav
320,192,160005,1,0,0:0:0:0:
320,192,160245,1,0,0:0:0:0:
192,192,160365,1,0,0:0:0:0:
448,192,160605,1,0,0:0:0:0:
64,192,160845,1,0,0:0:0:0:
192,192,160965,1,0,0:0:0:0:
448,192,161085,1,0,0:0:0:0:
320,192,161205,1,0,0:0:0:0:
64,192,161325,1,0,0:0:0:70:LR2_KickBassFast2.wav
192,192,161325,1,0,0:0:0:0:
448,192,161445,1,0,0:0:0:0:
192,192,161565,1,0,0:0:0:0:
320,192,161685,1,0,0:0:0:0:
64,192,161805,1,0,0:0:0:60:LR_CymbalSSD.wav
448,192,161805,1,0,0:0:0:70:LR2_KickBassFast2.wav
192,192,161925,1,0,0:0:0:0:
320,192,162045,1,0,0:0:0:70:LR2_KickBassFast2.wav
448,192,162045,1,0,0:0:0:0:
192,192,162165,1,0,0:0:0:0:
448,192,162285,1,0,0:0:0:0:
64,192,162525,1,0,0:0:0:0:
320,192,162765,1,0,0:0:0:70:LR2_KickBassFast2.wav
448,192,162765,1,0,0:0:0:0:
192,192,162885,1,0,0:0:0:0:
64,192,163005,1,0,0:0:0:0:
448,192,163125,1,0,0:0:0:0:
192,192,163245,1,0,0:0:0:0:
320,192,163365,1,0,0:0:0:0:
448,192,163485,1,0,0:0:0:0:
64,192,163605,1,0,0:0:0:0:
192,192,163725,1,0,0:0:0:60:LR_CymbalSSD.wav
320,192,163725,1,0,0:0:0:70:LR2_KickBassFast2.wav
448,192,163845,1,0,0:0:0:0:
64,192,164085,1,0,0:0:0:0:
448,192,164205,1,0,0:0:0:0:
192,192,164445,1,0,0:0:0:0:
448,192,164685,1,0,0:0:0:0:
320,192,164805,1,0,0:0:0:0:
64,192,164925,1,0,0:0:0:0:
192,192,165045,1,0,0:0:0:0:
64,192,165165,1,0,0:0:0:70:LR2_KickBassFast2.wav
320,192,165165,1,0,0:0:0:0:
448,192,165285,1,0,0:0:0:0:
192,192,165405,1,0,0:0:0:0:
320,192,165525,1,0,0:0:0:0:
64,192,165645,1,0,0:0:0:60:LR_CymbalSSD.wav
192,192,165645,1,0,0:0:0:70:LR2_KickBassFast2.wav
448,192,165765,1,0,0:0:0:0:
64,192,165885,1,0,0:0:0:70:LR2_KickBassFast2.wav
192,192,165885,1,0,0:0:0:0:
320,192,166005,1,0,0:0:0:0:
448,192,166125,1,0,0:0:0:0:
64,192,166365,1,0,0:0:0:0:
320,192,166605,1,0,0:0:0:70:LR2_KickBassFast2.wav
448,192,166605,1,0,0:0:0:0:
192,192,166725,1,0,0:0:0:0:
64,192,166845,1,0,0:0:0:0:
320,192,166965,1,0,0:0:0:0:
192,192,167085,1,0,0:0:0:0:
448,192,167205,1,0,0:0:0:0:
192,192,167325,1,0,0:0:0:0:
320,192,167445,1,0,0:0:0:0:
64,192,167565,1,0,0:0:0:60:LR_CymbalSSD.wav
192,192,167565,1,0,0:0:0:70:LR2_KickBassFast2.wav
448,192,167685,1,0,0:0:0:0:
192,192,167925,1,0,0:0:0:0:
448,192,168045,1,0,0:0:0:0:
320,192,168285,1,0,0:0:0:0:
192,192,168525,1,0,0:0:0:0:
64,192,168645,1,0,0:0:0:0:
448,192,168765,1,0,0:0:0:0:
320,192,168885,1,0,0:0:0:0:
64,192,169005,1,0,0:0:0:70:LR2_KickBassFast2.wav
448,192,169005,1,0,0:0:0:0:
192,192,169125,1,0,0:0:0:0:
320,192,169245,1,0,0:0:0:0:
448,192,169365,1,0,0:0:0:0:
64,192,169485,1,0,0:0:0:60:LR_CymbalSSD.wav
192,192,169485,1,0,0:0:0:70:LR2_KickBassFast2.wav
320,192,169605,1,0,0:0:0:0:
64,192,169725,1,0,0:0:0:70:LR2_KickBassFast2.wav
192,192,169725,1,0,0:0:0:0:
320,192,169845,1,0,0:0:0:0:
448,192,169965,1,0,0:0:0:0:
192,192,170205,1,0,0:0:0:0:
64,192,170445,1,0,0:0:0:70:LR2_KickBassFast2.wav
448,192,170445,1,0,0:0:0:0:
320,192,170565,1,0,0:0:0:0:
192,192,170685,1,0,0:0:0:0:
64,192,170805,1,0,0:0:0:0:
320,192,170925,1,0,0:0:0:0:
448,192,171045,1,0,0:0:0:0:
64,192,171165,1,0,0:0:0:0:
192,192,171285,1,0,0:0:0:0:
320,192,171405,1,0,0:0:0:60:LR_CymbalSSD.wav
448,192,171405,1,0,0:0:0:70:LR2_KickBassFast2.wav
64,192,171525,1,0,0:0:0:0:
320,192,171765,1,0,0:0:0:0:
64,192,171885,1,0,0:0:0:0:
448,192,172125,1,0,0:0:0:0:
192,192,172365,1,0,0:0:0:0:
320,192,172485,1,0,0:0:0:0:
64,192,172605,1,0,0:0:0:0:
192,192,172725,1,0,0:0:0:0:
320,192,172845,1,0,0:0:0:70:LR2_KickBassFast2.wav
448,192,172845,1,0,0:0:0:0:
64,192,172965,1,0,0:0:0:0:
192,192,173085,1,0,0:0:0:0:
448,192,173205,1,0,0:0:0:0:
64,192,173325,1,0,0:0:0:60:LR_CymbalSSD.wav
320,192,173325,1,0,0:0:0:70:LR2_KickBassFast2.wav
192,192,173445,1,0,0:0:0:0:
320,192,173565,1,0,0:0:0:70:LR2_KickBassFast2.wav
448,192,173565,1,0,0:0:0:0:
64,192,173685,1,0,0:0:0:0:
320,192,173805,1,0,0:0:0:0:
192,192,174045,1,0,0:0:0:0:
64,192,174285,1,0,0:0:0:70:LR_CymbalG.wav
192,192,174285,1,0,0:0:0:70:LR2_KickBassFast2.wav
448,192,174285,1,0,0:0:0:60:LR_CymbalSSD.wav
