osu file format v14

[General]
AudioFilename: audio.mp3
AudioLeadIn: 0
PreviewTime: 34065
Countdown: 0
SampleSet: Soft
StackLeniency: 0.7
Mode: 3
LetterboxInBreaks: 0
SpecialStyle: 0
WidescreenStoryboard: 0

[Editor]
DistanceSpacing: 2
BeatDivisor: 8
GridSize: 16
TimelineZoom: 2.4

[Metadata]
Title:Lost (feat. Savoi) [Sunroof Remix]
TitleUnicode:Lost (feat. Savoi) [Sunroof Remix]
Artist:Kontinuum
ArtistUnicode:Kontinuum
Creator:Dreamwalker
Version:Fontes' Insane
Source:
Tags:Fontes Lastopia Otakujanai NoCopyrightSounds NCS house
BeatmapID:1315763
BeatmapSetID:624059

[Difficulty]
HPDrainRate:8
CircleSize:4
OverallDifficulty:7.5
ApproachRate:5
SliderMultiplier:1.4
SliderTickRate:1

[Events]
//Background and Video events
0,0,"lost.jpg",0,0
//Break Periods
2,65045,79005
//Storyboard Layer 0 (Background)
//Storyboard Layer 1 (Fail)
//Storyboard Layer 2 (Pass)
//Storyboard Layer 3 (Foreground)
//Storyboard Sound Samples
Sample,32205,0,"LR_Hit Med Click.wav",100
Sample,64845,0,"LR_CymbalSSD.wav",30
Sample,64845,0,"LR4_KickGBDV.wav",50
Sample,87885,0,"LR2_KickBassFast2.wav",50
Sample,126285,0,"LR_Hit Med Click.wav",100
Sample,174285,0,"LR_CymbalSSD.wav",60

[TimingPoints]
1485,480,4,2,1,40,1,0
13005,-50,4,2,1,40,0,0
13045,-125,4,2,1,40,0,0
13245,-100,4,2,1,40,0,0
13725,-50,4,2,1,40,0,0
13765,-125,4,2,1,40,0,0
13965,-100,4,2,1,40,0,0
14445,-50,4,2,1,40,0,0
14485,-125,4,2,1,40,0,0
14685,-100,4,2,1,40,0,0
15165,-50,4,2,1,40,0,0
15205,-125,4,2,1,40,0,0
16845,-100,4,2,1,40,0,0
32205,-1000,4,2,1,40,0,0
33165,-909.090909090909,4,2,1,40,0,0
33176,-780.487804878049,4,2,1,40,0,0
33187,-640,4,2,1,40,0,0
33198,-542.372881355932,4,2,1,40,0,0
33210,-470.588235294118,4,2,1,40,0,0
33221,-415.584415584416,4,2,1,40,0,0
33232,-372.093023255814,4,2,1,40,0,0
33243,-336.842105263158,4,2,1,40,0,0
33255,-307.692307692308,4,2,1,40,0,0
33266,-283.185840707965,4,2,1,40,0,0
33277,-262.295081967213,4,2,1,40,0,0
33288,-244.274809160305,4,2,1,40,0,0
33300,-228.571428571429,4,2,1,40,0,0
33311,-214.765100671141,4,2,1,40,0,0
33322,-202.53164556962,4,2,1,40,0,0
33333,-191.616766467066,4,2,1,40,0,0
33345,-181.818181818182,4,2,1,40,0,0
33356,-172.972972972973,4,2,1,40,0,0
33367,-164.948453608247,4,2,1,40,0,0
33378,-157.635467980296,4,2,1,40,0,0
33390,-150.943396226415,4,2,1,40,0,0
33401,-144.796380090498,4,2,1,40,0,0
33412,-139.130434782609,4,2,1,40,0,0
33423,-133.891213389121,4,2,1,40,0,0
33435,-129.032258064516,4,2,1,40,0,0
33446,-124.513618677043,4,2,1,40,0,0
33457,-120.300751879699,4,2,1,40,0,0
33468,-116.363636363636,4,2,1,40,0,0
33480,-112.676056338028,4,2,1,40,0,0
33491,-109.215017064846,4,2,1,40,0,0
33502,-105.960264900662,4,2,1,40,0,0
33513,-102.893890675241,4,2,1,40,0,0
33525,-100,4,2,1,40,0,0
34125,-133.333333333333,4,2,1,40,0,1
34485,-64.5161290322581,4,2,1,40,0,1
34605,-133.333333333333,4,2,1,40,0,1
34965,-64.5161290322581,4,2,1,40,0,1
35085,-100,4,2,1,40,0,1
36045,-133.333333333333,4,2,1,40,0,1
36405,-64.5161290322581,4,2,1,40,0,1
36525,-133.333333333333,4,2,1,40,0,1
36885,-64.5161290322581,4,2,1,40,0,1
37005,-100,4,2,1,40,0,1
37965,-133.333333333333,4,2,1,40,0,1
38325,-64.5161290322581,4,2,1,40,0,1
38445,-133.333333333333,4,2,1,40,0,1
38805,-64.5161290322581,4,2,1,40,0,1
38925,-100,4,2,1,40,0,1
39885,-52.6315789473684,4,2,1,40,0,1
39915,-1000,4,2,1,40,0,1
39945,-52.6315789473684,4,2,1,40,0,1
39975,-1000,4,2,1,40,0,1
40005,-52.6315789473684,4,2,1,40,0,1
40035,-1000,4,2,1,40,0,1
40065,-52.6315789473684,4,2,1,40,0,1
40095,-1000,4,2,1,40,0,1
40125,-125,4,2,1,40,0,1
40305,-100,4,2,1,40,0,1
40365,-52.6315789473684,4,2,1,40,0,1
40395,-1000,4,2,1,40,0,1
40425,-52.6315789473684,4,2,1,40,0,1
40455,-1000,4,2,1,40,0,1
40485,-52.6315789473684,4,2,1,40,0,1
40515,-1000,4,2,1,40,0,1
40545,-52.6315789473684,4,2,1,40,0,1
40575,-1000,4,2,1,40,0,1
40605,-125,4,2,1,40,0,1
40785,-62.5,4,2,1,40,0,1
40845,-125,4,2,1,40,0,1
41025,-62.5,4,2,1,40,0,1
41085,-125,4,2,1,40,0,1
41265,-62.5,4,2,1,40,0,1
41325,-71.4285714285714,4,2,1,40,0,1
41655,-142.857142857143,4,2,1,40,0,1
41775,-100,4,2,1,40,0,1
41805,-133.333333333333,4,2,1,40,0,1
42165,-64.5161290322581,4,2,1,40,0,1
42285,-133.333333333333,4,2,1,40,0,1
42645,-64.5161290322581,4,2,1,40,0,1
42765,-100,4,2,1,40,0,1
43725,-133.333333333333,4,2,1,40,0,1
44085,-64.5161290322581,4,2,1,40,0,1
44205,-133.333333333333,4,2,1,40,0,1
44565,-64.5161290322581,4,2,1,40,0,1
44685,-100,4,2,1,40,0,1
45645,-133.333333333333,4,2,1,40,0,1
46005,-64.5161290322581,4,2,1,40,0,1
46125,-133.333333333333,4,2,1,40,0,1
46485,-64.5161290322581,4,2,1,40,0,1
46605,-100,4,2,1,40,0,1
47565,-52.6315789473684,4,2,1,40,0,1
47595,-1000,4,2,1,40,0,1
47625,-52.6315789473684,4,2,1,40,0,1
47655,-1000,4,2,1,40,0,1
47685,-52.6315789473684,4,2,1,40,0,1
47715,-1000,4,2,1,40,0,1
47745,-52.6315789473684,4,2,1,40,0,1
47775,-1000,4,2,1,40,0,1
47805,-125,4,2,1,40,0,1
47985,-100,4,2,1,40,0,1
48045,-52.6315789473684,4,2,1,40,0,1
48075,-1000,4,2,1,40,0,1
48105,-52.6315789473684,4,2,1,40,0,1
48135,-1000,4,2,1,40,0,1
48165,-52.6315789473684,4,2,1,40,0,1
48195,-1000,4,2,1,40,0,1
48225,-52.6315789473684,4,2,1,40,0,1
48255,-1000,4,2,1,40,0,1
48285,-125,4,2,1,40,0,1
48525,-100,4,2,1,40,0,1
49485,-62.5,4,2,1,40,0,0
50085,-83.3333333333333,4,2,1,40,0,0
50205,-125,4,2,1,40,0,0
50445,-100,4,2,1,40,0,0
51405,-125,4,2,1,40,0,0
51705,-66.6666666666667,4,2,1,40,0,0
51765,-125,4,2,1,40,0,0
52065,-66.6666666666667,4,2,1,40,0,0
52125,-125,4,2,1,40,0,0
52305,-66.6666666666667,4,2,1,40,0,0
52365,-125,4,2,1,40,0,0
52665,-66.6666666666667,4,2,1,40,0,0
52725,-125,4,2,1,40,0,0
53025,-66.6666666666667,4,2,1,40,0,0
53085,-125,4,2,1,40,0,0
53265,-100,4,2,1,40,0,0
53325,-52.6315789473684,4,2,1,40,0,0
53355,-1000,4,2,1,40,0,0
53385,-52.6315789473684,4,2,1,40,0,0
53415,-1000,4,2,1,40,0,0
53445,-52.6315789473684,4,2,1,40,0,0
53475,-1000,4,2,1,40,0,0
53505,-52.6315789473684,4,2,1,40,0,0
53535,-1000,4,2,1,40,0,0
53565,-52.6315789473684,4,2,1,40,0,0
53595,-1000,4,2,1,40,0,0
53625,-52.6315789473684,4,2,1,40,0,0
53655,-1000,4,2,1,40,0,0
53685,-52.6315789473684,4,2,1,40,0,0
53715,-1000,4,2,1,40,0,0
53745,-52.6315789473684,4,2,1,40,0,0
53775,-1000,4,2,1,40,0,0
53805,-52.6315789473684,4,2,1,40,0,0
53835,-1000,4,2,1,40,0,0
53865,-52.6315789473684,4,2,1,40,0,0
53895,-1000,4,2,1,40,0,0
53925,-52.6315789473684,4,2,1,40,0,0
53955,-1000,4,2,1,40,0,0
53985,-52.6315789473684,4,2,1,40,0,0
54015,-1000,4,2,1,40,0,0
54045,-52.6315789473684,4,2,1,40,0,0
54075,-1000,4,2,1,40,0,0
54105,-52.6315789473684,4,2,1,40,0,0
54135,-1000,4,2,1,40,0,0
54165,-52.6315789473684,4,2,1,40,0,0
54195,-1000,4,2,1,40,0,0
54225,-52.6315789473684,4,2,1,40,0,0
54255,-1000,4,2,1,40,0,0
54285,-100,4,2,1,40,0,0
55245,-125,4,2,1,40,0,0
55905,-66.6666666666667,4,2,1,40,0,0
55965,-125,4,2,1,40,0,0
56445,-100,4,2,1,40,0,0
57165,-52.6315789473684,4,2,1,40,0,0
57195,-1000,4,2,1,40,0,0
57225,-52.6315789473684,4,2,1,40,0,0
57255,-1000,4,2,1,40,0,0
57285,-52.6315789473684,4,2,1,40,0,0
57315,-1000,4,2,1,40,0,0
57345,-52.6315789473684,4,2,1,40,0,0
57375,-1000,4,2,1,40,0,0
57405,-52.6315789473684,4,2,1,40,0,0
57435,-1000,4,2,1,40,0,0
57465,-52.6315789473684,4,2,1,40,0,0
57495,-1000,4,2,1,40,0,0
57525,-52.6315789473684,4,2,1,40,0,0
57555,-1000,4,2,1,40,0,0
57585,-52.6315789473684,4,2,1,40,0,0
57615,-1000,4,2,1,40,0,0
57645,-52.6315789473684,4,2,1,40,0,0
57675,-1000,4,2,1,40,0,0
57705,-52.6315789473684,4,2,1,40,0,0
57735,-1000,4,2,1,40,0,0
57765,-52.6315789473684,4,2,1,40,0,0
57795,-1000,4,2,1,40,0,0
57825,-52.6315789473684,4,2,1,40,0,0
57855,-1000,4,2,1,40,0,0
57885,-58.8235294117647,4,2,1,40,0,0
57925,-333.333333333333,4,2,1,40,0,0
57965,-58.8235294117647,4,2,1,40,0,0
58005,-333.333333333333,4,2,1,40,0,0
58045,-58.8235294117647,4,2,1,40,0,0
58085,-333.333333333333,4,2,1,40,0,0
58125,-100,4,2,1,40,0,0
59085,-125,4,2,1,40,0,0
59385,-66.6666666666667,4,2,1,40,0,0
59445,-125,4,2,1,40,0,0
59745,-66.6666666666667,4,2,1,40,0,0
59805,-125,4,2,1,40,0,0
59985,-66.6666666666667,4,2,1,40,0,0
60045,-125,4,2,1,40,0,0
60345,-66.6666666666667,4,2,1,40,0,0
60405,-125,4,2,1,40,0,0
60705,-66.6666666666667,4,2,1,40,0,0
60765,-125,4,2,1,40,0,0
60945,-100,4,2,1,40,0,0
61005,-52.6315789473684,4,2,1,40,0,0
61035,-1000,4,2,1,40,0,0
61065,-52.6315789473684,4,2,1,40,0,0
61095,-1000,4,2,1,40,0,0
61125,-52.6315789473684,4,2,1,40,0,0
61155,-1000,4,2,1,40,0,0
61185,-52.6315789473684,4,2,1,40,0,0
61215,-1000,4,2,1,40,0,0
61245,-52.6315789473684,4,2,1,40,0,0
61275,-1000,4,2,1,40,0,0
61305,-52.6315789473684,4,2,1,40,0,0
61335,-1000,4,2,1,40,0,0
61365,-52.6315789473684,4,2,1,40,0,0
61395,-1000,4,2,1,40,0,0
61425,-52.6315789473684,4,2,1,40,0,0
61455,-1000,4,2,1,40,0,0
61485,-52.6315789473684,4,2,1,40,0,0
61515,-1000,4,2,1,40,0,0
61545,-52.6315789473684,4,2,1,40,0,0
61575,-1000,4,2,1,40,0,0
61605,-52.6315789473684,4,2,1,40,0,0
61635,-1000,4,2,1,40,0,0
61665,-52.6315789473684,4,2,1,40,0,0
61695,-1000,4,2,1,40,0,0
61725,-52.6315789473684,4,2,1,40,0,0
61755,-1000,4,2,1,40,0,0
61785,-52.6315789473684,4,2,1,40,0,0
61815,-1000,4,2,1,40,0,0
61845,-52.6315789473684,4,2,1,40,0,0
61875,-1000,4,2,1,40,0,0
61905,-52.6315789473684,4,2,1,40,0,0
61935,-1000,4,2,1,40,0,0
61965,-100,4,2,1,40,0,0
62925,-125,4,2,1,40,0,0
63585,-66.6666666666667,4,2,1,40,0,0
63645,-125,4,2,1,40,0,0
64845,-200,4,2,1,40,0,0
78285,-117.647058823529,4,2,1,40,0,0
95565,-100,4,2,1,40,0,0
126285,-1000,4,2,1,40,0,0
127245,-909.090909090909,4,2,1,40,0,0
127256,-780.487804878049,4,2,1,40,0,0
127267,-640,4,2,1,40,0,0
127278,-542.372881355932,4,2,1,40,0,0
127290,-470.588235294118,4,2,1,40,0,0
127301,-415.584415584416,4,2,1,40,0,0
127312,-372.093023255814,4,2,1,40,0,0
127323,-336.842105263158,4,2,1,40,0,0
127335,-307.692307692308,4,2,1,40,0,0
127346,-283.185840707965,4,2,1,40,0,0
127357,-262.295081967213,4,2,1,40,0,0
127368,-244.274809160305,4,2,1,40,0,0
127380,-228.571428571429,4,2,1,40,0,0
127391,-214.765100671141,4,2,1,40,0,0
127402,-202.53164556962,4,2,1,40,0,0
127413,-191.616766467066,4,2,1,40,0,0
127425,-181.818181818182,4,2,1,40,0,0
127436,-172.972972972973,4,2,1,40,0,0
127447,-164.948453608247,4,2,1,40,0,0
127458,-157.635467980296,4,2,1,40,0,0
127470,-150.943396226415,4,2,1,40,0,0
127481,-144.796380090498,4,2,1,40,0,0
127492,-139.130434782609,4,2,1,40,0,0
127503,-133.891213389121,4,2,1,40,0,0
127515,-129.032258064516,4,2,1,40,0,0
127526,-124.513618677043,4,2,1,40,0,0
127537,-120.300751879699,4,2,1,40,0,0
127548,-116.363636363636,4,2,1,40,0,0
127560,-112.676056338028,4,2,1,40,0,0
127571,-109.215017064846,4,2,1,40,0,0
127582,-105.960264900662,4,2,1,40,0,0
127593,-102.893890675241,4,2,1,40,0,0
127605,-100,4,2,1,40,0,0
128205,-133.333333333333,4,2,1,40,0,1
128565,-64.5161290322581,4,2,1,40,0,1
128685,-133.333333333333,4,2,1,40,0,1
129045,-64.5161290322581,4,2,1,40,0,1
129165,-100,4,2,1,40,0,1
130125,-133.333333333333,4,2,1,40,0,1
130485,-64.5161290322581,4,2,1,40,0,1
130605,-133.333333333333,4,2,1,40,0,1
130965,-64.5161290322581,4,2,1,40,0,1
131085,-100,4,2,1,40,0,1
132045,-133.333333333333,4,2,1,40,0,1
132405,-64.5161290322581,4,2,1,40,0,1
132525,-133.333333333333,4,2,1,40,0,1
132885,-64.5161290322581,4,2,1,40,0,1
133005,-100,4,2,1,40,0,1
133965,-52.6315789473684,4,2,1,40,0,1
133995,-1000,4,2,1,40,0,1
134025,-52.6315789473684,4,2,1,40,0,1
134055,-1000,4,2,1,40,0,1
134085,-52.6315789473684,4,2,1,40,0,1
134115,-1000,4,2,1,40,0,1
134145,-52.6315789473684,4,2,1,40,0,1
134175,-1000,4,2,1,40,0,1
134205,-125,4,2,1,40,0,1
134385,-100,4,2,1,40,0,1
134445,-52.6315789473684,4,2,1,40,0,1
134475,-1000,4,2,1,40,0,1
134505,-52.6315789473684,4,2,1,40,0,1
134535,-1000,4,2,1,40,0,1
134565,-52.6315789473684,4,2,1,40,0,1
134595,-1000,4,2,1,40,0,1
134625,-52.6315789473684,4,2,1,40,0,1
134655,-1000,4,2,1,40,0,1
134685,-125,4,2,1,40,0,1
134865,-62.5,4,2,1,40,0,1
134925,-125,4,2,1,40,0,1
135105,-62.5,4,2,1,40,0,1
135165,-125,4,2,1,40,0,1
135345,-66.6666666666667,4,2,1,40,0,1
135405,-71.4285714285714,4,2,1,40,0,1
135735,-142.857142857143,4,2,1,40,0,1
135855,-100,4,2,1,40,0,1
135885,-133.333333333333,4,2,1,40,0,1
136245,-64.5161290322581,4,2,1,40,0,1
136365,-133.333333333333,4,2,1,40,0,1
136725,-64.5161290322581,4,2,1,40,0,1
136845,-100,4,2,1,40,0,1
137805,-133.333333333333,4,2,1,40,0,1
138165,-64.5161290322581,4,2,1,40,0,1
138285,-133.333333333333,4,2,1,40,0,1
138645,-64.5161290322581,4,2,1,40,0,1
138765,-100,4,2,1,40,0,1
139725,-133.333333333333,4,2,1,40,0,1
140085,-64.5161290322581,4,2,1,40,0,1
140205,-133.333333333333,4,2,1,40,0,1
140565,-64.5161290322581,4,2,1,40,0,1
140685,-100,4,2,1,40,0,1
141645,-52.6315789473684,4,2,1,40,0,1
141675,-1000,4,2,1,40,0,1
141705,-52.6315789473684,4,2,1,40,0,1
141735,-1000,4,2,1,40,0,1
141765,-52.6315789473684,4,2,1,40,0,1
141795,-1000,4,2,1,40,0,1
141825,-52.6315789473684,4,2,1,40,0,1
141855,-1000,4,2,1,40,0,1
141885,-125,4,2,1,40,0,1
142065,-100,4,2,1,40,0,1
142125,-52.6315789473684,4,2,1,40,0,1
142155,-1000,4,2,1,40,0,1
142185,-52.6315789473684,4,2,1,40,0,1
142215,-1000,4,2,1,40,0,1
142245,-52.6315789473684,4,2,1,40,0,1
142275,-1000,4,2,1,40,0,1
142305,-52.6315789473684,4,2,1,40,0,1
142335,-1000,4,2,1,40,0,1
142365,-125,4,2,1,40,0,1
142605,-100,4,2,1,40,0,1
143565,-62.5,4,2,1,40,0,0
144165,-83.3333333333333,4,2,1,40,0,0
144285,-125,4,2,1,40,0,0
144525,-100,4,2,1,40,0,0
145485,-125,4,2,1,40,0,0
145785,-66.6666666666667,4,2,1,40,0,0
145845,-125,4,2,1,40,0,0
146145,-66.6666666666667,4,2,1,40,0,0
146205,-125,4,2,1,40,0,0
146385,-66.6666666666667,4,2,1,40,0,0
146445,-125,4,2,1,40,0,0
146745,-66.6666666666667,4,2,1,40,0,0
146805,-125,4,2,1,40,0,0
147105,-66.6666666666667,4,2,1,40,0,0
147165,-125,4,2,1,40,0,0
147345,-100,4,2,1,40,0,0
147405,-52.6315789473684,4,2,1,40,0,0
147435,-1000,4,2,1,40,0,0
147465,-52.6315789473684,4,2,1,40,0,0
147495,-1000,4,2,1,40,0,0
147525,-52.6315789473684,4,2,1,40,0,0
147555,-1000,4,2,1,40,0,0
147585,-52.6315789473684,4,2,1,40,0,0
147615,-1000,4,2,1,40,0,0
147645,-52.6315789473684,4,2,1,40,0,0
147675,-1000,4,2,1,40,0,0
147705,-52.6315789473684,4,2,1,40,0,0
147735,-1000,4,2,1,40,0,0
147765,-52.6315789473684,4,2,1,40,0,0
147795,-1000,4,2,1,40,0,0
147825,-52.6315789473684,4,2,1,40,0,0
147855,-1000,4,2,1,40,0,0
147885,-52.6315789473684,4,2,1,40,0,0
147915,-1000,4,2,1,40,0,0
147945,-52.6315789473684,4,2,1,40,0,0
147975,-1000,4,2,1,40,0,0
148005,-52.6315789473684,4,2,1,40,0,0
148035,-1000,4,2,1,40,0,0
148065,-52.6315789473684,4,2,1,40,0,0
148095,-1000,4,2,1,40,0,0
148125,-52.6315789473684,4,2,1,40,0,0
148155,-1000,4,2,1,40,0,0
148185,-52.6315789473684,4,2,1,40,0,0
148215,-1000,4,2,1,40,0,0
148245,-52.6315789473684,4,2,1,40,0,0
148275,-1000,4,2,1,40,0,0
148305,-52.6315789473684,4,2,1,40,0,0
148335,-1000,4,2,1,40,0,0
148365,-100,4,2,1,40,0,0
149325,-125,4,2,1,40,0,0
149985,-66.6666666666667,4,2,1,40,0,0
150045,-125,4,2,1,40,0,0
150525,-100,4,2,1,40,0,0
151245,-52.6315789473684,4,2,1,40,0,0
151275,-1000,4,2,1,40,0,0
151305,-52.6315789473684,4,2,1,40,0,0
151335,-1000,4,2,1,40,0,0
151365,-52.6315789473684,4,2,1,40,0,0
151395,-1000,4,2,1,40,0,0
151425,-52.6315789473684,4,2,1,40,0,0
151455,-1000,4,2,1,40,0,0
151485,-52.6315789473684,4,2,1,40,0,0
151515,-1000,4,2,1,40,0,0
151545,-52.6315789473684,4,2,1,40,0,0
151575,-1000,4,2,1,40,0,0
151605,-52.6315789473684,4,2,1,40,0,0
151635,-1000,4,2,1,40,0,0
151665,-52.6315789473684,4,2,1,40,0,0
151695,-1000,4,2,1,40,0,0
151725,-52.6315789473684,4,2,1,40,0,0
151755,-1000,4,2,1,40,0,0
151785,-52.6315789473684,4,2,1,40,0,0
151815,-1000,4,2,1,40,0,0
151845,-52.6315789473684,4,2,1,40,0,0
151875,-1000,4,2,1,40,0,0
151905,-52.6315789473684,4,2,1,40,0,0
151935,-1000,4,2,1,40,0,0
151965,-58.8235294117647,4,2,1,40,0,0
152005,-333.333333333333,4,2,1,40,0,0
152045,-58.8235294117647,4,2,1,40,0,0
152085,-333.333333333333,4,2,1,40,0,0
152125,-58.8235294117647,4,2,1,40,0,0
152165,-333.333333333333,4,2,1,40,0,0
152205,-100,4,2,1,40,0,0
153165,-125,4,2,1,40,0,0
153465,-66.6666666666667,4,2,1,40,0,0
153525,-125,4,2,1,40,0,0
153825,-66.6666666666667,4,2,1,40,0,0
153885,-125,4,2,1,40,0,0
154065,-66.6666666666667,4,2,1,40,0,0
154125,-125,4,2,1,40,0,0
154425,-66.6666666666667,4,2,1,40,0,0
154485,-125,4,2,1,40,0,0
154785,-66.6666666666667,4,2,1,40,0,0
154845,-125,4,2,1,40,0,0
155025,-100,4,2,1,40,0,0
155085,-52.6315789473684,4,2,1,40,0,0
155115,-1000,4,2,1,40,0,0
155145,-52.6315789473684,4,2,1,40,0,0
155175,-1000,4,2,1,40,0,0
155205,-52.6315789473684,4,2,1,40,0,0
155235,-1000,4,2,1,40,0,0
155265,-52.6315789473684,4,2,1,40,0,0
155295,-1000,4,2,1,40,0,0
155325,-52.6315789473684,4,2,1,40,0,0
155355,-1000,4,2,1,40,0,0
155385,-52.6315789473684,4,2,1,40,0,0
155415,-1000,4,2,1,40,0,0
155445,-52.6315789473684,4,2,1,40,0,0
155475,-1000,4,2,1,40,0,0
155505,-52.6315789473684,4,2,1,40,0,0
155535,-1000,4,2,1,40,0,0
155565,-52.6315789473684,4,2,1,40,0,0
155595,-1000,4,2,1,40,0,0
155625,-52.6315789473684,4,2,1,40,0,0
155655,-1000,4,2,1,40,0,0
155685,-52.6315789473684,4,2,1,40,0,0
155715,-1000,4,2,1,40,0,0
155745,-52.6315789473684,4,2,1,40,0,0
155775,-1000,4,2,1,40,0,0
155805,-52.6315789473684,4,2,1,40,0,0
155835,-1000,4,2,1,40,0,0
155865,-52.6315789473684,4,2,1,40,0,0
155895,-1000,4,2,1,40,0,0
155925,-52.6315789473684,4,2,1,40,0,0
155955,-1000,4,2,1,40,0,0
155985,-52.6315789473684,4,2,1,40,0,0
156015,-1000,4,2,1,40,0,0
156045,-100,4,2,1,40,0,0
157005,-125,4,2,1,40,0,0
157665,-66.6666666666667,4,2,1,40,0,0
157725,-125,4,2,1,40,0,0
158865,-66.6666666666667,4,2,1,40,0,0
158925,-52.6315789473684,4,2,1,40,0,0
158955,-1000,4,2,1,40,0,0
158985,-52.6315789473684,4,2,1,40,0,0
159015,-1000,4,2,1,40,0,0
159045,-52.6315789473684,4,2,1,40,0,0
159075,-1000,4,2,1,40,0,0
159105,-52.6315789473684,4,2,1,40,0,0
159135,-1000,4,2,1,40,0,0
159165,-52.6315789473684,4,2,1,40,0,0
159195,-1000,4,2,1,40,0,0
159225,-52.6315789473684,4,2,1,40,0,0
159255,-1000,4,2,1,40,0,0
159285,-52.6315789473684,4,2,1,40,0,0
159315,-1000,4,2,1,40,0,0
159345,-52.6315789473684,4,2,1,40,0,0
159375,-1000,4,2,1,40,0,0
159405,-52.6315789473684,4,2,1,40,0,0
159435,-1000,4,2,1,40,0,0
159465,-52.6315789473684,4,2,1,40,0,0
159495,-1000,4,2,1,40,0,0
159525,-52.6315789473684,4,2,1,40,0,0
159555,-1000,4,2,1,40,0,0
159585,-52.6315789473684,4,2,1,40,0,0
159615,-1000,4,2,1,40,0,0
159645,-52.6315789473684,4,2,1,40,0,0
159675,-1000,4,2,1,40,0,0
159705,-52.6315789473684,4,2,1,40,0,0
159735,-1000,4,2,1,40,0,0
159765,-52.6315789473684,4,2,1,40,0,0
159795,-1000,4,2,1,40,0,0
159825,-52.6315789473684,4,2,1,40,0,0
159855,-1000,4,2,1,40,0,0
159885,-100,4,2,1,40,0,0
161325,-125,4,2,1,40,0,0
161745,-66.6666666666667,4,2,1,40,0,0
161805,-100,4,2,1,40,0,0
162045,-125,4,2,1,40,0,0
162525,-200,4,2,1,40,0,0
162645,-66.6666666666667,4,2,1,40,0,0
162765,-52.6315789473684,4,2,1,40,0,0
162795,-1000,4,2,1,40,0,0
162825,-52.6315789473684,4,2,1,40,0,0
162855,-1000,4,2,1,40,0,0
162885,-52.6315789473684,4,2,1,40,0,0
162915,-1000,4,2,1,40,0,0
162945,-52.6315789473684,4,2,1,40,0,0
162975,-1000,4,2,1,40,0,0
163005,-52.6315789473684,4,2,1,40,0,0
163035,-1000,4,2,1,40,0,0
163065,-52.6315789473684,4,2,1,40,0,0
163095,-1000,4,2,1,40,0,0
163125,-52.6315789473684,4,2,1,40,0,0
163155,-1000,4,2,1,40,0,0
163185,-52.6315789473684,4,2,1,40,0,0
163215,-1000,4,2,1,40,0,0
163245,-52.6315789473684,4,2,1,40,0,0
163275,-1000,4,2,1,40,0,0
163305,-52.6315789473684,4,2,1,40,0,0
163335,-1000,4,2,1,40,0,0
163365,-52.6315789473684,4,2,1,40,0,0
163395,-1000,4,2,1,40,0,0
163425,-52.6315789473684,4,2,1,40,0,0
163455,-1000,4,2,1,40,0,0
163485,-52.6315789473684,4,2,1,40,0,0
163515,-1000,4,2,1,40,0,0
163545,-52.6315789473684,4,2,1,40,0,0
163575,-1000,4,2,1,40,0,0
163605,-52.6315789473684,4,2,1,40,0,0
163635,-1000,4,2,1,40,0,0
163665,-52.6315789473684,4,2,1,40,0,0
163695,-1000,4,2,1,40,0,0
163725,-100,4,2,1,40,0,0
165165,-125,4,2,1,40,0,0
165585,-66.6666666666667,4,2,1,40,0,0
165645,-100,4,2,1,40,0,0
165885,-125,4,2,1,40,0,0
166365,-200,4,2,1,40,0,0
166485,-66.6666666666667,4,2,1,40,0,0
166605,-52.6315789473684,4,2,1,40,0,0
166635,-1000,4,2,1,40,0,0
166665,-52.6315789473684,4,2,1,40,0,0
166695,-1000,4,2,1,40,0,0
166725,-52.6315789473684,4,2,1,40,0,0
166755,-1000,4,2,1,40,0,0
166785,-52.6315789473684,4,2,1,40,0,0
166815,-1000,4,2,1,40,0,0
166845,-52.6315789473684,4,2,1,40,0,0
166875,-1000,4,2,1,40,0,0
166905,-52.6315789473684,4,2,1,40,0,0
166935,-1000,4,2,1,40,0,0
166965,-52.6315789473684,4,2,1,40,0,0
166995,-1000,4,2,1,40,0,0
167025,-52.6315789473684,4,2,1,40,0,0
167055,-1000,4,2,1,40,0,0
167085,-52.6315789473684,4,2,1,40,0,0
167115,-1000,4,2,1,40,0,0
167145,-52.6315789473684,4,2,1,40,0,0
167175,-1000,4,2,1,40,0,0
167205,-52.6315789473684,4,2,1,40,0,0
167235,-1000,4,2,1,40,0,0
167265,-52.6315789473684,4,2,1,40,0,0
167295,-1000,4,2,1,40,0,0
167325,-52.6315789473684,4,2,1,40,0,0
167355,-1000,4,2,1,40,0,0
167385,-52.6315789473684,4,2,1,40,0,0
167415,-1000,4,2,1,40,0,0
167445,-52.6315789473684,4,2,1,40,0,0
167475,-1000,4,2,1,40,0,0
167505,-52.6315789473684,4,2,1,40,0,0
167535,-1000,4,2,1,40,0,0
167565,-100,4,2,1,40,0,0
169005,-125,4,2,1,40,0,0
169425,-66.6666666666667,4,2,1,40,0,0
169485,-100,4,2,1,40,0,0
169725,-125,4,2,1,40,0,0
170205,-200,4,2,1,40,0,0
170325,-66.6666666666667,4,2,1,40,0,0
170445,-52.6315789473684,4,2,1,40,0,0
170475,-1000,4,2,1,40,0,0
170505,-52.6315789473684,4,2,1,40,0,0
170535,-1000,4,2,1,40,0,0
170565,-52.6315789473684,4,2,1,40,0,0
170595,-1000,4,2,1,40,0,0
170625,-52.6315789473684,4,2,1,40,0,0
170655,-1000,4,2,1,40,0,0
170685,-52.6315789473684,4,2,1,40,0,0
170715,-1000,4,2,1,40,0,0
170745,-52.6315789473684,4,2,1,40,0,0
170775,-1000,4,2,1,40,0,0
170805,-52.6315789473684,4,2,1,40,0,0
170835,-1000,4,2,1,40,0,0
170865,-52.6315789473684,4,2,1,40,0,0
170895,-1000,4,2,1,40,0,0
170925,-52.6315789473684,4,2,1,40,0,0
170955,-1000,4,2,1,40,0,0
170985,-52.6315789473684,4,2,1,40,0,0
171015,-1000,4,2,1,40,0,0
171045,-52.6315789473684,4,2,1,40,0,0
171075,-1000,4,2,1,40,0,0
171105,-52.6315789473684,4,2,1,40,0,0
171135,-1000,4,2,1,40,0,0
171165,-52.6315789473684,4,2,1,40,0,0
171195,-1000,4,2,1,40,0,0
171225,-52.6315789473684,4,2,1,40,0,0
171255,-1000,4,2,1,40,0,0
171285,-52.6315789473684,4,2,1,40,0,0
171315,-1000,4,2,1,40,0,0
171345,-52.6315789473684,4,2,1,40,0,0
171375,-1000,4,2,1,40,0,0
171405,-100,4,2,1,40,0,0
172845,-125,4,2,1,40,0,0
173265,-66.6666666666667,4,2,1,40,0,0
173325,-100,4,2,1,40,0,0
173565,-125,4,2,1,40,0,0

[HitObjects]
64,192,1485,5,0,0:0:0:70:LR4_KickGBDV.wav
192,192,1485,1,0,0:0:0:0:
320,192,1485,1,0,0:0:0:0:
448,192,1485,128,0,3405:0:0:0:0:
64,192,3405,128,0,5325:0:0:0:40:LR2_KickBassFast2.wav
192,192,3405,1,0,0:0:0:0:
320,192,3405,1,0,0:0:0:0:
192,192,5325,1,0,0:0:0:40:LR2_KickBassFast2.wav
320,192,5325,128,0,7245:0:0:0:0:
448,192,5325,1,0,0:0:0:0:
64,192,7245,1,0,0:0:0:40:LR2_KickBassFast2.wav
192,192,7245,128,0,9165:0:0:0:0:
448,192,7245,1,0,0:0:0:0:
448,192,8085,128,0,8205:0:0:0:0:
448,192,8565,128,0,8685:0:0:0:0:
64,192,9165,1,0,0:0:0:30:LR_CymbalG.wav
320,192,9165,1,0,0:0:0:40:LR2_KickBassFast2.wav
448,192,9165,1,0,0:0:0:0:
192,192,9285,1,0,0:0:0:0:
320,192,9405,1,0,0:0:0:0:
64,192,9525,1,0,0:0:0:0:
448,192,9645,1,0,0:0:0:0:
320,192,9765,1,0,0:0:0:0:
192,192,9885,1,0,0:0:0:0:
448,192,10005,1,0,0:0:0:0:
64,192,10125,1,0,0:0:0:0:
192,192,10245,1,0,0:0:0:0:
320,192,10365,1,0,0:0:0:0:
64,192,10485,1,0,0:0:0:0:
448,192,10605,1,0,0:0:0:0:
320,192,10725,1,0,0:0:0:0:
192,192,10845,1,0,0:0:0:0:
64,192,10965,1,0,0:0:0:0:
192,192,11085,1,0,0:0:0:30:LR_CymbalG.wav
320,192,11085,1,0,0:0:0:40:LR2_KickBassFast2.wav
448,192,11085,128,0,12765:0:0:0:0:
64,192,12765,128,0,13005:0:0:0:0:
192,192,13005,1,0,0:0:0:60:LR_CymbalG.wav
320,192,13005,1,0,0:0:0:70:LR4_KickGBDV.wav
448,192,13005,1,0,0:0:0:70:LR_Hit Med Click.wav
64,192,13245,1,0,0:0:0:0:
448,192,13245,1,0,0:0:0:0:
192,192,13485,1,0,0:0:0:70:LR_Hit Med Click.wav
320,192,13485,1,0,0:0:0:0:
64,192,13725,1,0,0:0:0:60:LR_CymbalG.wav
192,192,13725,1,0,0:0:0:70:LR4_KickGBDV.wav
320,192,13725,1,0,0:0:0:70:LR_Hit Med Click.wav
448,192,13725,1,0,0:0:0:0:
192,192,13965,1,0,0:0:0:0:
320,192,13965,1,0,0:0:0:0:
64,192,14205,1,0,0:0:0:70:LR_Hit Med Click.wav
192,192,14205,1,0,0:0:0:0:
320,192,14325,1,0,0:0:0:70:LR_Hit Med Click.wav
448,192,14325,1,0,0:0:0:0:
64,192,14445,1,0,0:0:0:60:LR_CymbalG.wav
192,192,14445,1,0,0:0:0:70:LR4_KickGBDV.wav
320,192,14445,1,0,0:0:0:70:LR_Hit Med Click.wav
448,192,14445,1,0,0:0:0:0:
192,192,14685,1,0,0:0:0:70:LR_Hit Med Click.wav
320,192,14685,1,0,0:0:0:0:
64,192,14925,1,0,0:0:0:70:LR_Hit Med Click.wav
448,192,14925,1,0,0:0:0:0:
64,192,15165,1,0,0:0:0:60:LR_CymbalG.wav
192,192,15165,1,0,0:0:0:70:LR4_KickGBDV.wav
320,192,15165,128,0,16845:0:0:0:70:LR_Hit Med Click.wav
448,192,15165,1,0,0:0:0:0:
64,192,16845,1,0,0:0:0:50:LR2_KickBassFast2.wav
192,192,16845,1,0,0:0:0:30:LR_Tom Drop.wav
64,192,17325,1,0,0:0:0:50:LR2_KickBassFast2.wav
192,192,17325,1,0,0:0:0:20:LR_Hit Med Click.wav
64,192,17805,1,0,0:0:0:50:LR2_KickBassFast2.wav
192,192,17805,1,0,0:0:0:25:LR_Hit Med Click.wav
64,192,18285,1,0,0:0:0:50:LR2_KickBassFast2.wav
192,192,18285,1,0,0:0:0:25:LR_Hit Med Click.wav
448,192,18405,1,0,0:0:0:25:LR_Hit Med Click.wav
320,192,18525,1,0,0:0:0:25:LR_Hit Med Click.wav
192,192,18645,1,0,0:0:0:25:LR_Hit Med Click.wav
64,192,18765,1,0,0:0:0:50:LR2_KickBassFast2.wav
448,192,18765,1,0,0:0:0:30:LR_Hit Med Click.wav
320,192,18885,1,0,0:0:0:30:LR_Hit Med Click.wav
64,192,19005,1,0,0:0:0:30:LR_Hit Med Click.wav
192,192,19125,1,0,0:0:0:30:LR_Hit Med Click.wav
320,192,19245,1,0,0:0:0:50:LR2_KickBassFast2.wav
448,192,19245,1,0,0:0:0:30:LR_Hit Med Click.wav
192,192,19365,1,0,0:0:0:30:LR_Hit Med Click.wav
64,192,19485,1,0,0:0:0:30:LR_Hit Med Click.wav
448,192,19605,1,0,0:0:0:30:LR_Hit Med Click.wav
64,192,19725,1,0,0:0:0:50:LR2_KickBassFast2.wav
320,192,19725,1,0,0:0:0:35:LR_Hit Med Click.wav
192,192,19845,1,0,0:0:0:35:LR_Hit Med Click.wav
448,192,19965,1,0,0:0:0:35:LR_Hit Med Click.wav
320,192,20085,1,0,0:0:0:35:LR_Hit Med Click.wav
64,192,20205,1,0,0:0:0:50:LR2_KickBassFast2.wav
192,192,20205,1,0,0:0:0:35:LR_Hit Med Click.wav
448,192,20325,1,0,0:0:0:35:LR_Hit Med Click.wav
64,192,20445,1,0,0:0:0:35:LR_Hit Med Click.wav
192,192,20565,1,0,0:0:0:35:LR_Hit Med Click.wav
320,192,20685,1,0,0:0:0:50:LR2_KickBassFast2.wav
448,192,20685,1,0,0:0:0:40:LR_Hit Med Click.wav
320,192,20925,1,0,0:0:0:40:LR_Hit Med Click.wav
192,192,21045,1,0,0:0:0:40:LR_Hit Med Click.wav
64,192,21165,1,0,0:0:0:50:LR2_KickBassFast2.wav
448,192,21165,1,0,0:0:0:40:LR_Hit Med Click.wav
192,192,21405,1,0,0:0:0:40:LR_Hit Med Click.wav
320,192,21525,1,0,0:0:0:40:LR_Hit Med Click.wav
64,192,21645,1,0,0:0:0:50:LR2_KickBassFast2.wav
448,192,21645,1,0,0:0:0:40:LR_Hit Med Click.wav
192,192,21765,1,0,0:0:0:40:LR_Hit Med Click.wav
320,192,21885,1,0,0:0:0:40:LR_Hit Med Click.wav
448,192,22005,1,0,0:0:0:40:LR_Hit Med Click.wav
64,192,22125,1,0,0:0:0:50:LR2_KickBassFast2.wav
192,192,22125,1,0,0:0:0:45:LR_Hit Med Click.wav
320,192,22245,1,0,0:0:0:45:LR_Hit Med Click.wav
192,192,22365,1,0,0:0:0:45:LR_Hit Med Click.wav
320,192,22485,1,0,0:0:0:45:LR_Hit Med Click.wav
64,192,22605,1,0,0:0:0:50:LR2_KickBassFast2.wav
448,192,22605,1,0,0:0:0:45:LR_Hit Med Click.wav
192,192,22725,1,0,0:0:0:45:LR_Hit Med Click.wav
320,192,22845,1,0,0:0:0:45:LR_Hit Med Click.wav
192,192,22965,1,0,0:0:0:45:LR_Hit Med Click.wav
64,192,23085,1,0,0:0:0:50:LR2_KickBassFast2.wav
448,192,23085,1,0,0:0:0:50:LR_Hit Med Click.wav
320,192,23205,1,0,0:0:0:50:LR_Hit Med Click.wav
192,192,23325,1,0,0:0:0:50:LR_Hit Med Click.wav
320,192,23445,1,0,0:0:0:50:LR_Hit Med Click.wav
64,192,23565,1,0,0:0:0:50:LR2_KickBassFast2.wav
448,192,23565,1,0,0:0:0:50:LR_Hit Med Click.wav
192,192,23685,1,0,0:0:0:50:LR_Hit Med Click.wav
320,192,23805,1,0,0:0:0:50:LR_Hit Med Click.wav
192,192,23925,1,0,0:0:0:50:LR_Hit Med Click.wav
64,192,24045,1,0,0:0:0:50:LR2_KickBassFast2.wav
448,192,24045,1,0,0:0:0:50:LR_Hit Med Click.wav
320,192,24165,1,0,0:0:0:50:LR_Hit Med Click.wav
192,192,24285,1,0,0:0:0:50:LR_Hit Med Click.wav
64,192,24405,1,0,0:0:0:50:LR_Hit Med Click.wav
192,192,24525,1,0,0:0:0:70:LR4_KickGBDV.wav
320,192,24525,1,0,0:0:0:100:LR_Hit Med Click.wav
448,192,24525,1,0,0:0:0:0:
448,192,24645,1,0,0:0:0:100:LR_Hit Med Click.wav
64,192,24765,1,0,0:0:0:40:LR2_KickBassFast2.wav
192,192,24765,1,0,0:0:0:100:LR_Hit Med Click.wav
320,192,24765,1,0,0:0:0:0:
64,192,24885,1,0,0:0:0:100:LR_Hit Med Click.wav
192,192,25005,1,0,0:0:0:70:LR4_KickGBDV.wav
320,192,25005,1,0,0:0:0:100:LR_Hit Med Click.wav
448,192,25005,1,0,0:0:0:0:
320,192,25125,1,0,0:0:0:100:LR_Hit Med Click.wav
64,192,25245,1,0,0:0:0:40:LR2_KickBassFast2.wav
192,192,25245,1,0,0:0:0:100:LR_Hit Med Click.wav
448,192,25245,1,0,0:0:0:0:
192,192,25365,1,0,0:0:0:100:LR_Hit Med Click.wav
64,192,25485,1,0,0:0:0:70:LR4_KickGBDV.wav
320,192,25485,1,0,0:0:0:100:LR_Hit Med Click.wav
448,192,25485,1,0,0:0:0:0:
448,192,25605,1,0,0:0:0:100:LR_Hit Med Click.wav
64,192,25725,1,0,0:0:0:40:LR2_KickBassFast2.wav
192,192,25725,1,0,0:0:0:100:LR_Hit Med Click.wav
320,192,25725,1,0,0:0:0:0:
64,192,25845,1,0,0:0:0:100:LR_Hit Med Click.wav
192,192,25965,1,0,0:0:0:70:LR4_KickGBDV.wav
320,192,25965,1,0,0:0:0:100:LR_Hit Med Click.wav
448,192,25965,1,0,0:0:0:0:
320,192,26085,1,0,0:0:0:100:LR_Hit Med Click.wav
64,192,26205,1,0,0:0:0:40:LR2_KickBassFast2.wav
192,192,26205,1,0,0:0:0:100:LR_Hit Med Click.wav
448,192,26205,1,0,0:0:0:0:
192,192,26325,1,0,0:0:0:100:LR_Hit Med Click.wav
64,192,26445,1,0,0:0:0:70:LR4_KickGBDV.wav
320,192,26445,1,0,0:0:0:100:LR_Hit Med Click.wav
448,192,26445,1,0,0:0:0:0:
448,192,26565,1,0,0:0:0:100:LR_Hit Med Click.wav
64,192,26685,1,0,0:0:0:40:LR2_KickBassFast2.wav
192,192,26685,1,0,0:0:0:100:LR_Hit Med Click.wav
320,192,26685,1,0,0:0:0:0:
320,192,26805,1,0,0:0:0:100:LR_Hit Med Click.wav
64,192,26925,1,0,0:0:0:70:LR4_KickGBDV.wav
192,192,26925,1,0,0:0:0:100:LR_Hit Med Click.wav
448,192,26925,1,0,0:0:0:0:
64,192,27045,1,0,0:0:0:100:LR_Hit Med Click.wav
192,192,27165,1,0,0:0:0:40:LR2_KickBassFast2.wav
320,192,27165,1,0,0:0:0:100:LR_Hit Med Click.wav
448,192,27165,1,0,0:0:0:0:
192,192,27285,1,0,0:0:0:100:LR_Hit Med Click.wav
64,192,27405,1,0,0:0:0:70:LR4_KickGBDV.wav
320,192,27405,1,0,0:0:0:100:LR_Hit Med Click.wav
448,192,27405,1,0,0:0:0:0:
448,192,27525,1,0,0:0:0:100:LR_Hit Med Click.wav
64,192,27645,1,0,0:0:0:40:LR2_KickBassFast2.wav
192,192,27645,1,0,0:0:0:100:LR_Hit Med Click.wav
320,192,27645,1,0,0:0:0:0:
64,192,27765,1,0,0:0:0:100:LR_Hit Med Click.wav
192,192,27885,1,0,0:0:0:70:LR4_KickGBDV.wav
320,192,27885,1,0,0:0:0:100:LR_Hit Med Click.wav
448,192,27885,1,0,0:0:0:0:
320,192,28005,1,0,0:0:0:100:LR_Hit Med Click.wav
64,192,28125,1,0,0:0:0:40:LR2_KickBassFast2.wav
448,192,28125,1,0,0:0:0:100:LR_Hit Med Click.wav
192,192,28185,1,0,0:0:0:100:LR_Hit Med Click.wav
320,192,28245,1,0,0:0:0:100:LR_Hit Med Click.wav
448,192,28305,1,0,0:0:0:100:LR_Hit Med Click.wav
64,192,28365,1,0,0:0:0:70:LR4_KickGBDV.wav
192,192,28365,1,0,0:0:0:100:LR_Hit Med Click.wav
64,192,28485,1,0,0:0:0:100:LR_Hit Med Click.wav
192,192,28485,1,0,0:0:0:0:
320,192,28605,1,0,0:0:0:100:LR_Hit Med Click.wav
448,192,28605,1,0,0:0:0:0:
320,192,28725,1,0,0:0:0:100:LR_Hit Med Click.wav
448,192,28725,1,0,0:0:0:0:
64,192,28845,1,0,0:0:0:70:LR4_KickGBDV.wav
192,192,28845,1,0,0:0:0:100:LR_Hit Med Click.wav
64,192,28965,1,0,0:0:0:100:LR_Hit Med Click.wav
192,192,28965,1,0,0:0:0:0:
320,192,29085,1,0,0:0:0:100:LR_Hit Med Click.wav
448,192,29085,1,0,0:0:0:0:
320,192,29205,1,0,0:0:0:100:LR_Hit Med Click.wav
448,192,29205,1,0,0:0:0:0:
64,192,29325,1,0,0:0:0:70:LR4_KickGBDV.wav
448,192,29325,1,0,0:0:0:100:LR_Hit Med Click.wav
192,192,29445,1,0,0:0:0:100:LR_Hit Med Click.wav
320,192,29445,1,0,0:0:0:0:
64,192,29565,1,0,0:0:0:100:LR_Hit Med Click.wav
192,192,29565,1,0,0:0:0:0:
320,192,29685,1,0,0:0:0:100:LR_Hit Med Click.wav
448,192,29685,1,0,0:0:0:0:
64,192,29805,1,0,0:0:0:70:LR4_KickGBDV.wav
448,192,29805,1,0,0:0:0:100:LR_Hit Med Click.wav
192,192,29925,1,0,0:0:0:100:LR_Hit Med Click.wav
320,192,29925,1,0,0:0:0:0:
64,192,30045,1,0,0:0:0:100:LR_Hit Med Click.wav
192,192,30045,1,0,0:0:0:0:
320,192,30165,1,0,0:0:0:100:LR_Hit Med Click.wav
448,192,30165,1,0,0:0:0:0:
64,192,30285,1,0,0:0:0:70:LR4_KickGBDV.wav
448,192,30285,1,0,0:0:0:100:LR_Hit Med Click.wav
192,192,30345,1,0,0:0:0:100:LR_Hit Med Click.wav
320,192,30405,1,0,0:0:0:100:LR_Hit Med Click.wav
448,192,30465,1,0,0:0:0:100:LR_Hit Med Click.wav
192,192,30525,1,0,0:0:0:100:LR_Hit Med Click.wav
64,192,30585,1,0,0:0:0:100:LR_Hit Med Click.wav
448,192,30645,1,0,0:0:0:100:LR_Hit Med Click.wav
320,192,30705,1,0,0:0:0:100:LR_Hit Med Click.wav
64,192,30765,1,0,0:0:0:70:LR4_KickGBDV.wav
192,192,30765,1,0,0:0:0:100:LR_Hit Med Click.wav
320,192,30825,1,0,0:0:0:100:LR_Hit Med Click.wav
448,192,30885,1,0,0:0:0:100:LR_Hit Med Click.wav
64,192,30945,1,0,0:0:0:100:LR_Hit Med Click.wav
192,192,31005,1,0,0:0:0:100:LR_Hit Med Click.wav
320,192,31065,1,0,0:0:0:100:LR_Hit Med Click.wav
448,192,31125,1,0,0:0:0:100:LR_Hit Med Click.wav
64,192,31185,1,0,0:0:0:100:LR_Hit Med Click.wav
192,192,31245,1,0,0:0:0:70:LR4_KickGBDV.wav
320,192,31245,1,0,0:0:0:100:LR_Hit Med Click.wav
448,192,31305,1,0,0:0:0:100:LR_Hit Med Click.wav
64,192,31365,1,0,0:0:0:100:LR_Hit Med Click.wav
192,192,31425,1,0,0:0:0:100:LR_Hit Med Click.wav
448,192,31485,1,0,0:0:0:100:LR_Hit Med Click.wav
320,192,31545,1,0,0:0:0:100:LR_Hit Med Click.wav
192,192,31605,1,0,0:0:0:100:LR_Hit Med Click.wav
64,192,31665,1,0,0:0:0:100:LR_Hit Med Click.wav
320,192,31725,1,0,0:0:0:70:LR4_KickGBDV.wav
448,192,31725,1,0,0:0:0:100:LR_Hit Med Click.wav
64,192,31785,1,0,0:0:0:100:LR_Hit Med Click.wav
192,192,31785,1,0,0:0:0:0:
320,192,31845,1,0,0:0:0:100:LR_Hit Med Click.wav
448,192,31845,1,0,0:0:0:0:
64,192,31905,1,0,0:0:0:100:LR_Hit Med Click.wav
192,192,31905,1,0,0:0:0:0:
320,192,31965,1,0,0:0:0:100:LR_Hit Med Click.wav
448,192,31965,1,0,0:0:0:0:
64,192,32025,1,0,0:0:0:100:LR_Hit Med Click.wav
192,192,32025,1,0,0:0:0:0:
320,192,32085,1,0,0:0:0:100:LR_Hit Med Click.wav
448,192,32085,1,0,0:0:0:0:
64,192,32145,1,0,0:0:0:100:LR_Hit Med Click.wav
192,192,32145,1,0,0:0:0:0:
320,192,32205,1,0,0:0:0:60:LR_CymbalG.wav
448,192,32205,1,0,0:0:0:80:LR4_KickGBDV.wav
64,192,33525,1,0,0:0:0:40:LR_Tom Drop.wav
192,192,33525,1,0,0:0:0:0:
320,192,33645,1,0,0:0:0:40:LR_Tom Drop.wav
448,192,33645,1,0,0:0:0:0:
64,192,33765,1,0,0:0:0:40:LR_Tom Drop.wav
448,192,33765,1,0,0:0:0:0:
192,192,33885,1,0,0:0:0:40:LR_Tom Drop.wav
320,192,33885,1,0,0:0:0:0:
192,192,34125,128,0,34485:0:0:0:70:LR4_KickGBDV.wav
320,192,34125,128,0,34485:0:0:0:0:
448,192,34125,128,0,34485:0:0:0:0:
64,192,34605,1,0,0:0:0:60:LR_CymbalSSD.wav
192,192,34605,128,0,34965:0:0:0:70:LR4_KickGBDV.wav
320,192,34605,128,0,34965:0:0:0:0:
448,192,34605,128,0,35085:0:0:0:0:
64,192,35085,1,0,0:0:0:70:LR4_KickGBDV.wav
320,192,35085,1,0,0:0:0:0:
64,192,35205,1,0,0:0:0:0:
192,192,35205,1,0,0:0:0:0:
192,192,35325,1,0,0:0:0:100:LR5_HiHat NSynth.wav
448,192,35325,1,0,0:0:0:0:
320,192,35445,1,0,0:0:0:0:
448,192,35445,1,0,0:0:0:0:
64,192,35565,1,0,0:0:0:60:LR_CymbalSSD.wav
192,192,35565,1,0,0:0:0:70:LR4_KickGBDV.wav
320,192,35565,1,0,0:0:0:0:
448,192,35565,1,0,0:0:0:0:
64,192,35685,1,0,0:0:0:0:
192,192,35805,1,0,0:0:0:100:LR5_HiHat NSynth.wav
448,192,35805,1,0,0:0:0:0:
320,192,35925,1,0,0:0:0:0:
64,192,36045,128,0,36405:0:0:0:70:LR4_KickGBDV.wav
192,192,36045,128,0,36405:0:0:0:0:
448,192,36045,128,0,36405:0:0:0:0:
64,192,36525,128,0,37005:0:0:0:60:LR_CymbalSSD.wav
192,192,36525,128,0,36885:0:0:0:70:LR4_KickGBDV.wav
320,192,36525,1,0,0:0:0:0:
448,192,36525,128,0,36885:0:0:0:0:
192,192,37005,1,0,0:0:0:70:LR4_KickGBDV.wav
448,192,37005,1,0,0:0:0:0:
64,192,37125,1,0,0:0:0:0:
320,192,37125,1,0,0:0:0:0:
192,192,37245,1,0,0:0:0:100:LR5_HiHat NSynth.wav
448,192,37245,1,0,0:0:0:0:
64,192,37365,1,0,0:0:0:0:
320,192,37365,1,0,0:0:0:0:
64,192,37485,1,0,0:0:0:60:LR_CymbalSSD.wav
192,192,37485,1,0,0:0:0:70:LR4_KickGBDV.wav
320,192,37485,1,0,0:0:0:0:
448,192,37485,1,0,0:0:0:0:
448,192,37605,1,0,0:0:0:0:
64,192,37725,1,0,0:0:0:100:LR5_HiHat NSynth.wav
320,192,37725,1,0,0:0:0:0:
192,192,37845,1,0,0:0:0:0:
64,192,37965,128,0,38325:0:0:0:70:LR4_KickGBDV.wav
320,192,37965,128,0,38325:0:0:0:0:
448,192,37965,128,0,38325:0:0:0:0:
64,192,38445,128,0,38925:0:0:0:60:LR_CymbalSSD.wav
192,192,38445,1,0,0:0:0:70:LR4_KickGBDV.wav
320,192,38445,128,0,38805:0:0:0:0:
448,192,38445,128,0,38805:0:0:0:0:
320,192,38925,1,0,0:0:0:70:LR4_KickGBDV.wav
448,192,38925,1,0,0:0:0:0:
192,192,39045,1,0,0:0:0:0:
320,192,39105,1,0,0:0:0:0:
64,192,39165,1,0,0:0:0:100:LR5_HiHat NSynth.wav
448,192,39165,1,0,0:0:0:0:
320,192,39285,1,0,0:0:0:0:
64,192,39405,1,0,0:0:0:60:LR_CymbalSSD.wav
192,192,39405,1,0,0:0:0:70:LR4_KickGBDV.wav
320,192,39405,1,0,0:0:0:0:
448,192,39405,1,0,0:0:0:0:
64,192,39525,1,0,0:0:0:0:
192,192,39645,1,0,0:0:0:100:LR5_HiHat NSynth.wav
448,192,39645,1,0,0:0:0:0:
320,192,39765,1,0,0:0:0:0:
64,192,39885,1,0,0:0:0:70:LR4_KickGBDV.wav
192,192,39885,1,0,0:0:0:0:
448,192,39945,1,0,0:0:0:0:
320,192,40005,1,0,0:0:0:0:
192,192,40065,1,0,0:0:0:0:
320,192,40125,128,0,40305:0:0:0:100:LR5_HiHat NSynth.wav
448,192,40125,128,0,40305:0:0:0:0:
320,192,40365,1,0,0:0:0:60:LR_CymbalSSD.wav
448,192,40365,1,0,0:0:0:70:LR4_KickGBDV.wav
64,192,40425,1,0,0:0:0:0:
192,192,40485,1,0,0:0:0:0:
320,192,40545,1,0,0:0:0:0:
64,192,40605,128,0,40845:0:0:0:100:LR5_HiHat NSynth.wav
192,192,40605,128,0,40845:0:0:0:0:
320,192,40845,128,0,41025:0:0:0:70:LR4_KickGBDV.wav
448,192,40845,128,0,41025:0:0:0:0:
320,192,41085,128,0,41265:0:0:0:100:LR5_HiHat NSynth.wav
448,192,41085,128,0,41265:0:0:0:0:
64,192,41325,1,0,0:0:0:60:LR_CymbalSSD.wav
192,192,41325,1,0,0:0:0:70:LR4_KickGBDV.wav
320,192,41325,1,0,0:0:0:0:
448,192,41325,1,0,0:0:0:0:
64,192,41805,128,0,42165:0:0:0:70:LR4_KickGBDV.wav
192,192,41805,128,0,42165:0:0:0:0:
320,192,41805,128,0,42165:0:0:0:0:
64,192,42285,128,0,42765:0:0:0:60:LR_CymbalSSD.wav
192,192,42285,128,0,42645:0:0:0:70:LR4_KickGBDV.wav
320,192,42285,128,0,42645:0:0:0:0:
448,192,42285,1,0,0:0:0:0:
192,192,42765,1,0,0:0:0:70:LR4_KickGBDV.wav
448,192,42765,1,0,0:0:0:0:
320,192,42885,1,0,0:0:0:0:
448,192,42885,1,0,0:0:0:0:
64,192,43005,1,0,0:0:0:100:LR5_HiHat NSynth.wav
320,192,43005,1,0,0:0:0:0:
64,192,43125,1,0,0:0:0:0:
192,192,43125,1,0,0:0:0:0:
64,192,43245,1,0,0:0:0:60:LR_CymbalSSD.wav
192,192,43245,1,0,0:0:0:70:LR4_KickGBDV.wav
320,192,43245,1,0,0:0:0:0:
448,192,43245,1,0,0:0:0:0:
448,192,43365,1,0,0:0:0:0:
64,192,43485,1,0,0:0:0:100:LR5_HiHat NSynth.wav
320,192,43485,1,0,0:0:0:0:
192,192,43605,1,0,0:0:0:0:
64,192,43725,128,0,44085:0:0:0:70:LR4_KickGBDV.wav
320,192,43725,128,0,44085:0:0:0:0:
448,192,43725,128,0,44085:0:0:0:0:
64,192,44205,128,0,44565:0:0:0:60:LR_CymbalSSD.wav
192,192,44205,1,0,0:0:0:70:LR4_KickGBDV.wav
320,192,44205,128,0,44565:0:0:0:0:
448,192,44205,128,0,44685:0:0:0:0:
64,192,44685,1,0,0:0:0:70:LR4_KickGBDV.wav
320,192,44685,1,0,0:0:0:0:
192,192,44805,1,0,0:0:0:0:
448,192,44805,1,0,0:0:0:0:
64,192,44925,1,0,0:0:0:100:LR5_HiHat NSynth.wav
192,192,44925,1,0,0:0:0:0:
320,192,45045,1,0,0:0:0:0:
448,192,45045,1,0,0:0:0:0:
64,192,45165,1,0,0:0:0:60:LR_CymbalSSD.wav
192,192,45165,1,0,0:0:0:70:LR4_KickGBDV.wav
320,192,45165,1,0,0:0:0:0:
448,192,45165,1,0,0:0:0:0:
64,192,45285,1,0,0:0:0:0:
192,192,45405,1,0,0:0:0:100:LR5_HiHat NSynth.wav
448,192,45405,1,0,0:0:0:0:
320,192,45525,1,0,0:0:0:0:
64,192,45645,128,0,46005:0:0:0:70:LR4_KickGBDV.wav
192,192,45645,128,0,46005:0:0:0:0:
448,192,45645,128,0,46005:0:0:0:0:
64,192,46125,128,0,46485:0:0:0:60:LR_CymbalSSD.wav
192,192,46125,128,0,46485:0:0:0:70:LR4_KickGBDV.wav
320,192,46125,1,0,0:0:0:0:
448,192,46125,128,0,46605:0:0:0:0:
64,192,46605,1,0,0:0:0:70:LR4_KickGBDV.wav
320,192,46605,1,0,0:0:0:0:
192,192,46725,1,0,0:0:0:0:
320,192,46785,1,0,0:0:0:0:
64,192,46845,1,0,0:0:0:100:LR5_HiHat NSynth.wav
448,192,46845,1,0,0:0:0:0:
192,192,46965,1,0,0:0:0:0:
64,192,47085,1,0,0:0:0:60:LR_CymbalSSD.wav
192,192,47085,1,0,0:0:0:70:LR4_KickGBDV.wav
320,192,47085,1,0,0:0:0:0:
448,192,47085,1,0,0:0:0:0:
320,192,47205,1,0,0:0:0:0:
64,192,47325,1,0,0:0:0:100:LR5_HiHat NSynth.wav
448,192,47325,1,0,0:0:0:0:
192,192,47445,1,0,0:0:0:0:
320,192,47565,1,0,0:0:0:70:LR4_KickGBDV.wav
448,192,47565,1,0,0:0:0:0:
64,192,47625,1,0,0:0:0:0:
192,192,47685,1,0,0:0:0:0:
320,192,47745,1,0,0:0:0:0:
64,192,47805,128,0,47985:0:0:0:100:LR5_HiHat NSynth.wav
448,192,47805,128,0,47985:0:0:0:0:
64,192,48045,1,0,0:0:0:60:LR_CymbalSSD.wav
192,192,48045,1,0,0:0:0:70:LR4_KickGBDV.wav
448,192,48105,1,0,0:0:0:0:
320,192,48165,1,0,0:0:0:0:
192,192,48225,1,0,0:0:0:0:
64,192,48285,128,0,48525:0:0:0:100:LR5_HiHat NSynth.wav
448,192,48285,128,0,48525:0:0:0:0:
192,192,48525,1,0,0:0:0:70:LR4_KickGBDV.wav
320,192,48525,1,0,0:0:0:0:
320,192,48765,128,0,48825:0:0:0:100:LR5_HiHat NSynth.wav
448,192,48765,128,0,48825:0:0:0:0:
320,192,48885,128,0,48945:0:0:0:0:
448,192,48885,128,0,48945:0:0:0:0:
64,192,49005,1,0,0:0:0:60:LR_CymbalSSD.wav
192,192,49005,1,0,0:0:0:100:LR5_HiHat NSynth.wav
448,192,49005,1,0,0:0:0:0:
192,192,49125,1,0,0:0:0:0:
64,192,49245,1,0,0:0:0:100:LR5_HiHat NSynth.wav
320,192,49245,1,0,0:0:0:0:
448,192,49245,1,0,0:0:0:0:
320,192,49365,1,0,0:0:0:0:
64,192,49485,128,0,50325:0:0:0:70:LR4_KickGBDV.wav
192,192,49485,128,0,50325:0:0:0:0:
448,192,49485,128,0,50325:0:0:0:0:
64,192,50445,1,0,0:0:0:60:LR_CymbalSSD.wav
192,192,50445,1,0,0:0:0:0:
320,192,50445,1,0,0:0:0:0:
448,192,50445,1,0,0:0:0:0:
192,192,50685,1,0,0:0:0:70:LR4_KickGBDV.wav
320,192,50685,1,0,0:0:0:0:
64,192,50805,1,0,0:0:0:0:
448,192,50805,1,0,0:0:0:0:
320,192,50925,1,0,0:0:0:0:
64,192,51405,128,0,51705:0:0:0:70:LR4_KickGBDV.wav
192,192,51405,128,0,51705:0:0:0:0:
448,192,51405,128,0,51705:0:0:0:0:
64,192,51765,128,0,52065:0:0:0:0:
192,192,51765,128,0,52065:0:0:0:0:
320,192,51765,128,0,52065:0:0:0:0:
192,192,52125,128,0,52305:0:0:0:70:LR4_KickGBDV.wav
320,192,52125,128,0,52305:0:0:0:0:
448,192,52125,128,0,52305:0:0:0:0:
64,192,52365,128,0,52665:0:0:0:60:LR_CymbalSSD.wav
192,192,52365,1,0,0:0:0:70:LR4_KickGBDV.wav
320,192,52365,128,0,52665:0:0:0:0:
448,192,52365,128,0,52665:0:0:0:0:
64,192,52725,128,0,53025:0:0:0:0:
192,192,52725,128,0,53025:0:0:0:0:
448,192,52725,128,0,53025:0:0:0:0:
192,192,53085,128,0,53265:0:0:0:70:LR4_KickGBDV.wav
320,192,53085,128,0,53265:0:0:0:0:
448,192,53085,128,0,53265:0:0:0:0:
64,192,53325,1,0,0:0:0:70:LR4_KickGBDV.wav
448,192,53325,1,0,0:0:0:0:
192,192,53385,1,0,0:0:0:0:
320,192,53445,1,0,0:0:0:0:
448,192,53505,1,0,0:0:0:0:
64,192,53565,1,0,0:0:0:0:
192,192,53625,1,0,0:0:0:0:
448,192,53685,1,0,0:0:0:0:
320,192,53745,1,0,0:0:0:0:
192,192,53805,1,0,0:0:0:0:
64,192,53865,1,0,0:0:0:0:
448,192,53925,1,0,0:0:0:0:
320,192,53985,1,0,0:0:0:0:
64,192,54045,1,0,0:0:0:0:
192,192,54105,1,0,0:0:0:0:
448,192,54165,1,0,0:0:0:0:
320,192,54225,1,0,0:0:0:0:
64,192,54285,1,0,0:0:0:60:LR_CymbalSSD.wav
192,192,54285,1,0,0:0:0:70:LR4_KickGBDV.wav
448,192,54285,1,0,0:0:0:0:
64,192,54525,1,0,0:0:0:0:
448,192,54525,1,0,0:0:0:0:
192,192,54645,1,0,0:0:0:0:
320,192,54645,1,0,0:0:0:0:
64,192,54765,1,0,0:0:0:0:
448,192,54765,1,0,0:0:0:0:
192,192,55005,1,0,0:0:0:70:LR4_KickGBDV.wav
320,192,55005,1,0,0:0:0:0:
64,192,55245,128,0,55905:0:0:0:70:LR4_KickGBDV.wav
192,192,55245,128,0,55905:0:0:0:0:
448,192,55245,128,0,55905:0:0:0:0:
64,192,55965,128,0,56445:0:0:0:70:LR4_KickGBDV.wav
192,192,55965,128,0,56445:0:0:0:0:
320,192,55965,128,0,56445:0:0:0:0:
448,192,56445,1,0,0:0:0:0:
320,192,56505,1,0,0:0:0:0:
64,192,56565,1,0,0:0:0:0:
192,192,56625,1,0,0:0:0:0:
320,192,56685,1,0,0:0:0:50:LR_Tom Drop.wav
448,192,56685,1,0,0:0:0:0:
320,192,56805,1,0,0:0:0:50:LR_Tom Drop.wav
448,192,56805,1,0,0:0:0:0:
64,192,56925,1,0,0:0:0:50:LR_Tom Drop.wav
192,192,56925,1,0,0:0:0:0:
64,192,57045,1,0,0:0:0:50:LR_Tom Drop.wav
192,192,57045,1,0,0:0:0:0:
64,192,57165,1,0,0:0:0:70:LR4_KickGBDV.wav
448,192,57165,1,0,0:0:0:0:
320,192,57225,1,0,0:0:0:0:
192,192,57285,1,0,0:0:0:0:
64,192,57345,1,0,0:0:0:0:
448,192,57405,1,0,0:0:0:0:
320,192,57465,1,0,0:0:0:0:
64,192,57525,1,0,0:0:0:0:
192,192,57585,1,0,0:0:0:0:
320,192,57645,1,0,0:0:0:0:
448,192,57705,1,0,0:0:0:0:
192,192,57765,1,0,0:0:0:0:
64,192,57825,1,0,0:0:0:0:
320,192,57885,1,0,0:0:0:80:LR5_HiHat NSynth.wav
320,192,57965,1,0,0:0:0:80:LR5_HiHat NSynth.wav
320,192,58045,1,0,0:0:0:80:LR5_HiHat NSynth.wav
64,192,58125,1,0,0:0:0:60:LR_CymbalSSD.wav
192,192,58125,1,0,0:0:0:80:LR5_HiHat NSynth.wav
448,192,58125,1,0,0:0:0:0:
192,192,58365,1,0,0:0:0:70:LR4_KickGBDV.wav
320,192,58365,1,0,0:0:0:0:
64,192,58485,1,0,0:0:0:0:
448,192,58485,1,0,0:0:0:0:
192,192,58605,1,0,0:0:0:0:
64,192,59085,128,0,59385:0:0:0:70:LR4_KickGBDV.wav
320,192,59085,128,0,59385:0:0:0:0:
448,192,59085,128,0,59385:0:0:0:0:
64,192,59445,128,0,59745:0:0:0:0:
192,192,59445,128,0,59745:0:0:0:0:
448,192,59445,128,0,59745:0:0:0:0:
192,192,59805,128,0,59985:0:0:0:70:LR4_KickGBDV.wav
320,192,59805,128,0,59985:0:0:0:0:
448,192,59805,128,0,59985:0:0:0:0:
64,192,60045,128,0,60345:0:0:0:60:LR_CymbalSSD.wav
192,192,60045,1,0,0:0:0:70:LR4_KickGBDV.wav
320,192,60045,128,0,60345:0:0:0:0:
448,192,60045,128,0,60345:0:0:0:0:
64,192,60405,128,0,60705:0:0:0:0:
192,192,60405,128,0,60705:0:0:0:0:
320,192,60405,128,0,60705:0:0:0:0:
192,192,60765,128,0,60945:0:0:0:70:LR4_KickGBDV.wav
320,192,60765,128,0,60945:0:0:0:0:
448,192,60765,128,0,60945:0:0:0:0:
64,192,61005,1,0,0:0:0:70:LR4_KickGBDV.wav
448,192,61005,1,0,0:0:0:0:
320,192,61065,1,0,0:0:0:0:
192,192,61125,1,0,0:0:0:0:
64,192,61185,1,0,0:0:0:0:
448,192,61245,1,0,0:0:0:0:
320,192,61305,1,0,0:0:0:0:
64,192,61365,1,0,0:0:0:0:
192,192,61425,1,0,0:0:0:0:
320,192,61485,1,0,0:0:0:0:
448,192,61545,1,0,0:0:0:0:
64,192,61605,1,0,0:0:0:0:
192,192,61665,1,0,0:0:0:0:
448,192,61725,1,0,0:0:0:0:
320,192,61785,1,0,0:0:0:0:
64,192,61845,1,0,0:0:0:0:
192,192,61905,1,0,0:0:0:0:
64,192,61965,1,0,0:0:0:60:LR_CymbalSSD.wav
320,192,61965,1,0,0:0:0:70:LR4_KickGBDV.wav
448,192,61965,1,0,0:0:0:0:
192,192,62205,1,0,0:0:0:0:
448,192,62205,1,0,0:0:0:0:
64,192,62325,1,0,0:0:0:0:
320,192,62325,1,0,0:0:0:0:
192,192,62445,1,0,0:0:0:0:
448,192,62445,1,0,0:0:0:0:
64,192,62685,1,0,0:0:0:50:LR_Tom Drop.wav
192,192,62685,1,0,0:0:0:0:
320,192,62765,1,0,0:0:0:50:LR_Tom Drop.wav
448,192,62765,1,0,0:0:0:0:
64,192,62845,1,0,0:0:0:50:LR_Tom Drop.wav
192,192,62845,1,0,0:0:0:0:
64,192,62925,128,0,63585:0:0:0:70:LR4_KickGBDV.wav
320,192,62925,128,0,63585:0:0:0:0:
448,192,62925,128,0,63585:0:0:0:0:
192,192,63645,128,0,64845:0:0:0:70:LR4_KickGBDV.wav
320,192,63645,128,0,64845:0:0:0:0:
448,192,63645,128,0,64845:0:0:0:0:
64,192,64845,1,0,0:0:0:100:LR_Chm Med.wav
64,192,80205,132,0,84045:0:0:0:40:LR_CymbalG.wav
320,192,80205,1,0,0:0:0:50:LR_Chm Med.wav
448,192,80205,1,0,0:0:0:50:LR2_KickBassFast2.wav
192,192,84045,1,0,0:0:0:50:LR_Chm Med.wav
448,192,84045,128,0,87885:0:0:0:40:LR5_HiHat NSynth.wav
64,192,86485,1,0,0:0:0:0:
192,192,86725,1,0,0:0:0:0:
64,192,86965,1,0,0:0:0:0:
192,192,87205,1,0,0:0:0:0:
64,192,87445,1,0,0:0:0:0:
192,192,87685,1,0,0:0:0:0:
64,192,87885,128,0,91725:0:0:0:40:LR_CymbalG.wav
320,192,87885,1,0,0:0:0:50:LR_Chm Med.wav
192,192,91725,128,0,95565:0:0:0:50:LR_Chm Med.wav
320,192,91725,1,0,0:0:0:40:LR5_HiHat NSynth.wav
448,192,94165,1,0,0:0:0:0:
320,192,94405,1,0,0:0:0:0:
448,192,94645,1,0,0:0:0:0:
320,192,94885,1,0,0:0:0:0:
448,192,95125,1,0,0:0:0:0:
320,192,95365,1,0,0:0:0:0:
64,192,95565,1,0,0:0:0:70:LR_Chm Med.wav
448,192,95565,1,0,0:0:0:50:LR5_HiHat NSynth.wav
320,192,95685,1,0,0:0:0:0:
192,192,95805,1,0,0:0:0:0:
64,192,95925,1,0,0:0:0:0:
320,192,96045,1,0,0:0:0:0:
448,192,96165,1,0,0:0:0:0:
192,192,96285,1,0,0:0:0:0:
320,192,96405,1,0,0:0:0:0:
320,192,96645,1,0,0:0:0:0:
320,192,96885,1,0,0:0:0:0:
448,192,97005,1,0,0:0:0:0:
320,192,97245,1,0,0:0:0:0:
64,192,97485,1,0,0:0:0:0:
192,192,97605,1,0,0:0:0:0:
320,192,97725,1,0,0:0:0:0:
448,192,97845,1,0,0:0:0:0:
192,192,97965,1,0,0:0:0:0:
64,192,98085,1,0,0:0:0:0:
320,192,98205,1,0,0:0:0:0:
192,192,98325,1,0,0:0:0:0:
192,192,98565,1,0,0:0:0:0:
192,192,98805,1,0,0:0:0:0:
448,192,98925,1,0,0:0:0:0:
192,192,99165,1,0,0:0:0:0:
64,192,99405,1,0,0:0:0:70:LR_Chm Med.wav
448,192,99405,1,0,0:0:0:50:LR5_HiHat NSynth.wav
448,192,99525,1,0,0:0:0:0:
192,192,99645,1,0,0:0:0:0:
192,192,99765,1,0,0:0:0:0:
448,192,99885,1,0,0:0:0:0:
64,192,100005,1,0,0:0:0:0:
192,192,100125,1,0,0:0:0:0:
320,192,100245,1,0,0:0:0:0:
320,192,100485,1,0,0:0:0:0:
320,192,100725,1,0,0:0:0:0:
192,192,100845,1,0,0:0:0:0:
320,192,101085,1,0,0:0:0:0:
64,192,101325,1,0,0:0:0:0:
192,192,101445,1,0,0:0:0:0:
320,192,101565,1,0,0:0:0:0:
448,192,101685,1,0,0:0:0:0:
192,192,101805,1,0,0:0:0:0:
64,192,101925,1,0,0:0:0:0:
320,192,102045,1,0,0:0:0:0:
192,192,102165,1,0,0:0:0:0:
192,192,102405,1,0,0:0:0:0:
192,192,102645,1,0,0:0:0:0:
448,192,102765,1,0,0:0:0:0:
320,192,102885,1,0,0:0:0:0:
192,192,103005,1,0,0:0:0:0:
320,192,103245,1,0,0:0:0:70:LR_Chm Med.wav
448,192,103245,1,0,0:0:0:50:LR5_HiHat NSynth.wav
320,192,103365,1,0,0:0:0:0:
64,192,103485,1,0,0:0:0:0:
64,192,103605,1,0,0:0:0:0:
320,192,103725,1,0,0:0:0:0:
192,192,103845,1,0,0:0:0:0:
64,192,103965,1,0,0:0:0:0:
320,192,104085,1,0,0:0:0:0:
320,192,104325,1,0,0:0:0:0:
320,192,104565,1,0,0:0:0:0:
192,192,104685,1,0,0:0:0:0:
320,192,104925,1,0,0:0:0:0:
64,192,105165,1,0,0:0:0:0:
320,192,105285,1,0,0:0:0:0:
192,192,105405,1,0,0:0:0:0:
448,192,105525,1,0,0:0:0:0:
64,192,105645,1,0,0:0:0:0:
192,192,105765,1,0,0:0:0:0:
320,192,105885,1,0,0:0:0:0:
192,192,106005,1,0,0:0:0:0:
320,192,106245,1,0,0:0:0:0:
192,192,106365,1,0,0:0:0:0:
320,192,106485,1,0,0:0:0:0:
448,192,106605,1,0,0:0:0:0:
320,192,106845,1,0,0:0:0:0:
64,192,107085,1,0,0:0:0:70:LR_Chm Med.wav
192,192,107085,1,0,0:0:0:50:LR5_HiHat NSynth.wav
192,192,107205,1,0,0:0:0:0:
448,192,107325,1,0,0:0:0:0:
448,192,107445,1,0,0:0:0:0:
192,192,107565,1,0,0:0:0:0:
320,192,107685,1,0,0:0:0:0:
192,192,107805,1,0,0:0:0:0:
64,192,107925,1,0,0:0:0:0:
448,192,108045,1,0,0:0:0:0:
192,192,108165,1,0,0:0:0:0:
320,192,108285,1,0,0:0:0:0:
448,192,108405,1,0,0:0:0:0:
192,192,108525,1,0,0:0:0:0:
320,192,108765,1,0,0:0:0:0:
64,192,109005,128,0,110925:0:0:0:0:
192,192,109005,1,0,0:0:0:0:
320,192,109125,1,0,0:0:0:0:
448,192,109245,1,0,0:0:0:0:
320,192,109365,1,0,0:0:0:0:
192,192,109485,1,0,0:0:0:0:
448,192,109605,1,0,0:0:0:0:
320,192,109725,1,0,0:0:0:0:
192,192,109845,1,0,0:0:0:0:
320,192,110085,1,0,0:0:0:0:
192,192,110205,1,0,0:0:0:0:
320,192,110325,1,0,0:0:0:0:
448,192,110445,1,0,0:0:0:0:
320,192,110685,1,0,0:0:0:0:
192,192,110925,1,0,0:0:0:50:LR2_KickBassFast2.wav
448,192,110925,1,0,0:0:0:30:LR_Tom Drop.wav
320,192,111045,1,0,0:0:0:20:LR_Hit Med Click.wav
64,192,111165,1,0,0:0:0:20:LR_Hit Med Click.wav
192,192,111285,1,0,0:0:0:20:LR_Hit Med Click.wav
320,192,111405,1,0,0:0:0:50:LR2_KickBassFast2.wav
448,192,111405,1,0,0:0:0:20:LR_Hit Med Click.wav
64,192,111525,1,0,0:0:0:20:LR_Hit Med Click.wav
448,192,111645,1,0,0:0:0:20:LR_Hit Med Click.wav
320,192,111765,1,0,0:0:0:20:LR_Hit Med Click.wav
64,192,111885,1,0,0:0:0:50:LR2_KickBassFast2.wav
192,192,111885,1,0,0:0:0:25:LR_Hit Med Click.wav
448,192,112005,1,0,0:0:0:25:LR_Hit Med Click.wav
192,192,112125,1,0,0:0:0:25:LR_Hit Med Click.wav
320,192,112245,1,0,0:0:0:25:LR_Hit Med Click.wav
64,192,112365,1,0,0:0:0:50:LR2_KickBassFast2.wav
448,192,112365,1,0,0:0:0:25:LR_Hit Med Click.wav
320,192,112605,1,0,0:0:0:25:LR_Hit Med Click.wav
320,192,112725,1,0,0:0:0:25:LR_Hit Med Click.wav
64,192,112845,1,0,0:0:0:50:LR2_KickBassFast2.wav
448,192,112845,1,0,0:0:0:30:LR_Hit Med Click.wav
192,192,112965,1,0,0:0:0:30:LR_Hit Med Click.wav
448,192,113085,1,0,0:0:0:30:LR_Hit Med Click.wav
320,192,113205,1,0,0:0:0:30:LR_Hit Med Click.wav
64,192,113325,1,0,0:0:0:50:LR2_KickBassFast2.wav
192,192,113325,1,0,0:0:0:30:LR_Hit Med Click.wav
448,192,113445,1,0,0:0:0:30:LR_Hit Med Click.wav
64,192,113565,1,0,0:0:0:30:LR_Hit Med Click.wav
192,192,113685,1,0,0:0:0:30:LR_Hit Med Click.wav
320,192,113805,1,0,0:0:0:50:LR2_KickBassFast2.wav
448,192,113805,1,0,0:0:0:35:LR_Hit Med Click.wav
64,192,113925,1,0,0:0:0:35:LR_Hit Med Click.wav
320,192,114045,1,0,0:0:0:35:LR_Hit Med Click.wav
192,192,114165,1,0,0:0:0:35:LR_Hit Med Click.wav
64,192,114285,1,0,0:0:0:50:LR2_KickBassFast2.wav
448,192,114285,1,0,0:0:0:35:LR_Hit Med Click.wav
320,192,114405,1,0,0:0:0:35:LR_Hit Med Click.wav
192,192,114525,1,0,0:0:0:35:LR_Hit Med Click.wav
64,192,114645,1,0,0:0:0:35:LR_Hit Med Click.wav
320,192,114765,1,0,0:0:0:50:LR2_KickBassFast2.wav
448,192,114765,1,0,0:0:0:40:LR_Hit Med Click.wav
320,192,115005,1,0,0:0:0:40:LR_Hit Med Click.wav
192,192,115125,1,0,0:0:0:40:LR_Hit Med Click.wav
64,192,115245,1,0,0:0:0:50:LR2_KickBassFast2.wav
448,192,115245,1,0,0:0:0:40:LR_Hit Med Click.wav
192,192,115485,1,0,0:0:0:40:LR_Hit Med Click.wav
320,192,115605,1,0,0:0:0:40:LR_Hit Med Click.wav
64,192,115725,1,0,0:0:0:50:LR2_KickBassFast2.wav
448,192,115725,1,0,0:0:0:40:LR_Hit Med Click.wav
192,192,115845,1,0,0:0:0:40:LR_Hit Med Click.wav
320,192,115965,1,0,0:0:0:40:LR_Hit Med Click.wav
448,192,116085,1,0,0:0:0:40:LR_Hit Med Click.wav
64,192,116205,1,0,0:0:0:50:LR2_KickBassFast2.wav
192,192,116205,1,0,0:0:0:45:LR_Hit Med Click.wav
320,192,116325,1,0,0:0:0:45:LR_Hit Med Click.wav
192,192,116445,1,0,0:0:0:45:LR_Hit Med Click.wav
320,192,116565,1,0,0:0:0:45:LR_Hit Med Click.wav
64,192,116685,1,0,0:0:0:50:LR2_KickBassFast2.wav
448,192,116685,1,0,0:0:0:45:LR_Hit Med Click.wav
192,192,116805,1,0,0:0:0:45:LR_Hit Med Click.wav
320,192,116925,1,0,0:0:0:45:LR_Hit Med Click.wav
192,192,117045,1,0,0:0:0:45:LR_Hit Med Click.wav
64,192,117165,1,0,0:0:0:50:LR2_KickBassFast2.wav
448,192,117165,1,0,0:0:0:50:LR_Hit Med Click.wav
320,192,117285,1,0,0:0:0:50:LR_Hit Med Click.wav
192,192,117405,1,0,0:0:0:50:LR_Hit Med Click.wav
320,192,117525,1,0,0:0:0:50:LR_Hit Med Click.wav
64,192,117645,1,0,0:0:0:50:LR2_KickBassFast2.wav
448,192,117645,1,0,0:0:0:50:LR_Hit Med Click.wav
192,192,117765,1,0,0:0:0:50:LR_Hit Med Click.wav
320,192,117885,1,0,0:0:0:50:LR_Hit Med Click.wav
448,192,118005,1,0,0:0:0:50:LR_Hit Med Click.wav
64,192,118125,1,0,0:0:0:50:LR2_KickBassFast2.wav
192,192,118125,1,0,0:0:0:50:LR_Hit Med Click.wav
448,192,118245,1,0,0:0:0:50:LR_Hit Med Click.wav
320,192,118365,1,0,0:0:0:50:LR_Hit Med Click.wav
192,192,118485,1,0,0:0:0:50:LR_Hit Med Click.wav
64,192,118605,1,0,0:0:0:70:LR4_KickGBDV.wav
320,192,118605,1,0,0:0:0:100:LR_Hit Med Click.wav
448,192,118605,1,0,0:0:0:0:
320,192,118725,1,0,0:0:0:100:LR_Hit Med Click.wav
64,192,118845,1,0,0:0:0:40:LR2_KickBassFast2.wav
192,192,118845,1,0,0:0:0:100:LR_Hit Med Click.wav
448,192,118845,1,0,0:0:0:0:
192,192,118965,1,0,0:0:0:100:LR_Hit Med Click.wav
64,192,119085,1,0,0:0:0:70:LR4_KickGBDV.wav
320,192,119085,1,0,0:0:0:100:LR_Hit Med Click.wav
448,192,119085,1,0,0:0:0:0:
448,192,119205,1,0,0:0:0:100:LR_Hit Med Click.wav
64,192,119325,1,0,0:0:0:40:LR2_KickBassFast2.wav
192,192,119325,1,0,0:0:0:100:LR_Hit Med Click.wav
320,192,119325,1,0,0:0:0:0:
64,192,119445,1,0,0:0:0:100:LR_Hit Med Click.wav
192,192,119565,1,0,0:0:0:70:LR4_KickGBDV.wav
320,192,119565,1,0,0:0:0:100:LR_Hit Med Click.wav
448,192,119565,1,0,0:0:0:0:
320,192,119685,1,0,0:0:0:100:LR_Hit Med Click.wav
64,192,119805,1,0,0:0:0:40:LR2_KickBassFast2.wav
192,192,119805,1,0,0:0:0:100:LR_Hit Med Click.wav
448,192,119805,1,0,0:0:0:0:
192,192,119925,1,0,0:0:0:100:LR_Hit Med Click.wav
64,192,120045,1,0,0:0:0:70:LR4_KickGBDV.wav
320,192,120045,1,0,0:0:0:100:LR_Hit Med Click.wav
448,192,120045,1,0,0:0:0:0:
448,192,120165,1,0,0:0:0:100:LR_Hit Med Click.wav
64,192,120285,1,0,0:0:0:40:LR2_KickBassFast2.wav
192,192,120285,1,0,0:0:0:100:LR_Hit Med Click.wav
320,192,120285,1,0,0:0:0:0:
64,192,120405,1,0,0:0:0:100:LR_Hit Med Click.wav
192,192,120525,1,0,0:0:0:70:LR4_KickGBDV.wav
320,192,120525,1,0,0:0:0:100:LR_Hit Med Click.wav
448,192,120525,1,0,0:0:0:0:
448,192,120645,1,0,0:0:0:100:LR_Hit Med Click.wav
64,192,120765,1,0,0:0:0:40:LR2_KickBassFast2.wav
192,192,120765,1,0,0:0:0:100:LR_Hit Med Click.wav
320,192,120765,1,0,0:0:0:0:
64,192,120885,1,0,0:0:0:100:LR_Hit Med Click.wav
192,192,121005,1,0,0:0:0:70:LR4_KickGBDV.wav
320,192,121005,1,0,0:0:0:100:LR_Hit Med Click.wav
448,192,121005,1,0,0:0:0:0:
320,192,121125,1,0,0:0:0:100:LR_Hit Med Click.wav
64,192,121245,1,0,0:0:0:40:LR2_KickBassFast2.wav
192,192,121245,1,0,0:0:0:100:LR_Hit Med Click.wav
448,192,121245,1,0,0:0:0:0:
192,192,121365,1,0,0:0:0:100:LR_Hit Med Click.wav
64,192,121485,1,0,0:0:0:70:LR4_KickGBDV.wav
320,192,121485,1,0,0:0:0:100:LR_Hit Med Click.wav
448,192,121485,1,0,0:0:0:0:
448,192,121605,1,0,0:0:0:100:LR_Hit Med Click.wav
64,192,121725,1,0,0:0:0:40:LR2_KickBassFast2.wav
192,192,121725,1,0,0:0:0:100:LR_Hit Med Click.wav
320,192,121725,1,0,0:0:0:0:
64,192,121845,1,0,0:0:0:100:LR_Hit Med Click.wav
192,192,121965,1,0,0:0:0:70:LR4_KickGBDV.wav
320,192,121965,1,0,0:0:0:100:LR_Hit Med Click.wav
448,192,121965,1,0,0:0:0:0:
320,192,122085,1,0,0:0:0:100:LR_Hit Med Click.wav
64,192,122205,1,0,0:0:0:40:LR2_KickBassFast2.wav
448,192,122205,1,0,0:0:0:100:LR_Hit Med Click.wav
320,192,122265,1,0,0:0:0:100:LR_Hit Med Click.wav
192,192,122325,1,0,0:0:0:100:LR_Hit Med Click.wav
64,192,122385,1,0,0:0:0:100:LR_Hit Med Click.wav
320,192,122445,1,0,0:0:0:70:LR4_KickGBDV.wav
448,192,122445,1,0,0:0:0:100:LR_Hit Med Click.wav
320,192,122565,1,0,0:0:0:100:LR_Hit Med Click.wav
448,192,122565,1,0,0:0:0:0:
64,192,122685,1,0,0:0:0:100:LR_Hit Med Click.wav
192,192,122685,1,0,0:0:0:0:
64,192,122805,1,0,0:0:0:100:LR_Hit Med Click.wav
192,192,122805,1,0,0:0:0:0:
320,192,122925,1,0,0:0:0:70:LR4_KickGBDV.wav
448,192,122925,1,0,0:0:0:100:LR_Hit Med Click.wav
320,192,123045,1,0,0:0:0:100:LR_Hit Med Click.wav
448,192,123045,1,0,0:0:0:0:
64,192,123165,1,0,0:0:0:100:LR_Hit Med Click.wav
192,192,123165,1,0,0:0:0:0:
64,192,123285,1,0,0:0:0:100:LR_Hit Med Click.wav
192,192,123285,1,0,0:0:0:0:
64,192,123405,1,0,0:0:0:70:LR4_KickGBDV.wav
448,192,123405,1,0,0:0:0:100:LR_Hit Med Click.wav
192,192,123525,1,0,0:0:0:100:LR_Hit Med Click.wav
320,192,123525,1,0,0:0:0:0:
320,192,123645,1,0,0:0:0:100:LR_Hit Med Click.wav
448,192,123645,1,0,0:0:0:0:
64,192,123765,1,0,0:0:0:100:LR_Hit Med Click.wav
192,192,123765,1,0,0:0:0:0:
64,192,123885,1,0,0:0:0:70:LR4_KickGBDV.wav
448,192,123885,1,0,0:0:0:100:LR_Hit Med Click.wav
192,192,124005,1,0,0:0:0:100:LR_Hit Med Click.wav
320,192,124005,1,0,0:0:0:0:
320,192,124125,1,0,0:0:0:100:LR_Hit Med Click.wav
448,192,124125,1,0,0:0:0:0:
64,192,124245,1,0,0:0:0:100:LR_Hit Med Click.wav
192,192,124245,1,0,0:0:0:0:
64,192,124365,1,0,0:0:0:70:LR4_KickGBDV.wav
448,192,124365,1,0,0:0:0:100:LR_Hit Med Click.wav
320,192,124425,1,0,0:0:0:100:LR_Hit Med Click.wav
192,192,124485,1,0,0:0:0:100:LR_Hit Med Click.wav
64,192,124545,1,0,0:0:0:100:LR_Hit Med Click.wav
320,192,124605,1,0,0:0:0:100:LR_Hit Med Click.wav
448,192,124665,1,0,0:0:0:100:LR_Hit Med Click.wav
64,192,124725,1,0,0:0:0:100:LR_Hit Med Click.wav
192,192,124785,1,0,0:0:0:100:LR_Hit Med Click.wav
320,192,124845,1,0,0:0:0:70:LR4_KickGBDV.wav
448,192,124845,1,0,0:0:0:100:LR_Hit Med Click.wav
192,192,124905,1,0,0:0:0:100:LR_Hit Med Click.wav
64,192,124965,1,0,0:0:0:100:LR_Hit Med Click.wav
448,192,125025,1,0,0:0:0:100:LR_Hit Med Click.wav
320,192,125085,1,0,0:0:0:100:LR_Hit Med Click.wav
192,192,125145,1,0,0:0:0:100:LR_Hit Med Click.wav
64,192,125205,1,0,0:0:0:100:LR_Hit Med Click.wav
448,192,125265,1,0,0:0:0:100:LR_Hit Med Click.wav
320,192,125325,1,0,0:0:0:100:LR_Hit Med Click.wav
192,192,125325,1,0,0:0:0:70:LR4_KickGBDV.wav
64,192,125385,1,0,0:0:0:100:LR_Hit Med Click.wav
448,192,125445,1,0,0:0:0:100:LR_Hit Med Click.wav
320,192,125505,1,0,0:0:0:100:LR_Hit Med Click.wav
64,192,125565,1,0,0:0:0:100:LR_Hit Med Click.wav
192,192,125625,1,0,0:0:0:100:LR_Hit Med Click.wav
320,192,125685,1,0,0:0:0:100:LR_Hit Med Click.wav
448,192,125745,1,0,0:0:0:100:LR_Hit Med Click.wav
64,192,125805,1,0,0:0:0:70:LR4_KickGBDV.wav
192,192,125805,1,0,0:0:0:100:LR_Hit Med Click.wav
320,192,125865,1,0,0:0:0:100:LR_Hit Med Click.wav
448,192,125865,1,0,0:0:0:0:
64,192,125925,1,0,0:0:0:100:LR_Hit Med Click.wav
192,192,125925,1,0,0:0:0:0:
320,192,125985,1,0,0:0:0:100:LR_Hit Med Click.wav
448,192,125985,1,0,0:0:0:0:
64,192,126045,1,0,0:0:0:100:LR_Hit Med Click.wav
192,192,126045,1,0,0:0:0:0:
320,192,126105,1,0,0:0:0:100:LR_Hit Med Click.wav
448,192,126105,1,0,0:0:0:0:
64,192,126165,1,0,0:0:0:100:LR_Hit Med Click.wav
192,192,126165,1,0,0:0:0:0:
320,192,126225,1,0,0:0:0:100:LR_Hit Med Click.wav
448,192,126225,1,0,0:0:0:0:
64,192,126285,1,0,0:0:0:60:LR_CymbalG.wav
192,192,126285,1,0,0:0:0:80:LR4_KickGBDV.wav
320,192,127605,1,0,0:0:0:40:LR_Tom Drop.wav
448,192,127605,1,0,0:0:0:0:
64,192,127725,1,0,0:0:0:40:LR_Tom Drop.wav
192,192,127725,1,0,0:0:0:0:
64,192,127845,1,0,0:0:0:40:LR_Tom Drop.wav
448,192,127845,1,0,0:0:0:0:
192,192,127965,1,0,0:0:0:40:LR_Tom Drop.wav
320,192,127965,1,0,0:0:0:0:
64,192,128205,128,0,128565:0:0:0:70:LR4_KickGBDV.wav
192,192,128205,128,0,128565:0:0:0:0:
320,192,128205,128,0,128565:0:0:0:0:
64,192,128685,128,0,129165:0:0:0:60:LR_CymbalSSD.wav
192,192,128685,128,0,129045:0:0:0:70:LR4_KickGBDV.wav
320,192,128685,128,0,129045:0:0:0:0:
448,192,128685,1,0,0:0:0:0:
192,192,129165,1,0,0:0:0:70:LR4_KickGBDV.wav
320,192,129165,1,0,0:0:0:0:
320,192,129285,1,0,0:0:0:0:
448,192,129285,1,0,0:0:0:0:
64,192,129405,1,0,0:0:0:100:LR5_HiHat NSynth.wav
192,192,129405,1,0,0:0:0:0:
192,192,129525,1,0,0:0:0:0:
320,192,129525,1,0,0:0:0:0:
64,192,129645,1,0,0:0:0:60:LR_CymbalSSD.wav
192,192,129645,1,0,0:0:0:70:LR4_KickGBDV.wav
320,192,129645,1,0,0:0:0:0:
448,192,129645,1,0,0:0:0:0:
448,192,129765,1,0,0:0:0:0:
64,192,129885,1,0,0:0:0:100:LR5_HiHat NSynth.wav
320,192,129885,1,0,0:0:0:0:
192,192,130005,1,0,0:0:0:0:
64,192,130125,128,0,130485:0:0:0:70:LR4_KickGBDV.wav
320,192,130125,128,0,130485:0:0:0:0:
448,192,130125,128,0,130485:0:0:0:0:
64,192,130605,128,0,131085:0:0:0:60:LR_CymbalSSD.wav
192,192,130605,1,0,0:0:0:70:LR4_KickGBDV.wav
320,192,130605,128,0,130965:0:0:0:0:
448,192,130605,128,0,130965:0:0:0:0:
320,192,131085,1,0,0:0:0:70:LR4_KickGBDV.wav
448,192,131085,1,0,0:0:0:0:
192,192,131205,1,0,0:0:0:0:
320,192,131205,1,0,0:0:0:0:
64,192,131325,1,0,0:0:0:100:LR5_HiHat NSynth.wav
192,192,131325,1,0,0:0:0:0:
320,192,131445,1,0,0:0:0:0:
448,192,131445,1,0,0:0:0:0:
64,192,131565,1,0,0:0:0:60:LR_CymbalSSD.wav
192,192,131565,1,0,0:0:0:70:LR4_KickGBDV.wav
320,192,131565,1,0,0:0:0:0:
448,192,131565,1,0,0:0:0:0:
64,192,131685,1,0,0:0:0:0:
192,192,131805,1,0,0:0:0:100:LR5_HiHat NSynth.wav
448,192,131805,1,0,0:0:0:0:
320,192,131925,1,0,0:0:0:0:
64,192,132045,128,0,132405:0:0:0:70:LR4_KickGBDV.wav
192,192,132045,128,0,132405:0:0:0:0:
448,192,132045,128,0,132405:0:0:0:0:
64,192,132525,128,0,132885:0:0:0:60:LR_CymbalSSD.wav
192,192,132525,128,0,132885:0:0:0:70:LR4_KickGBDV.wav
320,192,132525,1,0,0:0:0:0:
448,192,132525,128,0,133005:0:0:0:0:
64,192,133005,1,0,0:0:0:70:LR4_KickGBDV.wav
192,192,133005,1,0,0:0:0:0:
320,192,133125,1,0,0:0:0:0:
192,192,133185,1,0,0:0:0:0:
64,192,133245,1,0,0:0:0:100:LR5_HiHat NSynth.wav
448,192,133245,1,0,0:0:0:0:
192,192,133365,1,0,0:0:0:0:
64,192,133485,1,0,0:0:0:60:LR_CymbalSSD.wav
192,192,133485,1,0,0:0:0:70:LR4_KickGBDV.wav
320,192,133485,1,0,0:0:0:0:
448,192,133485,1,0,0:0:0:0:
448,192,133605,1,0,0:0:0:0:
64,192,133725,1,0,0:0:0:100:LR5_HiHat NSynth.wav
320,192,133725,1,0,0:0:0:0:
192,192,133845,1,0,0:0:0:0:
320,192,133965,1,0,0:0:0:70:LR4_KickGBDV.wav
448,192,133965,1,0,0:0:0:0:
64,192,134025,1,0,0:0:0:0:
192,192,134085,1,0,0:0:0:0:
320,192,134145,1,0,0:0:0:0:
64,192,134205,128,0,134385:0:0:0:100:LR5_HiHat NSynth.wav
192,192,134205,128,0,134385:0:0:0:0:
64,192,134445,1,0,0:0:0:60:LR_CymbalSSD.wav
192,192,134445,1,0,0:0:0:70:LR4_KickGBDV.wav
448,192,134505,1,0,0:0:0:0:
320,192,134565,1,0,0:0:0:0:
192,192,134625,1,0,0:0:0:0:
320,192,134685,128,0,134925:0:0:0:100:LR5_HiHat NSynth.wav
448,192,134685,128,0,134925:0:0:0:0:
64,192,134925,128,0,135105:0:0:0:70:LR4_KickGBDV.wav
192,192,134925,128,0,135105:0:0:0:0:
64,192,135165,128,0,135345:0:0:0:100:LR5_HiHat NSynth.wav
192,192,135165,128,0,135345:0:0:0:0:
64,192,135405,1,0,0:0:0:60:LR_CymbalSSD.wav
192,192,135405,1,0,0:0:0:70:LR4_KickGBDV.wav
320,192,135405,1,0,0:0:0:0:
448,192,135405,1,0,0:0:0:0:
64,192,135885,128,0,136245:0:0:0:70:LR4_KickGBDV.wav
192,192,135885,128,0,136245:0:0:0:0:
448,192,135885,128,0,136245:0:0:0:0:
64,192,136365,128,0,136725:0:0:0:60:LR_CymbalSSD.wav
192,192,136365,128,0,136725:0:0:0:70:LR4_KickGBDV.wav
320,192,136365,1,0,0:0:0:0:
448,192,136365,128,0,136845:0:0:0:0:
192,192,136845,1,0,0:0:0:70:LR4_KickGBDV.wav
320,192,136845,1,0,0:0:0:0:
64,192,136965,1,0,0:0:0:0:
192,192,136965,1,0,0:0:0:0:
320,192,137085,1,0,0:0:0:100:LR5_HiHat NSynth.wav
448,192,137085,1,0,0:0:0:0:
192,192,137205,1,0,0:0:0:0:
320,192,137205,1,0,0:0:0:0:
64,192,137325,1,0,0:0:0:60:LR_CymbalSSD.wav
192,192,137325,1,0,0:0:0:70:LR4_KickGBDV.wav
320,192,137325,1,0,0:0:0:0:
448,192,137325,1,0,0:0:0:0:
448,192,137445,1,0,0:0:0:0:
64,192,137565,1,0,0:0:0:100:LR5_HiHat NSynth.wav
320,192,137565,1,0,0:0:0:0:
192,192,137685,1,0,0:0:0:0:
64,192,137805,128,0,138165:0:0:0:70:LR4_KickGBDV.wav
320,192,137805,128,0,138165:0:0:0:0:
448,192,137805,128,0,138165:0:0:0:0:
64,192,138285,128,0,138645:0:0:0:60:LR_CymbalSSD.wav
192,192,138285,1,0,0:0:0:70:LR4_KickGBDV.wav
320,192,138285,128,0,138645:0:0:0:0:
448,192,138285,128,0,138765:0:0:0:0:
64,192,138765,1,0,0:0:0:70:LR4_KickGBDV.wav
320,192,138765,1,0,0:0:0:0:
192,192,138885,1,0,0:0:0:0:
448,192,138885,1,0,0:0:0:0:
64,192,139005,1,0,0:0:0:100:LR5_HiHat NSynth.wav
192,192,139005,1,0,0:0:0:0:
320,192,139125,1,0,0:0:0:0:
448,192,139125,1,0,0:0:0:0:
64,192,139245,1,0,0:0:0:60:LR_CymbalSSD.wav
192,192,139245,1,0,0:0:0:70:LR4_KickGBDV.wav
320,192,139245,1,0,0:0:0:0:
448,192,139245,1,0,0:0:0:0:
64,192,139365,1,0,0:0:0:0:
192,192,139485,1,0,0:0:0:100:LR5_HiHat NSynth.wav
320,192,139485,1,0,0:0:0:0:
448,192,139605,1,0,0:0:0:0:
64,192,139725,128,0,140085:0:0:0:70:LR4_KickGBDV.wav
192,192,139725,128,0,140085:0:0:0:0:
320,192,139725,128,0,140085:0:0:0:0:
64,192,140205,128,0,140685:0:0:0:60:LR_CymbalSSD.wav
192,192,140205,128,0,140565:0:0:0:70:LR4_KickGBDV.wav
320,192,140205,128,0,140565:0:0:0:0:
448,192,140205,1,0,0:0:0:0:
192,192,140685,1,0,0:0:0:70:LR4_KickGBDV.wav
448,192,140685,1,0,0:0:0:0:
320,192,140805,1,0,0:0:0:0:
192,192,140865,1,0,0:0:0:0:
64,192,140925,1,0,0:0:0:100:LR5_HiHat NSynth.wav
448,192,140925,1,0,0:0:0:0:
320,192,141045,1,0,0:0:0:0:
64,192,141165,1,0,0:0:0:60:LR_CymbalSSD.wav
192,192,141165,1,0,0:0:0:70:LR4_KickGBDV.wav
320,192,141165,1,0,0:0:0:0:
448,192,141165,1,0,0:0:0:0:
64,192,141285,1,0,0:0:0:0:
192,192,141405,1,0,0:0:0:100:LR5_HiHat NSynth.wav
448,192,141405,1,0,0:0:0:0:
320,192,141525,1,0,0:0:0:0:
64,192,141645,1,0,0:0:0:70:LR4_KickGBDV.wav
192,192,141645,1,0,0:0:0:0:
448,192,141705,1,0,0:0:0:0:
320,192,141765,1,0,0:0:0:0:
192,192,141825,1,0,0:0:0:0:
64,192,141885,128,0,142065:0:0:0:100:LR5_HiHat NSynth.wav
448,192,141885,128,0,142065:0:0:0:0:
320,192,142125,1,0,0:0:0:60:LR_CymbalSSD.wav
448,192,142125,1,0,0:0:0:70:LR4_KickGBDV.wav
64,192,142185,1,0,0:0:0:0:
192,192,142245,1,0,0:0:0:0:
320,192,142305,1,0,0:0:0:0:
64,192,142365,128,0,142605:0:0:0:100:LR5_HiHat NSynth.wav
448,192,142365,128,0,142605:0:0:0:0:
192,192,142605,1,0,0:0:0:70:LR4_KickGBDV.wav
320,192,142605,1,0,0:0:0:0:
64,192,142845,128,0,142905:0:0:0:100:LR5_HiHat NSynth.wav
192,192,142845,128,0,142905:0:0:0:0:
64,192,142965,128,0,143025:0:0:0:0:
192,192,142965,128,0,143025:0:0:0:0:
64,192,143085,1,0,0:0:0:60:LR_CymbalSSD.wav
320,192,143085,1,0,0:0:0:100:LR5_HiHat NSynth.wav
448,192,143085,1,0,0:0:0:0:
320,192,143205,1,0,0:0:0:0:
64,192,143325,1,0,0:0:0:100:LR5_HiHat NSynth.wav
192,192,143325,1,0,0:0:0:0:
448,192,143325,1,0,0:0:0:0:
192,192,143445,1,0,0:0:0:0:
64,192,143565,128,0,144405:0:0:0:70:LR4_KickGBDV.wav
320,192,143565,128,0,144405:0:0:0:0:
448,192,143565,128,0,144405:0:0:0:0:
64,192,144525,1,0,0:0:0:60:LR_CymbalSSD.wav
192,192,144525,1,0,0:0:0:0:
320,192,144525,1,0,0:0:0:0:
448,192,144525,1,0,0:0:0:0:
192,192,144765,1,0,0:0:0:70:LR4_KickGBDV.wav
320,192,144765,1,0,0:0:0:0:
64,192,144885,1,0,0:0:0:0:
448,192,144885,1,0,0:0:0:0:
192,192,145005,1,0,0:0:0:0:
64,192,145485,128,0,145785:0:0:0:70:LR4_KickGBDV.wav
320,192,145485,128,0,145785:0:0:0:0:
448,192,145485,128,0,145785:0:0:0:0:
192,192,145845,128,0,146145:0:0:0:0:
320,192,145845,128,0,146145:0:0:0:0:
448,192,145845,128,0,146145:0:0:0:0:
64,192,146205,128,0,146385:0:0:0:70:LR4_KickGBDV.wav
192,192,146205,128,0,146385:0:0:0:0:
320,192,146205,128,0,146385:0:0:0:0:
64,192,146445,128,0,146745:0:0:0:60:LR_CymbalSSD.wav
192,192,146445,128,0,146745:0:0:0:70:LR4_KickGBDV.wav
320,192,146445,1,0,0:0:0:0:
448,192,146445,128,0,146745:0:0:0:0:
64,192,146805,128,0,147105:0:0:0:0:
320,192,146805,128,0,147105:0:0:0:0:
448,192,146805,128,0,147105:0:0:0:0:
64,192,147165,128,0,147345:0:0:0:70:LR4_KickGBDV.wav
192,192,147165,128,0,147345:0:0:0:0:
320,192,147165,128,0,147345:0:0:0:0:
64,192,147405,1,0,0:0:0:70:LR4_KickGBDV.wav
448,192,147405,1,0,0:0:0:0:
320,192,147465,1,0,0:0:0:0:
192,192,147525,1,0,0:0:0:0:
64,192,147585,1,0,0:0:0:0:
448,192,147645,1,0,0:0:0:0:
320,192,147705,1,0,0:0:0:0:
64,192,147765,1,0,0:0:0:0:
192,192,147825,1,0,0:0:0:0:
320,192,147885,1,0,0:0:0:0:
448,192,147945,1,0,0:0:0:0:
64,192,148005,1,0,0:0:0:0:
192,192,148065,1,0,0:0:0:0:
448,192,148125,1,0,0:0:0:0:
320,192,148185,1,0,0:0:0:0:
64,192,148245,1,0,0:0:0:0:
192,192,148305,1,0,0:0:0:0:
64,192,148365,1,0,0:0:0:60:LR_CymbalSSD.wav
320,192,148365,1,0,0:0:0:70:LR4_KickGBDV.wav
448,192,148365,1,0,0:0:0:0:
64,192,148605,1,0,0:0:0:0:
448,192,148605,1,0,0:0:0:0:
192,192,148725,1,0,0:0:0:0:
320,192,148725,1,0,0:0:0:0:
64,192,148845,1,0,0:0:0:0:
448,192,148845,1,0,0:0:0:0:
192,192,149085,1,0,0:0:0:70:LR4_KickGBDV.wav
320,192,149085,1,0,0:0:0:0:
64,192,149325,128,0,149985:0:0:0:70:LR4_KickGBDV.wav
320,192,149325,128,0,149985:0:0:0:0:
448,192,149325,128,0,149985:0:0:0:0:
192,192,150045,128,0,150525:0:0:0:70:LR4_KickGBDV.wav
320,192,150045,128,0,150525:0:0:0:0:
448,192,150045,128,0,150525:0:0:0:0:
64,192,150525,1,0,0:0:0:0:
192,192,150585,1,0,0:0:0:0:
448,192,150645,1,0,0:0:0:0:
320,192,150705,1,0,0:0:0:0:
64,192,150765,1,0,0:0:0:50:LR_Tom Drop.wav
192,192,150765,1,0,0:0:0:0:
64,192,150885,1,0,0:0:0:50:LR_Tom Drop.wav
192,192,150885,1,0,0:0:0:0:
320,192,151005,1,0,0:0:0:50:LR_Tom Drop.wav
448,192,151005,1,0,0:0:0:0:
320,192,151125,1,0,0:0:0:50:LR_Tom Drop.wav
448,192,151125,1,0,0:0:0:0:
64,192,151245,1,0,0:0:0:70:LR4_KickGBDV.wav
448,192,151245,1,0,0:0:0:0:
192,192,151305,1,0,0:0:0:0:
320,192,151365,1,0,0:0:0:0:
448,192,151425,1,0,0:0:0:0:
64,192,151485,1,0,0:0:0:0:
192,192,151545,1,0,0:0:0:0:
448,192,151605,1,0,0:0:0:0:
320,192,151665,1,0,0:0:0:0:
192,192,151725,1,0,0:0:0:0:
64,192,151785,1,0,0:0:0:0:
320,192,151845,1,0,0:0:0:0:
448,192,151905,1,0,0:0:0:0:
192,192,151965,1,0,0:0:0:80:LR5_HiHat NSynth.wav
192,192,152045,1,0,0:0:0:80:LR5_HiHat NSynth.wav
192,192,152125,1,0,0:0:0:80:LR5_HiHat NSynth.wav
64,192,152205,1,0,0:0:0:60:LR_CymbalSSD.wav
320,192,152205,1,0,0:0:0:80:LR5_HiHat NSynth.wav
448,192,152205,1,0,0:0:0:0:
192,192,152445,1,0,0:0:0:70:LR4_KickGBDV.wav
320,192,152445,1,0,0:0:0:0:
64,192,152565,1,0,0:0:0:0:
448,192,152565,1,0,0:0:0:0:
320,192,152685,1,0,0:0:0:0:
64,192,153165,128,0,153465:0:0:0:70:LR4_KickGBDV.wav
192,192,153165,128,0,153465:0:0:0:0:
448,192,153165,128,0,153465:0:0:0:0:
64,192,153525,128,0,153825:0:0:0:0:
320,192,153525,128,0,153825:0:0:0:0:
448,192,153525,128,0,153825:0:0:0:0:
192,192,153885,128,0,154065:0:0:0:70:LR4_KickGBDV.wav
320,192,153885,128,0,154065:0:0:0:0:
448,192,153885,128,0,154065:0:0:0:0:
64,192,154125,128,0,154425:0:0:0:60:LR_CymbalSSD.wav
192,192,154125,128,0,154425:0:0:0:70:LR4_KickGBDV.wav
320,192,154125,1,0,0:0:0:0:
448,192,154125,128,0,154425:0:0:0:0:
192,192,154485,128,0,154785:0:0:0:0:
320,192,154485,128,0,154785:0:0:0:0:
448,192,154485,128,0,154785:0:0:0:0:
64,192,154845,128,0,155025:0:0:0:70:LR4_KickGBDV.wav
192,192,154845,128,0,155025:0:0:0:0:
320,192,154845,128,0,155025:0:0:0:0:
64,192,155085,1,0,0:0:0:70:LR4_KickGBDV.wav
448,192,155085,1,0,0:0:0:0:
192,192,155145,1,0,0:0:0:0:
320,192,155205,1,0,0:0:0:0:
448,192,155265,1,0,0:0:0:0:
64,192,155325,1,0,0:0:0:0:
192,192,155385,1,0,0:0:0:0:
448,192,155445,1,0,0:0:0:0:
320,192,155505,1,0,0:0:0:0:
192,192,155565,1,0,0:0:0:0:
64,192,155625,1,0,0:0:0:0:
448,192,155685,1,0,0:0:0:0:
320,192,155745,1,0,0:0:0:0:
64,192,155805,1,0,0:0:0:0:
192,192,155865,1,0,0:0:0:0:
448,192,155925,1,0,0:0:0:0:
320,192,155985,1,0,0:0:0:0:
64,192,156045,1,0,0:0:0:60:LR_CymbalSSD.wav
192,192,156045,1,0,0:0:0:70:LR4_KickGBDV.wav
448,192,156045,1,0,0:0:0:0:
192,192,156285,1,0,0:0:0:0:
320,192,156285,1,0,0:0:0:0:
64,192,156405,1,0,0:0:0:0:
448,192,156405,1,0,0:0:0:0:
192,192,156525,1,0,0:0:0:0:
320,192,156525,1,0,0:0:0:0:
320,192,156765,1,0,0:0:0:50:LR_Tom Drop.wav
448,192,156765,1,0,0:0:0:0:
64,192,156845,1,0,0:0:0:50:LR_Tom Drop.wav
192,192,156845,1,0,0:0:0:0:
320,192,156925,1,0,0:0:0:50:LR_Tom Drop.wav
448,192,156925,1,0,0:0:0:0:
64,192,157005,128,0,157665:0:0:0:70:LR4_KickGBDV.wav
192,192,157005,128,0,157665:0:0:0:0:
448,192,157005,128,0,157665:0:0:0:0:
64,192,157725,128,0,158865:0:0:0:70:LR4_KickGBDV.wav
192,192,157725,128,0,158865:0:0:0:0:
320,192,157725,128,0,158865:0:0:0:0:
192,192,158925,128,0,159825:0:0:0:70:LR2_KickBassFast2.wav
320,192,158925,128,0,159825:0:0:0:0:
448,192,158925,128,0,159825:0:0:0:0:
64,192,159885,1,0,0:0:0:60:LR_CymbalSSD.wav
192,192,159885,1,0,0:0:0:70:LR2_KickBassFast2.wav
320,192,159885,1,0,0:0:0:0:
448,192,159885,1,0,0:0:0:0:
64,192,160005,1,0,0:0:0:0:
320,192,160125,1,0,0:0:0:0:
192,192,160245,1,0,0:0:0:0:
320,192,160365,1,0,0:0:0:0:
448,192,160365,1,0,0:0:0:0:
64,192,160605,1,0,0:0:0:0:
192,192,160605,1,0,0:0:0:0:
320,192,160845,1,0,0:0:0:0:
64,192,160965,1,0,0:0:0:0:
320,192,161085,1,0,0:0:0:0:
64,192,161205,1,0,0:0:0:0:
192,192,161325,128,0,161745:0:0:0:70:LR2_KickBassFast2.wav
320,192,161325,128,0,161745:0:0:0:0:
448,192,161325,128,0,161745:0:0:0:0:
64,192,161805,1,0,0:0:0:60:LR_CymbalSSD.wav
192,192,161805,1,0,0:0:0:70:LR2_KickBassFast2.wav
320,192,161805,1,0,0:0:0:0:
448,192,161805,1,0,0:0:0:0:
192,192,162045,128,0,162525:0:0:0:70:LR2_KickBassFast2.wav
320,192,162045,128,0,162525:0:0:0:0:
448,192,162045,128,0,162525:0:0:0:0:
64,192,162765,1,0,0:0:0:70:LR2_KickBassFast2.wav
448,192,162765,1,0,0:0:0:0:
192,192,162825,1,0,0:0:0:0:
320,192,162885,1,0,0:0:0:0:
448,192,162945,1,0,0:0:0:0:
192,192,163005,1,0,0:0:0:0:
64,192,163065,1,0,0:0:0:0:
448,192,163125,1,0,0:0:0:0:
320,192,163185,1,0,0:0:0:0:
192,192,163245,1,0,0:0:0:0:
64,192,163305,1,0,0:0:0:0:
320,192,163365,1,0,0:0:0:0:
448,192,163425,1,0,0:0:0:0:
64,192,163485,1,0,0:0:0:0:
192,192,163545,1,0,0:0:0:0:
320,192,163605,1,0,0:0:0:0:
448,192,163665,1,0,0:0:0:0:
64,192,163725,1,0,0:0:0:60:LR_CymbalSSD.wav
192,192,163725,1,0,0:0:0:70:LR2_KickBassFast2.wav
448,192,163845,1,0,0:0:0:0:
192,192,163965,1,0,0:0:0:0:
320,192,164085,1,0,0:0:0:0:
64,192,164205,1,0,0:0:0:0:
192,192,164205,1,0,0:0:0:0:
320,192,164445,1,0,0:0:0:0:
448,192,164445,1,0,0:0:0:0:
192,192,164685,1,0,0:0:0:0:
192,192,164805,1,0,0:0:0:0:
320,192,164925,1,0,0:0:0:0:
320,192,165045,1,0,0:0:0:0:
64,192,165165,128,0,165585:0:0:0:70:LR2_KickBassFast2.wav
192,192,165165,128,0,165585:0:0:0:0:
448,192,165165,128,0,165585:0:0:0:0:
64,192,165645,1,0,0:0:0:60:LR_CymbalSSD.wav
192,192,165645,1,0,0:0:0:70:LR2_KickBassFast2.wav
320,192,165645,1,0,0:0:0:0:
448,192,165645,1,0,0:0:0:0:
64,192,165885,128,0,166365:0:0:0:70:LR2_KickBassFast2.wav
320,192,165885,128,0,166365:0:0:0:0:
448,192,165885,128,0,166365:0:0:0:0:
64,192,166605,1,0,0:0:0:70:LR2_KickBassFast2.wav
448,192,166605,1,0,0:0:0:0:
320,192,166665,1,0,0:0:0:0:
192,192,166725,1,0,0:0:0:0:
64,192,166785,1,0,0:0:0:0:
448,192,166845,1,0,0:0:0:0:
320,192,166905,1,0,0:0:0:0:
64,192,166965,1,0,0:0:0:0:
192,192,167025,1,0,0:0:0:0:
320,192,167085,1,0,0:0:0:0:
448,192,167145,1,0,0:0:0:0:
64,192,167205,1,0,0:0:0:0:
192,192,167265,1,0,0:0:0:0:
448,192,167325,1,0,0:0:0:0:
320,192,167385,1,0,0:0:0:0:
192,192,167445,1,0,0:0:0:0:
64,192,167505,1,0,0:0:0:0:
320,192,167565,1,0,0:0:0:60:LR_CymbalSSD.wav
448,192,167565,1,0,0:0:0:70:LR2_KickBassFast2.wav
64,192,167685,1,0,0:0:0:0:
320,192,167805,1,0,0:0:0:0:
192,192,167925,1,0,0:0:0:0:
320,192,168045,1,0,0:0:0:0:
448,192,168045,1,0,0:0:0:0:
64,192,168285,1,0,0:0:0:0:
192,192,168285,1,0,0:0:0:0:
192,192,168525,1,0,0:0:0:0:
448,192,168645,1,0,0:0:0:0:
192,192,168765,1,0,0:0:0:0:
448,192,168885,1,0,0:0:0:0:
64,192,169005,128,0,169425:0:0:0:70:LR2_KickBassFast2.wav
192,192,169005,128,0,169425:0:0:0:0:
320,192,169005,128,0,169425:0:0:0:0:
64,192,169485,1,0,0:0:0:60:LR_CymbalSSD.wav
192,192,169485,1,0,0:0:0:70:LR2_KickBassFast2.wav
320,192,169485,1,0,0:0:0:0:
448,192,169485,1,0,0:0:0:0:
64,192,169725,128,0,170205:0:0:0:70:LR2_KickBassFast2.wav
192,192,169725,128,0,170205:0:0:0:0:
320,192,169725,128,0,170205:0:0:0:0:
64,192,170445,1,0,0:0:0:70:LR2_KickBassFast2.wav
448,192,170445,1,0,0:0:0:0:
192,192,170505,1,0,0:0:0:0:
320,192,170565,1,0,0:0:0:0:
448,192,170625,1,0,0:0:0:0:
192,192,170685,1,0,0:0:0:0:
64,192,170745,1,0,0:0:0:0:
448,192,170805,1,0,0:0:0:0:
320,192,170865,1,0,0:0:0:0:
192,192,170925,1,0,0:0:0:0:
64,192,170985,1,0,0:0:0:0:
320,192,171045,1,0,0:0:0:0:
448,192,171105,1,0,0:0:0:0:
64,192,171165,1,0,0:0:0:0:
192,192,171225,1,0,0:0:0:0:
320,192,171285,1,0,0:0:0:0:
448,192,171345,1,0,0:0:0:0:
64,192,171405,1,0,0:0:0:60:LR_CymbalSSD.wav
192,192,171405,1,0,0:0:0:70:LR2_KickBassFast2.wav
448,192,171525,1,0,0:0:0:0:
192,192,171645,1,0,0:0:0:0:
320,192,171765,1,0,0:0:0:0:
64,192,171885,1,0,0:0:0:0:
192,192,171885,1,0,0:0:0:0:
320,192,172125,1,0,0:0:0:0:
448,192,172125,1,0,0:0:0:0:
320,192,172365,1,0,0:0:0:0:
320,192,172485,1,0,0:0:0:0:
192,192,172605,1,0,0:0:0:0:
192,192,172725,1,0,0:0:0:0:
64,192,172845,128,0,173265:0:0:0:70:LR2_KickBassFast2.wav
320,192,172845,128,0,173265:0:0:0:0:
448,192,172845,128,0,173265:0:0:0:0:
64,192,173325,1,0,0:0:0:60:LR_CymbalSSD.wav
192,192,173325,1,0,0:0:0:70:LR2_KickBassFast2.wav
320,192,173325,1,0,0:0:0:0:
448,192,173325,1,0,0:0:0:0:
64,192,173565,128,0,174285:0:0:0:70:LR2_KickBassFast2.wav
192,192,173565,1,0,0:0:0:0:
448,192,173565,128,0,174285:0:0:0:0:
192,192,174285,128,0,178125:0:0:0:70:LR_CymbalG.wav
320,192,174285,128,0,178125:0:0:0:70:LR2_KickBassFast2.wav
