osu file format v14

[General]
AudioFilename: audio.mp3
AudioLeadIn: 0
PreviewTime: 34065
Countdown: 0
SampleSet: Soft
StackLeniency: 0.7
Mode: 3
LetterboxInBreaks: 0
SpecialStyle: 0
WidescreenStoryboard: 0

[Editor]
DistanceSpacing: 2
BeatDivisor: 8
GridSize: 16
TimelineZoom: 1.1

[Metadata]
Title:Lost (feat. Savoi) [Sunroof Remix]
TitleUnicode:Lost (feat. Savoi) [Sunroof Remix]
Artist:Kontinuum
ArtistUnicode:Kontinuum
Creator:Dreamwalker
Version:Emotional Drift
Source:
Tags:Fontes Lastopia Otakujanai NoCopyrightSounds NCS house
BeatmapID:1321781
BeatmapSetID:624059

[Difficulty]
HPDrainRate:8.8
CircleSize:4
OverallDifficulty:8
ApproachRate:5
SliderMultiplier:1.4
SliderTickRate:1

[Events]
//Background and Video events
0,0,"lost.jpg",0,0
//Break Periods
2,65045,79005
//Storyboard Layer 0 (Background)
//Storyboard Layer 1 (Fail)
//Storyboard Layer 2 (Pass)
//Storyboard Layer 3 (Foreground)
//Storyboard Sound Samples
Sample,52365,0,"LR4_KickGBDV.wav",70
Sample,60045,0,"LR4_KickGBDV.wav",70
Sample,146445,0,"LR4_KickGBDV.wav",70
Sample,154125,0,"LR4_KickGBDV.wav",70

[TimingPoints]
1485,480,4,2,1,40,1,0
1486,-250,4,2,1,40,0,0
7305,-239.583333333333,4,2,1,40,0,0
7335,-230,4,2,1,40,0,0
7365,-221.153846153846,4,2,1,40,0,0
7395,-212.962962962963,4,2,1,40,0,0
7425,-205.357142857143,4,2,1,40,0,0
7455,-198.275862068965,4,2,1,40,0,0
7485,-191.666666666667,4,2,1,40,0,0
7515,-185.483870967742,4,2,1,40,0,0
7545,-179.6875,4,2,1,40,0,0
7575,-174.242424242424,4,2,1,40,0,0
7605,-169.117647058824,4,2,1,40,0,0
7635,-164.285714285714,4,2,1,40,0,0
7665,-159.722222222222,4,2,1,40,0,0
7695,-155.405405405405,4,2,1,40,0,0
7725,-151.315789473684,4,2,1,40,0,0
7755,-147.435897435897,4,2,1,40,0,0
7785,-143.75,4,2,1,40,0,0
7815,-140.243902439024,4,2,1,40,0,0
7845,-136.904761904762,4,2,1,40,0,0
7875,-133.720930232558,4,2,1,40,0,0
7905,-130.681818181818,4,2,1,40,0,0
7935,-127.777777777778,4,2,1,40,0,0
7965,-125,4,2,1,40,0,0
11085,-250,4,2,1,40,0,0
12045,-250,4,2,1,40,0,0
12105,-248.344370860927,4,2,1,40,0,0
12165,-243.506493506494,4,2,1,40,0,0
12225,-235.849056603774,4,2,1,40,0,0
12285,-225.903614457831,4,2,1,40,0,0
12345,-214.285714285714,4,2,1,40,0,0
12405,-201.612903225806,4,2,1,40,0,0
12465,-188.442211055276,4,2,1,40,0,0
12525,-175.233644859813,4,2,1,40,0,0
12585,-162.337662337662,4,2,1,40,0,0
12645,-150,4,2,1,40,0,0
12705,-138.376383763838,4,2,1,40,0,0
12765,-127.551020408163,4,2,1,40,0,0
12825,-117.554858934169,4,2,1,40,0,0
12885,-108.381502890173,4,2,1,40,0,0
12945,-100,4,2,1,40,0,0
13005,-40,4,2,1,40,0,0
13065,-333.333333333333,4,2,1,40,0,0
13245,-62.5,4,2,1,40,0,0
13305,-142.857142857143,4,2,1,40,0,0
13485,-47.6190476190476,4,2,1,40,0,0
13545,-200,4,2,1,40,0,0
13725,-40,4,2,1,40,0,0
13785,-333.333333333333,4,2,1,40,0,0
13965,-62.5,4,2,1,40,0,0
14025,-166.666666666667,4,2,1,40,0,0
14205,-66.6666666666667,4,2,1,40,0,0
14265,-200,4,2,1,40,0,0
14325,-76.9230769230769,4,2,1,40,0,0
14385,-142.857142857143,4,2,1,40,0,0
14445,-40,4,2,1,40,0,0
14505,-333.333333333333,4,2,1,40,0,0
14685,-52.6315789473684,4,2,1,40,0,0
14745,-200,4,2,1,40,0,0
14925,-62.5,4,2,1,40,0,0
14985,-166.666666666667,4,2,1,40,0,0
15165,-25,4,2,1,40,0,0
15225,-500,4,2,1,40,0,0
16365,-454.545454545455,4,2,1,40,0,0
16425,-400,4,2,1,40,0,0
16485,-344.827586206897,4,2,1,40,0,0
16545,-285.714285714286,4,2,1,40,0,0
16605,-227.272727272727,4,2,1,40,0,0
16665,-181.818181818182,4,2,1,40,0,0
16725,-147.058823529412,4,2,1,40,0,0
16785,-120.481927710843,4,2,1,40,0,0
16845,-100,4,2,1,40,0,0
24525,-45.4545454545455,4,2,1,40,0,0
24555,-166.666666666667,4,2,1,40,0,0
24645,-100,4,2,1,40,0,0
24765,-45.4545454545455,4,2,1,40,0,0
24795,-166.666666666667,4,2,1,40,0,0
24885,-100,4,2,1,40,0,0
25005,-45.4545454545455,4,2,1,40,0,0
25035,-166.666666666667,4,2,1,40,0,0
25125,-100,4,2,1,40,0,0
25245,-45.4545454545455,4,2,1,40,0,0
25275,-166.666666666667,4,2,1,40,0,0
25365,-100,4,2,1,40,0,0
25485,-45.4545454545455,4,2,1,40,0,0
25515,-166.666666666667,4,2,1,40,0,0
25605,-100,4,2,1,40,0,0
25725,-45.4545454545455,4,2,1,40,0,0
25755,-166.666666666667,4,2,1,40,0,0
25845,-100,4,2,1,40,0,0
25965,-45.4545454545455,4,2,1,40,0,0
25995,-166.666666666667,4,2,1,40,0,0
26085,-100,4,2,1,40,0,0
26205,-45.4545454545455,4,2,1,40,0,0
26235,-166.666666666667,4,2,1,40,0,0
26325,-100,4,2,1,40,0,0
26445,-45.4545454545455,4,2,1,40,0,0
26475,-166.666666666667,4,2,1,40,0,0
26565,-100,4,2,1,40,0,0
26685,-45.4545454545455,4,2,1,40,0,0
26715,-166.666666666667,4,2,1,40,0,0
26805,-100,4,2,1,40,0,0
26925,-45.4545454545455,4,2,1,40,0,0
26955,-166.666666666667,4,2,1,40,0,0
27045,-100,4,2,1,40,0,0
27165,-45.4545454545455,4,2,1,40,0,0
27195,-166.666666666667,4,2,1,40,0,0
27285,-100,4,2,1,40,0,0
27405,-45.4545454545455,4,2,1,40,0,0
27435,-166.666666666667,4,2,1,40,0,0
27525,-100,4,2,1,40,0,0
27645,-45.4545454545455,4,2,1,40,0,0
27675,-166.666666666667,4,2,1,40,0,0
27765,-100,4,2,1,40,0,0
27885,-45.4545454545455,4,2,1,40,0,0
27915,-166.666666666667,4,2,1,40,0,0
28005,-100,4,2,1,40,0,0
28125,-62.5,4,2,1,40,0,0
28155,-250.000000000001,4,2,1,40,0,0
28185,-62.5,4,2,1,40,0,0
28215,-250.000000000001,4,2,1,40,0,0
28245,-62.5,4,2,1,40,0,0
28275,-250.000000000001,4,2,1,40,0,0
28305,-62.5,4,2,1,40,0,0
28335,-250.000000000001,4,2,1,40,0,0
28365,-45.4545454545455,4,2,1,40,0,0
28395,-166.666666666667,4,2,1,40,0,0
28485,-45.4545454545455,4,2,1,40,0,0
28515,-166.666666666667,4,2,1,40,0,0
28605,-45.4545454545455,4,2,1,40,0,0
28635,-166.666666666667,4,2,1,40,0,0
28725,-45.4545454545455,4,2,1,40,0,0
28755,-166.666666666667,4,2,1,40,0,0
28845,-45.4545454545455,4,2,1,40,0,0
28875,-166.666666666667,4,2,1,40,0,0
28965,-45.4545454545455,4,2,1,40,0,0
28995,-166.666666666667,4,2,1,40,0,0
29085,-45.4545454545455,4,2,1,40,0,0
29115,-166.666666666667,4,2,1,40,0,0
29205,-45.4545454545455,4,2,1,40,0,0
29235,-166.666666666667,4,2,1,40,0,0
29325,-45.4545454545455,4,2,1,40,0,0
29355,-166.666666666667,4,2,1,40,0,0
29445,-45.4545454545455,4,2,1,40,0,0
29475,-166.666666666667,4,2,1,40,0,0
29565,-45.4545454545455,4,2,1,40,0,0
29595,-166.666666666667,4,2,1,40,0,0
29685,-45.4545454545455,4,2,1,40,0,0
29715,-166.666666666667,4,2,1,40,0,0
29805,-45.4545454545455,4,2,1,40,0,0
29835,-166.666666666667,4,2,1,40,0,0
29925,-45.4545454545455,4,2,1,40,0,0
29955,-166.666666666667,4,2,1,40,0,0
30045,-45.4545454545455,4,2,1,40,0,0
30075,-166.666666666667,4,2,1,40,0,0
30165,-45.4545454545455,4,2,1,40,0,0
30195,-166.666666666667,4,2,1,40,0,0
30285,-62.5,4,2,1,40,0,0
30315,-250,4,2,1,40,0,0
30345,-62.5,4,2,1,40,0,0
30375,-250,4,2,1,40,0,0
30405,-62.5,4,2,1,40,0,0
30435,-250,4,2,1,40,0,0
30465,-62.5,4,2,1,40,0,0
30495,-250,4,2,1,40,0,0
30525,-62.5,4,2,1,40,0,0
30555,-250,4,2,1,40,0,0
30585,-62.5,4,2,1,40,0,0
30615,-250,4,2,1,40,0,0
30645,-62.5,4,2,1,40,0,0
30675,-250,4,2,1,40,0,0
30705,-62.5,4,2,1,40,0,0
30735,-250,4,2,1,40,0,0
30765,-62.5,4,2,1,40,0,0
30795,-250,4,2,1,40,0,0
30825,-62.5,4,2,1,40,0,0
30855,-250,4,2,1,40,0,0
30885,-62.5,4,2,1,40,0,0
30915,-250,4,2,1,40,0,0
30945,-62.5,4,2,1,40,0,0
30975,-250,4,2,1,40,0,0
31005,-62.5,4,2,1,40,0,0
31035,-250,4,2,1,40,0,0
31065,-62.5,4,2,1,40,0,0
31095,-250,4,2,1,40,0,0
31125,-62.5,4,2,1,40,0,0
31155,-250,4,2,1,40,0,0
31185,-62.5,4,2,1,40,0,0
31215,-250,4,2,1,40,0,0
31245,-62.5,4,2,1,40,0,0
31275,-250,4,2,1,40,0,0
31305,-62.5,4,2,1,40,0,0
31335,-250,4,2,1,40,0,0
31365,-62.5,4,2,1,40,0,0
31395,-250,4,2,1,40,0,0
31425,-62.5,4,2,1,40,0,0
31455,-250,4,2,1,40,0,0
31485,-62.5,4,2,1,40,0,0
31515,-250,4,2,1,40,0,0
31545,-62.5,4,2,1,40,0,0
31575,-250,4,2,1,40,0,0
31605,-62.5,4,2,1,40,0,0
31635,-250,4,2,1,40,0,0
31665,-62.5,4,2,1,40,0,0
31695,-250,4,2,1,40,0,0
31725,-62.5,4,2,1,40,0,0
31755,-250,4,2,1,40,0,0
31785,-62.5,4,2,1,40,0,0
31815,-250,4,2,1,40,0,0
31845,-62.5,4,2,1,40,0,0
31875,-250,4,2,1,40,0,0
31905,-62.5,4,2,1,40,0,0
31935,-250,4,2,1,40,0,0
31965,-62.5,4,2,1,40,0,0
31995,-250,4,2,1,40,0,0
32025,-62.5,4,2,1,40,0,0
32055,-250,4,2,1,40,0,0
32085,-62.5,4,2,1,40,0,0
32115,-250,4,2,1,40,0,0
32145,-62.5,4,2,1,40,0,0
32175,-250,4,2,1,40,0,0
32205,-25,4,2,1,40,0,0
32235,-500,4,2,1,40,0,0
32985,-454.545454545455,4,2,1,40,0,0
33045,-400,4,2,1,40,0,0
33105,-344.827586206897,4,2,1,40,0,0
33165,-285.714285714286,4,2,1,40,0,0
33225,-227.272727272727,4,2,1,40,0,0
33285,-181.818181818182,4,2,1,40,0,0
33345,-147.058823529412,4,2,1,40,0,0
33405,-120.481927710843,4,2,1,40,0,0
33465,-100,4,2,1,40,0,0
33525,-71.4285714285714,4,2,1,40,0,0
33585,-166.666666666667,4,2,1,40,0,0
33645,-62.5,4,2,1,40,0,0
33705,-250.000000000001,4,2,1,40,0,0
33765,-66.6666666666667,4,2,1,40,0,0
33825,-200,4,2,1,40,0,0
33885,-71.4285714285714,4,2,1,40,0,0
33945,-166.666666666667,4,2,1,40,0,0
34125,-58.8235294117647,4,2,1,40,0,1
34155,-1000,4,2,1,40,0,1
34185,-58.8235294117647,4,2,1,40,0,1
34215,-1000,4,2,1,40,0,1
34245,-58.8235294117647,4,2,1,40,0,1
34275,-1000,4,2,1,40,0,1
34305,-58.8235294117647,4,2,1,40,0,1
34335,-1000,4,2,1,40,0,1
34365,-58.8235294117647,4,2,1,40,0,1
34395,-1000,4,2,1,40,0,1
34425,-58.8235294117647,4,2,1,40,0,1
34455,-1000,4,2,1,40,0,1
34485,-58.8235294117647,4,2,1,40,0,1
34515,-1000,4,2,1,40,0,1
34545,-58.8235294117647,4,2,1,40,0,1
34575,-1000,4,2,1,40,0,1
34605,-45.4545454545455,4,2,1,40,0,1
34665,-200,4,2,1,40,0,1
34845,-100,4,2,1,40,0,1
35085,-40,4,2,1,40,0,1
35115,-250,4,2,1,40,0,1
35205,-40,4,2,1,40,0,1
35235,-250,4,2,1,40,0,1
35325,-40,4,2,1,40,0,1
35355,-250,4,2,1,40,0,1
35445,-40,4,2,1,40,0,1
35475,-250,4,2,1,40,0,1
35565,-60.6060606060606,4,2,1,40,0,1
35625,-500,4,2,1,40,0,1
35685,-60.6060606060606,4,2,1,40,0,1
35745,-500,4,2,1,40,0,1
35805,-60.6060606060606,4,2,1,40,0,1
35865,-500,4,2,1,40,0,1
35925,-60.6060606060606,4,2,1,40,0,1
35985,-500,4,2,1,40,0,1
36045,-58.8235294117647,4,2,1,40,0,1
36075,-1000,4,2,1,40,0,1
36105,-58.8235294117647,4,2,1,40,0,1
36135,-1000,4,2,1,40,0,1
36165,-58.8235294117647,4,2,1,40,0,1
36195,-1000,4,2,1,40,0,1
36225,-58.8235294117647,4,2,1,40,0,1
36255,-1000,4,2,1,40,0,1
36285,-58.8235294117647,4,2,1,40,0,1
36315,-1000,4,2,1,40,0,1
36345,-58.8235294117647,4,2,1,40,0,1
36375,-1000,4,2,1,40,0,1
36405,-58.8235294117647,4,2,1,40,0,1
36435,-1000,4,2,1,40,0,1
36465,-58.8235294117647,4,2,1,40,0,1
36495,-1000,4,2,1,40,0,1
36525,-45.4545454545455,4,2,1,40,0,1
36585,-200,4,2,1,40,0,1
36765,-100,4,2,1,40,0,1
37005,-40,4,2,1,40,0,1
37035,-250,4,2,1,40,0,1
37125,-40,4,2,1,40,0,1
37155,-250,4,2,1,40,0,1
37245,-40,4,2,1,40,0,1
37275,-250,4,2,1,40,0,1
37365,-40,4,2,1,40,0,1
37395,-250,4,2,1,40,0,1
37485,-60.6060606060606,4,2,1,40,0,1
37545,-500,4,2,1,40,0,1
37605,-60.6060606060606,4,2,1,40,0,1
37665,-500,4,2,1,40,0,1
37725,-60.6060606060606,4,2,1,40,0,1
37785,-500,4,2,1,40,0,1
37845,-60.6060606060606,4,2,1,40,0,1
37905,-500,4,2,1,40,0,1
37965,-58.8235294117647,4,2,1,40,0,1
37995,-1000,4,2,1,40,0,1
38025,-58.8235294117647,4,2,1,40,0,1
38055,-1000,4,2,1,40,0,1
38085,-58.8235294117647,4,2,1,40,0,1
38115,-1000,4,2,1,40,0,1
38145,-58.8235294117647,4,2,1,40,0,1
38175,-1000,4,2,1,40,0,1
38205,-58.8235294117647,4,2,1,40,0,1
38235,-1000,4,2,1,40,0,1
38265,-58.8235294117647,4,2,1,40,0,1
38295,-1000,4,2,1,40,0,1
38325,-58.8235294117647,4,2,1,40,0,1
38355,-1000,4,2,1,40,0,1
38385,-58.8235294117647,4,2,1,40,0,1
38415,-1000,4,2,1,40,0,1
38445,-45.4545454545455,4,2,1,40,0,1
38505,-200,4,2,1,40,0,1
38685,-100,4,2,1,40,0,1
38925,-40,4,2,1,40,0,1
38955,-250,4,2,1,40,0,1
39045,-107.52688172043,4,2,1,40,0,1
39165,-40,4,2,1,40,0,1
39195,-250,4,2,1,40,0,1
39285,-40,4,2,1,40,0,1
39315,-250,4,2,1,40,0,1
39405,-60.6060606060606,4,2,1,40,0,1
39465,-500,4,2,1,40,0,1
39525,-60.6060606060606,4,2,1,40,0,1
39585,-500,4,2,1,40,0,1
39645,-60.6060606060606,4,2,1,40,0,1
39705,-500,4,2,1,40,0,1
39765,-60.6060606060606,4,2,1,40,0,1
39825,-500,4,2,1,40,0,1
39885,-52.6315789473684,4,2,1,40,0,1
39915,-1000,4,2,1,40,0,1
39945,-52.6315789473684,4,2,1,40,0,1
39975,-1000,4,2,1,40,0,1
40005,-52.6315789473684,4,2,1,40,0,1
40035,-1000,4,2,1,40,0,1
40065,-52.6315789473684,4,2,1,40,0,1
40095,-1000,4,2,1,40,0,1
40125,-52.6315789473684,4,2,1,40,0,1
40155,-1000,4,2,1,40,0,1
40185,-52.6315789473684,4,2,1,40,0,1
40215,-1000,4,2,1,40,0,1
40245,-52.6315789473684,4,2,1,40,0,1
40275,-1000,4,2,1,40,0,1
40305,-52.6315789473684,4,2,1,40,0,1
40335,-1000,4,2,1,40,0,1
40365,-45.4545454545455,4,2,1,40,0,1
40425,-166.666666666667,4,2,1,40,0,1
40605,-100,4,2,1,40,0,1
40845,-55.5555555555556,4,2,1,40,0,1
40905,-166.666666666667,4,2,1,40,0,1
41025,-100,4,2,1,40,0,1
41085,-55.5555555555556,4,2,1,40,0,1
41145,-166.666666666667,4,2,1,40,0,1
41265,-100,4,2,1,40,0,1
41325,-33.3333333333333,4,2,1,40,0,1
41385,-333.333333333333,4,2,1,40,0,1
41565,-50,4,2,1,40,0,1
41625,-100,4,2,1,40,0,1
41685,-200,4,2,1,40,0,1
41805,-58.8235294117647,4,2,1,40,0,1
41835,-1000,4,2,1,40,0,1
41865,-58.8235294117647,4,2,1,40,0,1
41895,-1000,4,2,1,40,0,1
41925,-58.8235294117647,4,2,1,40,0,1
41955,-1000,4,2,1,40,0,1
41985,-58.8235294117647,4,2,1,40,0,1
42015,-1000,4,2,1,40,0,1
42045,-58.8235294117647,4,2,1,40,0,1
42075,-1000,4,2,1,40,0,1
42105,-58.8235294117647,4,2,1,40,0,1
42135,-1000,4,2,1,40,0,1
42165,-58.8235294117647,4,2,1,40,0,1
42195,-1000,4,2,1,40,0,1
42225,-58.8235294117647,4,2,1,40,0,1
42255,-1000,4,2,1,40,0,1
42285,-45.4545454545455,4,2,1,40,0,1
42345,-200.000000000001,4,2,1,40,0,1
42525,-100,4,2,1,40,0,1
42765,-40,4,2,1,40,0,1
42795,-250,4,2,1,40,0,1
42885,-40,4,2,1,40,0,1
42915,-250,4,2,1,40,0,1
43005,-40,4,2,1,40,0,1
43035,-250,4,2,1,40,0,1
43125,-40,4,2,1,40,0,1
43155,-250,4,2,1,40,0,1
43245,-60.6060606060606,4,2,1,40,0,1
43305,-500,4,2,1,40,0,1
43365,-60.6060606060606,4,2,1,40,0,1
43425,-500,4,2,1,40,0,1
43485,-60.6060606060606,4,2,1,40,0,1
43545,-500,4,2,1,40,0,1
43605,-60.6060606060606,4,2,1,40,0,1
43665,-500,4,2,1,40,0,1
43725,-58.8235294117647,4,2,1,40,0,1
43755,-1000,4,2,1,40,0,1
43785,-58.8235294117647,4,2,1,40,0,1
43815,-1000,4,2,1,40,0,1
43845,-58.8235294117647,4,2,1,40,0,1
43875,-1000,4,2,1,40,0,1
43905,-58.8235294117647,4,2,1,40,0,1
43935,-1000,4,2,1,40,0,1
43965,-58.8235294117647,4,2,1,40,0,1
43995,-1000,4,2,1,40,0,1
44025,-58.8235294117647,4,2,1,40,0,1
44055,-1000,4,2,1,40,0,1
44085,-58.8235294117647,4,2,1,40,0,1
44115,-1000,4,2,1,40,0,1
44145,-58.8235294117647,4,2,1,40,0,1
44175,-1000,4,2,1,40,0,1
44205,-45.4545454545455,4,2,1,40,0,1
44265,-200.000000000001,4,2,1,40,0,1
44445,-100,4,2,1,40,0,1
44685,-40,4,2,1,40,0,1
44715,-250,4,2,1,40,0,1
44805,-40,4,2,1,40,0,1
44835,-250,4,2,1,40,0,1
44925,-40,4,2,1,40,0,1
44955,-250,4,2,1,40,0,1
45045,-40,4,2,1,40,0,1
45075,-250,4,2,1,40,0,1
45165,-60.6060606060606,4,2,1,40,0,1
45225,-500,4,2,1,40,0,1
45285,-60.6060606060606,4,2,1,40,0,1
45345,-500,4,2,1,40,0,1
45405,-60.6060606060606,4,2,1,40,0,1
45465,-500,4,2,1,40,0,1
45525,-60.6060606060606,4,2,1,40,0,1
45585,-500,4,2,1,40,0,1
45645,-58.8235294117647,4,2,1,40,0,1
45675,-1000,4,2,1,40,0,1
45705,-58.8235294117647,4,2,1,40,0,1
45735,-1000,4,2,1,40,0,1
45765,-58.8235294117647,4,2,1,40,0,1
45795,-1000,4,2,1,40,0,1
45825,-58.8235294117647,4,2,1,40,0,1
45855,-1000,4,2,1,40,0,1
45885,-58.8235294117647,4,2,1,40,0,1
45915,-1000,4,2,1,40,0,1
45945,-58.8235294117647,4,2,1,40,0,1
45975,-1000,4,2,1,40,0,1
46005,-58.8235294117647,4,2,1,40,0,1
46035,-1000,4,2,1,40,0,1
46065,-58.8235294117647,4,2,1,40,0,1
46095,-1000,4,2,1,40,0,1
46125,-45.4545454545455,4,2,1,40,0,1
46185,-200.000000000001,4,2,1,40,0,1
46365,-100,4,2,1,40,0,1
46605,-40,4,2,1,40,0,1
46635,-250,4,2,1,40,0,1
46725,-107.52688172043,4,2,1,40,0,1
46845,-40,4,2,1,40,0,1
46875,-250,4,2,1,40,0,1
46965,-40,4,2,1,40,0,1
46995,-250,4,2,1,40,0,1
47085,-60.6060606060606,4,2,1,40,0,1
47145,-500,4,2,1,40,0,1
47205,-60.6060606060606,4,2,1,40,0,1
47265,-500,4,2,1,40,0,1
47325,-60.6060606060606,4,2,1,40,0,1
47385,-500,4,2,1,40,0,1
47445,-60.6060606060606,4,2,1,40,0,1
47505,-500,4,2,1,40,0,1
47565,-52.6315789473684,4,2,1,40,0,1
47595,-1000,4,2,1,40,0,1
47625,-52.6315789473684,4,2,1,40,0,1
47655,-1000,4,2,1,40,0,1
47685,-52.6315789473684,4,2,1,40,0,1
47715,-1000,4,2,1,40,0,1
47745,-52.6315789473684,4,2,1,40,0,1
47775,-1000,4,2,1,40,0,1
47805,-52.6315789473684,4,2,1,40,0,1
47835,-1000,4,2,1,40,0,1
47865,-52.6315789473684,4,2,1,40,0,1
47895,-1000,4,2,1,40,0,1
47925,-52.6315789473684,4,2,1,40,0,1
47955,-1000,4,2,1,40,0,1
47985,-52.6315789473684,4,2,1,40,0,1
48015,-1000,4,2,1,40,0,1
48045,-45.4545454545455,4,2,1,40,0,1
48105,-166.666666666667,4,2,1,40,0,1
48285,-100,4,2,1,40,0,1
48525,-45.4545454545455,4,2,1,40,0,1
48585,-200,4,2,1,40,0,1
48765,-45.4545454545455,4,2,1,40,0,1
48825,-200,4,2,1,40,0,1
49005,-33.3333333333333,4,2,1,40,0,1
49065,-333.333333333333,4,2,1,40,0,1
49245,-45.4545454545455,4,2,1,40,0,1
49305,-166.666666666667,4,2,1,40,0,1
49485,-52.6315789473684,4,2,1,40,0,0
49515,-1000,4,2,1,40,0,0
49545,-52.6315789473684,4,2,1,40,0,0
49575,-1000,4,2,1,40,0,0
49605,-52.6315789473684,4,2,1,40,0,0
49635,-1000,4,2,1,40,0,0
49665,-52.6315789473684,4,2,1,40,0,0
49695,-1000,4,2,1,40,0,0
49725,-52.6315789473684,4,2,1,40,0,0
49755,-1000,4,2,1,40,0,0
49785,-52.6315789473684,4,2,1,40,0,0
49815,-1000,4,2,1,40,0,0
49845,-52.6315789473684,4,2,1,40,0,0
49875,-1000,4,2,1,40,0,0
49905,-52.6315789473684,4,2,1,40,0,0
49935,-1000,4,2,1,40,0,0
49965,-52.6315789473684,4,2,1,40,0,0
49995,-1000,4,2,1,40,0,0
50025,-52.6315789473684,4,2,1,40,0,0
50055,-1000,4,2,1,40,0,0
50085,-52.6315789473684,4,2,1,40,0,0
50115,-1000,4,2,1,40,0,0
50145,-52.6315789473684,4,2,1,40,0,0
50175,-1000,4,2,1,40,0,0
50205,-52.6315789473684,4,2,1,40,0,0
50235,-1000,4,2,1,40,0,0
50265,-52.6315789473684,4,2,1,40,0,0
50295,-1000,4,2,1,40,0,0
50325,-52.6315789473684,4,2,1,40,0,0
50355,-1000,4,2,1,40,0,0
50385,-52.6315789473684,4,2,1,40,0,0
50415,-1000,4,2,1,40,0,0
50445,-45.4545454545455,4,2,1,40,0,0
50475,-166.666666666667,4,2,1,40,0,0
50565,-100,4,2,1,40,0,0
50685,-45.4545454545455,4,2,1,40,0,0
50715,-166.666666666667,4,2,1,40,0,0
50805,-100,4,2,1,40,0,0
53085,-45.4545454545455,4,2,1,40,0,0
53145,-166.666666666667,4,2,1,40,0,0
53325,-52.6315789473684,4,2,1,40,0,0
53355,-1000,4,2,1,40,0,0
53385,-52.6315789473684,4,2,1,40,0,0
53415,-1000,4,2,1,40,0,0
53445,-52.6315789473684,4,2,1,40,0,0
53475,-1000,4,2,1,40,0,0
53505,-52.6315789473684,4,2,1,40,0,0
53535,-1000,4,2,1,40,0,0
53565,-52.6315789473684,4,2,1,40,0,0
53595,-1000,4,2,1,40,0,0
53625,-52.6315789473684,4,2,1,40,0,0
53655,-1000,4,2,1,40,0,0
53685,-52.6315789473684,4,2,1,40,0,0
53715,-1000,4,2,1,40,0,0
53745,-52.6315789473684,4,2,1,40,0,0
53775,-1000,4,2,1,40,0,0
53805,-52.6315789473684,4,2,1,40,0,0
53835,-1000,4,2,1,40,0,0
53865,-52.6315789473684,4,2,1,40,0,0
53895,-1000,4,2,1,40,0,0
53925,-52.6315789473684,4,2,1,40,0,0
53955,-1000,4,2,1,40,0,0
53985,-52.6315789473684,4,2,1,40,0,0
54015,-1000,4,2,1,40,0,0
54045,-52.6315789473684,4,2,1,40,0,0
54075,-1000,4,2,1,40,0,0
54105,-52.6315789473684,4,2,1,40,0,0
54135,-1000,4,2,1,40,0,0
54165,-52.6315789473684,4,2,1,40,0,0
54195,-1000,4,2,1,40,0,0
54225,-52.6315789473684,4,2,1,40,0,0
54255,-1000,4,2,1,40,0,0
54285,-166.666666666667,4,2,1,40,0,0
54375,-45.4545454545455,4,2,1,40,0,0
54405,-166.666666666667,4,2,1,40,0,0
54495,-45.4545454545455,4,2,1,40,0,0
54525,-166.666666666667,4,2,1,40,0,0
54615,-45.4545454545455,4,2,1,40,0,0
54645,-166.666666666667,4,2,1,40,0,0
54735,-45.4545454545455,4,2,1,40,0,0
54765,-125,4,2,1,40,0,0
55005,-40,4,2,1,40,0,0
55065,-200,4,2,1,40,0,0
55245,-100,4,2,1,40,0,0
56685,-40,4,2,1,40,0,0
56715,-250,4,2,1,40,0,0
56805,-40,4,2,1,40,0,0
56835,-250,4,2,1,40,0,0
56925,-40,4,2,1,40,0,0
56955,-250,4,2,1,40,0,0
57045,-40,4,2,1,40,0,0
57075,-250,4,2,1,40,0,0
57165,-52.6315789473684,4,2,1,40,0,0
57195,-1000,4,2,1,40,0,0
57225,-52.6315789473684,4,2,1,40,0,0
57255,-1000,4,2,1,40,0,0
57285,-52.6315789473684,4,2,1,40,0,0
57315,-1000,4,2,1,40,0,0
57345,-52.6315789473684,4,2,1,40,0,0
57375,-1000,4,2,1,40,0,0
57405,-52.6315789473684,4,2,1,40,0,0
57435,-1000,4,2,1,40,0,0
57465,-52.6315789473684,4,2,1,40,0,0
57495,-1000,4,2,1,40,0,0
57525,-52.6315789473684,4,2,1,40,0,0
57555,-1000,4,2,1,40,0,0
57585,-52.6315789473684,4,2,1,40,0,0
57615,-1000,4,2,1,40,0,0
57645,-52.6315789473684,4,2,1,40,0,0
57675,-1000,4,2,1,40,0,0
57705,-52.6315789473684,4,2,1,40,0,0
57735,-1000,4,2,1,40,0,0
57765,-52.6315789473684,4,2,1,40,0,0
57795,-1000,4,2,1,40,0,0
57825,-52.6315789473684,4,2,1,40,0,0
57855,-1000,4,2,1,40,0,0
57885,-40,4,2,1,40,0,0
57905,-250,4,2,1,40,0,0
57965,-40,4,2,1,40,0,0
57985,-250,4,2,1,40,0,0
58045,-40,4,2,1,40,0,0
58065,-250,4,2,1,40,0,0
58125,-45.4545454545455,4,2,1,40,0,0
58155,-166.666666666667,4,2,1,40,0,0
58245,-100,4,2,1,40,0,0
60885,-166.666666666667,4,2,1,40,0,0
60975,-45.4545454545455,4,2,1,40,0,0
61005,-52.6315789473684,4,2,1,40,0,0
61035,-1000,4,2,1,40,0,0
61065,-52.6315789473684,4,2,1,40,0,0
61095,-1000,4,2,1,40,0,0
61125,-52.6315789473684,4,2,1,40,0,0
61155,-1000,4,2,1,40,0,0
61185,-52.6315789473684,4,2,1,40,0,0
61215,-1000,4,2,1,40,0,0
61245,-52.6315789473684,4,2,1,40,0,0
61275,-1000,4,2,1,40,0,0
61305,-52.6315789473684,4,2,1,40,0,0
61335,-1000,4,2,1,40,0,0
61365,-52.6315789473684,4,2,1,40,0,0
61395,-1000,4,2,1,40,0,0
61425,-52.6315789473684,4,2,1,40,0,0
61455,-1000,4,2,1,40,0,0
61485,-52.6315789473684,4,2,1,40,0,0
61515,-1000,4,2,1,40,0,0
61545,-52.6315789473684,4,2,1,40,0,0
61575,-1000,4,2,1,40,0,0
61605,-52.6315789473684,4,2,1,40,0,0
61635,-1000,4,2,1,40,0,0
61665,-52.6315789473684,4,2,1,40,0,0
61695,-1000,4,2,1,40,0,0
61725,-52.6315789473684,4,2,1,40,0,0
61755,-1000,4,2,1,40,0,0
61785,-52.6315789473684,4,2,1,40,0,0
61815,-1000,4,2,1,40,0,0
61845,-52.6315789473684,4,2,1,40,0,0
61875,-1000,4,2,1,40,0,0
61905,-52.6315789473684,4,2,1,40,0,0
61935,-1000,4,2,1,40,0,0
61965,-166.666666666667,4,2,1,40,0,0
62055,-45.4545454545455,4,2,1,40,0,0
62085,-166.666666666667,4,2,1,40,0,0
62175,-45.4545454545455,4,2,1,40,0,0
62205,-166.666666666667,4,2,1,40,0,0
62295,-45.4545454545455,4,2,1,40,0,0
62325,-166.666666666667,4,2,1,40,0,0
62415,-45.4545454545455,4,2,1,40,0,0
62445,-45.4545454545455,4,2,1,40,0,0
62505,-166.666666666667,4,2,1,40,0,0
62685,-71.4285714285714,4,2,1,40,0,0
62725,-166.666666666667,4,2,1,40,0,0
62765,-71.4285714285714,4,2,1,40,0,0
62805,-166.666666666667,4,2,1,40,0,0
62845,-71.4285714285714,4,2,1,40,0,0
62885,-166.666666666667,4,2,1,40,0,0
62925,-100,4,2,1,40,0,0
64845,-200,4,2,1,40,0,0
78285,-133.333333333333,4,2,1,40,0,0
95565,-111.111111111111,4,2,1,40,0,0
103245,-100,4,2,1,40,0,0
118605,-45.4545454545455,4,2,1,40,0,0
118635,-166.666666666667,4,2,1,40,0,0
118725,-100,4,2,1,40,0,0
118845,-45.4545454545455,4,2,1,40,0,0
118875,-166.666666666667,4,2,1,40,0,0
118965,-100,4,2,1,40,0,0
119085,-45.4545454545455,4,2,1,40,0,0
119115,-166.666666666667,4,2,1,40,0,0
119205,-100,4,2,1,40,0,0
119325,-45.4545454545455,4,2,1,40,0,0
119355,-166.666666666667,4,2,1,40,0,0
119445,-100,4,2,1,40,0,0
119565,-45.4545454545455,4,2,1,40,0,0
119595,-166.666666666667,4,2,1,40,0,0
119685,-100,4,2,1,40,0,0
119805,-45.4545454545455,4,2,1,40,0,0
119835,-166.666666666667,4,2,1,40,0,0
119925,-100,4,2,1,40,0,0
120045,-45.4545454545455,4,2,1,40,0,0
120075,-166.666666666667,4,2,1,40,0,0
120165,-100,4,2,1,40,0,0
120285,-45.4545454545455,4,2,1,40,0,0
120315,-166.666666666667,4,2,1,40,0,0
120405,-100,4,2,1,40,0,0
120525,-45.4545454545455,4,2,1,40,0,0
120555,-166.666666666667,4,2,1,40,0,0
120645,-100,4,2,1,40,0,0
120765,-45.4545454545455,4,2,1,40,0,0
120795,-166.666666666667,4,2,1,40,0,0
120885,-100,4,2,1,40,0,0
121005,-45.4545454545455,4,2,1,40,0,0
121035,-166.666666666667,4,2,1,40,0,0
121125,-100,4,2,1,40,0,0
121245,-45.4545454545455,4,2,1,40,0,0
121275,-166.666666666667,4,2,1,40,0,0
121365,-100,4,2,1,40,0,0
121485,-45.4545454545455,4,2,1,40,0,0
121515,-166.666666666667,4,2,1,40,0,0
121605,-100,4,2,1,40,0,0
121725,-45.4545454545455,4,2,1,40,0,0
121755,-166.666666666667,4,2,1,40,0,0
121845,-100,4,2,1,40,0,0
121965,-45.4545454545455,4,2,1,40,0,0
121995,-166.666666666667,4,2,1,40,0,0
122085,-100,4,2,1,40,0,0
122205,-62.5,4,2,1,40,0,0
122235,-250.000000000001,4,2,1,40,0,0
122265,-62.5,4,2,1,40,0,0
122295,-250.000000000001,4,2,1,40,0,0
122325,-62.5,4,2,1,40,0,0
122355,-250.000000000001,4,2,1,40,0,0
122385,-62.5,4,2,1,40,0,0
122415,-250.000000000001,4,2,1,40,0,0
122445,-45.4545454545455,4,2,1,40,0,0
122475,-166.666666666667,4,2,1,40,0,0
122565,-45.4545454545455,4,2,1,40,0,0
122595,-166.666666666667,4,2,1,40,0,0
122685,-45.4545454545455,4,2,1,40,0,0
122715,-166.666666666667,4,2,1,40,0,0
122805,-45.4545454545455,4,2,1,40,0,0
122835,-166.666666666667,4,2,1,40,0,0
122925,-45.4545454545455,4,2,1,40,0,0
122955,-166.666666666667,4,2,1,40,0,0
123045,-45.4545454545455,4,2,1,40,0,0
123075,-166.666666666667,4,2,1,40,0,0
123165,-45.4545454545455,4,2,1,40,0,0
123195,-166.666666666667,4,2,1,40,0,0
123285,-45.4545454545455,4,2,1,40,0,0
123315,-166.666666666667,4,2,1,40,0,0
123405,-45.4545454545455,4,2,1,40,0,0
123435,-166.666666666667,4,2,1,40,0,0
123525,-45.4545454545455,4,2,1,40,0,0
123555,-166.666666666667,4,2,1,40,0,0
123645,-45.4545454545455,4,2,1,40,0,0
123675,-166.666666666667,4,2,1,40,0,0
123765,-45.4545454545455,4,2,1,40,0,0
123795,-166.666666666667,4,2,1,40,0,0
123885,-45.4545454545455,4,2,1,40,0,0
123915,-166.666666666667,4,2,1,40,0,0
124005,-45.4545454545455,4,2,1,40,0,0
124035,-166.666666666667,4,2,1,40,0,0
124125,-45.4545454545455,4,2,1,40,0,0
124155,-166.666666666667,4,2,1,40,0,0
124245,-45.4545454545455,4,2,1,40,0,0
124275,-166.666666666667,4,2,1,40,0,0
124365,-62.5,4,2,1,40,0,0
124395,-250,4,2,1,40,0,0
124425,-62.5,4,2,1,40,0,0
124455,-250,4,2,1,40,0,0
124485,-62.5,4,2,1,40,0,0
124515,-250,4,2,1,40,0,0
124545,-62.5,4,2,1,40,0,0
124575,-250,4,2,1,40,0,0
124605,-62.5,4,2,1,40,0,0
124635,-250,4,2,1,40,0,0
124665,-62.5,4,2,1,40,0,0
124695,-250,4,2,1,40,0,0
124725,-62.5,4,2,1,40,0,0
124755,-250,4,2,1,40,0,0
124785,-62.5,4,2,1,40,0,0
124815,-250,4,2,1,40,0,0
124845,-62.5,4,2,1,40,0,0
124875,-250,4,2,1,40,0,0
124905,-62.5,4,2,1,40,0,0
124935,-250,4,2,1,40,0,0
124965,-62.5,4,2,1,40,0,0
124995,-250,4,2,1,40,0,0
125025,-62.5,4,2,1,40,0,0
125055,-250,4,2,1,40,0,0
125085,-62.5,4,2,1,40,0,0
125115,-250,4,2,1,40,0,0
125145,-62.5,4,2,1,40,0,0
125175,-250,4,2,1,40,0,0
125205,-62.5,4,2,1,40,0,0
125235,-250,4,2,1,40,0,0
125265,-62.5,4,2,1,40,0,0
125295,-250,4,2,1,40,0,0
125325,-62.5,4,2,1,40,0,0
125355,-250,4,2,1,40,0,0
125385,-62.5,4,2,1,40,0,0
125415,-250,4,2,1,40,0,0
125445,-62.5,4,2,1,40,0,0
125475,-250,4,2,1,40,0,0
125505,-62.5,4,2,1,40,0,0
125535,-250,4,2,1,40,0,0
125565,-62.5,4,2,1,40,0,0
125595,-250,4,2,1,40,0,0
125625,-62.5,4,2,1,40,0,0
125655,-250,4,2,1,40,0,0
125685,-62.5,4,2,1,40,0,0
125715,-250,4,2,1,40,0,0
125745,-62.5,4,2,1,40,0,0
125775,-250,4,2,1,40,0,0
125805,-62.5,4,2,1,40,0,0
125835,-250,4,2,1,40,0,0
125865,-62.5,4,2,1,40,0,0
125895,-250,4,2,1,40,0,0
125925,-62.5,4,2,1,40,0,0
125955,-250,4,2,1,40,0,0
125985,-62.5,4,2,1,40,0,0
126015,-250,4,2,1,40,0,0
126045,-62.5,4,2,1,40,0,0
126075,-250,4,2,1,40,0,0
126105,-62.5,4,2,1,40,0,0
126135,-250,4,2,1,40,0,0
126165,-62.5,4,2,1,40,0,0
126195,-250,4,2,1,40,0,0
126225,-62.5,4,2,1,40,0,0
126255,-250,4,2,1,40,0,0
126285,-25,4,2,1,40,0,0
126315,-500,4,2,1,40,0,0
127065,-454.545454545455,4,2,1,40,0,0
127125,-400,4,2,1,40,0,0
127185,-344.827586206897,4,2,1,40,0,0
127245,-285.714285714286,4,2,1,40,0,0
127305,-227.272727272727,4,2,1,40,0,0
127365,-181.818181818182,4,2,1,40,0,0
127425,-147.058823529412,4,2,1,40,0,0
127485,-120.481927710843,4,2,1,40,0,0
127545,-100,4,2,1,40,0,0
127605,-71.4285714285714,4,2,1,40,0,0
127665,-166.666666666667,4,2,1,40,0,0
127725,-62.5,4,2,1,40,0,0
127785,-250.000000000001,4,2,1,40,0,0
127845,-66.6666666666667,4,2,1,40,0,0
127905,-200,4,2,1,40,0,0
127965,-71.4285714285714,4,2,1,40,0,0
128025,-166.666666666667,4,2,1,40,0,0
128205,-58.8235294117647,4,2,1,40,0,1
128235,-1000,4,2,1,40,0,1
128265,-58.8235294117647,4,2,1,40,0,1
128295,-1000,4,2,1,40,0,1
128325,-58.8235294117647,4,2,1,40,0,1
128355,-1000,4,2,1,40,0,1
128385,-58.8235294117647,4,2,1,40,0,1
128415,-1000,4,2,1,40,0,1
128445,-58.8235294117647,4,2,1,40,0,1
128475,-1000,4,2,1,40,0,1
128505,-58.8235294117647,4,2,1,40,0,1
128535,-1000,4,2,1,40,0,1
128565,-58.8235294117647,4,2,1,40,0,1
128595,-1000,4,2,1,40,0,1
128625,-58.8235294117647,4,2,1,40,0,1
128655,-1000,4,2,1,40,0,1
128685,-45.4545454545455,4,2,1,40,0,1
128745,-200.000000000001,4,2,1,40,0,1
128925,-100,4,2,1,40,0,1
129165,-40,4,2,1,40,0,1
129195,-250,4,2,1,40,0,1
129285,-40,4,2,1,40,0,1
129315,-250,4,2,1,40,0,1
129405,-40,4,2,1,40,0,1
129435,-250,4,2,1,40,0,1
129525,-40,4,2,1,40,0,1
129555,-250,4,2,1,40,0,1
129645,-60.6060606060606,4,2,1,40,0,1
129705,-500,4,2,1,40,0,1
129765,-60.6060606060606,4,2,1,40,0,1
129825,-500,4,2,1,40,0,1
129885,-60.6060606060606,4,2,1,40,0,1
129945,-500,4,2,1,40,0,1
130005,-60.6060606060606,4,2,1,40,0,1
130065,-500,4,2,1,40,0,1
130125,-58.8235294117647,4,2,1,40,0,1
130155,-1000,4,2,1,40,0,1
130185,-58.8235294117647,4,2,1,40,0,1
130215,-1000,4,2,1,40,0,1
130245,-58.8235294117647,4,2,1,40,0,1
130275,-1000,4,2,1,40,0,1
130305,-58.8235294117647,4,2,1,40,0,1
130335,-1000,4,2,1,40,0,1
130365,-58.8235294117647,4,2,1,40,0,1
130395,-1000,4,2,1,40,0,1
130425,-58.8235294117647,4,2,1,40,0,1
130455,-1000,4,2,1,40,0,1
130485,-58.8235294117647,4,2,1,40,0,1
130515,-1000,4,2,1,40,0,1
130545,-58.8235294117647,4,2,1,40,0,1
130575,-1000,4,2,1,40,0,1
130605,-45.4545454545455,4,2,1,40,0,1
130665,-200.000000000001,4,2,1,40,0,1
130845,-100,4,2,1,40,0,1
131085,-40,4,2,1,40,0,1
131115,-250,4,2,1,40,0,1
131205,-40,4,2,1,40,0,1
131235,-250,4,2,1,40,0,1
131325,-40,4,2,1,40,0,1
131355,-250,4,2,1,40,0,1
131445,-40,4,2,1,40,0,1
131475,-250,4,2,1,40,0,1
131565,-60.6060606060606,4,2,1,40,0,1
131625,-500,4,2,1,40,0,1
131685,-60.6060606060606,4,2,1,40,0,1
131745,-500,4,2,1,40,0,1
131805,-60.6060606060606,4,2,1,40,0,1
131865,-500,4,2,1,40,0,1
131925,-60.6060606060606,4,2,1,40,0,1
131985,-500,4,2,1,40,0,1
132045,-58.8235294117647,4,2,1,40,0,1
132075,-1000,4,2,1,40,0,1
132105,-58.8235294117647,4,2,1,40,0,1
132135,-1000,4,2,1,40,0,1
132165,-58.8235294117647,4,2,1,40,0,1
132195,-1000,4,2,1,40,0,1
132225,-58.8235294117647,4,2,1,40,0,1
132255,-1000,4,2,1,40,0,1
132285,-58.8235294117647,4,2,1,40,0,1
132315,-1000,4,2,1,40,0,1
132345,-58.8235294117647,4,2,1,40,0,1
132375,-1000,4,2,1,40,0,1
132405,-58.8235294117647,4,2,1,40,0,1
132435,-1000,4,2,1,40,0,1
132465,-58.8235294117647,4,2,1,40,0,1
132495,-1000,4,2,1,40,0,1
132525,-45.4545454545455,4,2,1,40,0,1
132585,-200.000000000001,4,2,1,40,0,1
132765,-100,4,2,1,40,0,1
133005,-40,4,2,1,40,0,1
133035,-250,4,2,1,40,0,1
133125,-107.52688172043,4,2,1,40,0,1
133245,-40,4,2,1,40,0,1
133275,-250,4,2,1,40,0,1
133365,-40,4,2,1,40,0,1
133395,-250,4,2,1,40,0,1
133485,-60.6060606060606,4,2,1,40,0,1
133545,-500,4,2,1,40,0,1
133605,-60.6060606060606,4,2,1,40,0,1
133665,-500,4,2,1,40,0,1
133725,-60.6060606060606,4,2,1,40,0,1
133785,-500,4,2,1,40,0,1
133845,-60.6060606060606,4,2,1,40,0,1
133905,-500,4,2,1,40,0,1
133965,-52.6315789473684,4,2,1,40,0,1
133995,-1000,4,2,1,40,0,1
134025,-52.6315789473684,4,2,1,40,0,1
134055,-1000,4,2,1,40,0,1
134085,-52.6315789473684,4,2,1,40,0,1
134115,-1000,4,2,1,40,0,1
134145,-52.6315789473684,4,2,1,40,0,1
134175,-1000,4,2,1,40,0,1
134205,-52.6315789473684,4,2,1,40,0,1
134235,-1000,4,2,1,40,0,1
134265,-52.6315789473684,4,2,1,40,0,1
134295,-1000,4,2,1,40,0,1
134325,-52.6315789473684,4,2,1,40,0,1
134355,-1000,4,2,1,40,0,1
134385,-52.6315789473684,4,2,1,40,0,1
134415,-1000,4,2,1,40,0,1
134445,-52.6315789473684,4,2,1,40,0,1
134475,-1000,4,2,1,40,0,1
134505,-52.6315789473684,4,2,1,40,0,1
134535,-1000,4,2,1,40,0,1
134565,-52.6315789473684,4,2,1,40,0,1
134595,-1000,4,2,1,40,0,1
134625,-52.6315789473684,4,2,1,40,0,1
134655,-1000,4,2,1,40,0,1
134685,-52.6315789473684,4,2,1,40,0,1
134715,-1000,4,2,1,40,0,1
134745,-52.6315789473684,4,2,1,40,0,1
134775,-1000,4,2,1,40,0,1
134805,-52.6315789473684,4,2,1,40,0,1
134835,-1000,4,2,1,40,0,1
134865,-52.6315789473684,4,2,1,40,0,1
134895,-1000,4,2,1,40,0,1
134925,-55.5555555555556,4,2,1,40,0,1
134985,-166.666666666667,4,2,1,40,0,1
135105,-100,4,2,1,40,0,1
135165,-55.5555555555556,4,2,1,40,0,1
135225,-166.666666666667,4,2,1,40,0,1
135345,-100,4,2,1,40,0,1
135405,-33.3333333333333,4,2,1,40,0,1
135465,-333.333333333333,4,2,1,40,0,1
135645,-50,4,2,1,40,0,1
135705,-100,4,2,1,40,0,1
135765,-200,4,2,1,40,0,1
135885,-58.8235294117647,4,2,1,40,0,1
135915,-1000,4,2,1,40,0,1
135945,-58.8235294117647,4,2,1,40,0,1
135975,-1000,4,2,1,40,0,1
136005,-58.8235294117647,4,2,1,40,0,1
136035,-1000,4,2,1,40,0,1
136065,-58.8235294117647,4,2,1,40,0,1
136095,-1000,4,2,1,40,0,1
136125,-58.8235294117647,4,2,1,40,0,1
136155,-1000,4,2,1,40,0,1
136185,-58.8235294117647,4,2,1,40,0,1
136215,-1000,4,2,1,40,0,1
136245,-58.8235294117647,4,2,1,40,0,1
136275,-1000,4,2,1,40,0,1
136305,-58.8235294117647,4,2,1,40,0,1
136335,-1000,4,2,1,40,0,1
136365,-45.4545454545455,4,2,1,40,0,1
136425,-200.000000000001,4,2,1,40,0,1
136605,-100,4,2,1,40,0,1
136845,-40,4,2,1,40,0,1
136875,-250,4,2,1,40,0,1
136965,-40,4,2,1,40,0,1
136995,-250,4,2,1,40,0,1
137085,-40,4,2,1,40,0,1
137115,-250,4,2,1,40,0,1
137205,-40,4,2,1,40,0,1
137235,-250,4,2,1,40,0,1
137325,-60.6060606060606,4,2,1,40,0,1
137385,-500,4,2,1,40,0,1
137445,-60.6060606060606,4,2,1,40,0,1
137505,-500,4,2,1,40,0,1
137565,-60.6060606060606,4,2,1,40,0,1
137625,-500,4,2,1,40,0,1
137685,-60.6060606060606,4,2,1,40,0,1
137745,-500,4,2,1,40,0,1
137805,-58.8235294117647,4,2,1,40,0,1
137835,-1000,4,2,1,40,0,1
137865,-58.8235294117647,4,2,1,40,0,1
137895,-1000,4,2,1,40,0,1
137925,-58.8235294117647,4,2,1,40,0,1
137955,-1000,4,2,1,40,0,1
137985,-58.8235294117647,4,2,1,40,0,1
138015,-1000,4,2,1,40,0,1
138045,-58.8235294117647,4,2,1,40,0,1
138075,-1000,4,2,1,40,0,1
138105,-58.8235294117647,4,2,1,40,0,1
138135,-1000,4,2,1,40,0,1
138165,-58.8235294117647,4,2,1,40,0,1
138195,-1000,4,2,1,40,0,1
138225,-58.8235294117647,4,2,1,40,0,1
138255,-1000,4,2,1,40,0,1
138285,-45.4545454545455,4,2,1,40,0,1
138345,-200.000000000001,4,2,1,40,0,1
138525,-100,4,2,1,40,0,1
138765,-40,4,2,1,40,0,1
138795,-250,4,2,1,40,0,1
138885,-40,4,2,1,40,0,1
138915,-250,4,2,1,40,0,1
139005,-40,4,2,1,40,0,1
139035,-250,4,2,1,40,0,1
139125,-40,4,2,1,40,0,1
139155,-250,4,2,1,40,0,1
139245,-60.6060606060606,4,2,1,40,0,1
139305,-500,4,2,1,40,0,1
139365,-60.6060606060606,4,2,1,40,0,1
139425,-500,4,2,1,40,0,1
139485,-60.6060606060606,4,2,1,40,0,1
139545,-500,4,2,1,40,0,1
139605,-60.6060606060606,4,2,1,40,0,1
139665,-500,4,2,1,40,0,1
139725,-58.8235294117647,4,2,1,40,0,1
139755,-1000,4,2,1,40,0,1
139785,-58.8235294117647,4,2,1,40,0,1
139815,-1000,4,2,1,40,0,1
139845,-58.8235294117647,4,2,1,40,0,1
139875,-1000,4,2,1,40,0,1
139905,-58.8235294117647,4,2,1,40,0,1
139935,-1000,4,2,1,40,0,1
139965,-58.8235294117647,4,2,1,40,0,1
139995,-1000,4,2,1,40,0,1
140025,-58.8235294117647,4,2,1,40,0,1
140055,-1000,4,2,1,40,0,1
140085,-58.8235294117647,4,2,1,40,0,1
140115,-1000,4,2,1,40,0,1
140145,-58.8235294117647,4,2,1,40,0,1
140175,-1000,4,2,1,40,0,1
140205,-45.4545454545455,4,2,1,40,0,1
140265,-200.000000000001,4,2,1,40,0,1
140445,-100,4,2,1,40,0,1
140685,-40,4,2,1,40,0,1
140715,-250,4,2,1,40,0,1
140805,-107.52688172043,4,2,1,40,0,1
140925,-40,4,2,1,40,0,1
140955,-250,4,2,1,40,0,1
141045,-40,4,2,1,40,0,1
141075,-250,4,2,1,40,0,1
141165,-60.6060606060606,4,2,1,40,0,1
141225,-500,4,2,1,40,0,1
141285,-60.6060606060606,4,2,1,40,0,1
141345,-500,4,2,1,40,0,1
141405,-60.6060606060606,4,2,1,40,0,1
141465,-500,4,2,1,40,0,1
141525,-60.6060606060606,4,2,1,40,0,1
141585,-500,4,2,1,40,0,1
141645,-52.6315789473684,4,2,1,40,0,1
141675,-1000,4,2,1,40,0,1
141705,-52.6315789473684,4,2,1,40,0,1
141735,-1000,4,2,1,40,0,1
141765,-52.6315789473684,4,2,1,40,0,1
141795,-1000,4,2,1,40,0,1
141825,-52.6315789473684,4,2,1,40,0,1
141855,-1000,4,2,1,40,0,1
141885,-52.6315789473684,4,2,1,40,0,1
141915,-1000,4,2,1,40,0,1
141945,-52.6315789473684,4,2,1,40,0,1
141975,-1000,4,2,1,40,0,1
142005,-52.6315789473684,4,2,1,40,0,1
142035,-1000,4,2,1,40,0,1
142065,-52.6315789473684,4,2,1,40,0,1
142095,-1000,4,2,1,40,0,1
142125,-52.6315789473684,4,2,1,40,0,1
142155,-1000,4,2,1,40,0,1
142185,-52.6315789473684,4,2,1,40,0,1
142215,-1000,4,2,1,40,0,1
142245,-52.6315789473684,4,2,1,40,0,1
142275,-1000,4,2,1,40,0,1
142305,-52.6315789473684,4,2,1,40,0,1
142335,-1000,4,2,1,40,0,1
142365,-52.6315789473684,4,2,1,40,0,1
142395,-1000,4,2,1,40,0,1
142425,-52.6315789473684,4,2,1,40,0,1
142455,-1000,4,2,1,40,0,1
142485,-52.6315789473684,4,2,1,40,0,1
142515,-1000,4,2,1,40,0,1
142545,-52.6315789473684,4,2,1,40,0,1
142575,-1000,4,2,1,40,0,1
142605,-45.4545454545455,4,2,1,40,0,1
142665,-200,4,2,1,40,0,1
142845,-45.4545454545455,4,2,1,40,0,1
142905,-200,4,2,1,40,0,1
143085,-33.3333333333333,4,2,1,40,0,1
143145,-333.333333333333,4,2,1,40,0,1
143325,-45.4545454545455,4,2,1,40,0,1
143385,-166.666666666667,4,2,1,40,0,1
143565,-52.6315789473684,4,2,1,40,0,0
143595,-1000,4,2,1,40,0,0
143625,-52.6315789473684,4,2,1,40,0,0
143655,-1000,4,2,1,40,0,0
143685,-52.6315789473684,4,2,1,40,0,0
143715,-1000,4,2,1,40,0,0
143745,-52.6315789473684,4,2,1,40,0,0
143775,-1000,4,2,1,40,0,0
143805,-52.6315789473684,4,2,1,40,0,0
143835,-1000,4,2,1,40,0,0
143865,-52.6315789473684,4,2,1,40,0,0
143895,-1000,4,2,1,40,0,0
143925,-52.6315789473684,4,2,1,40,0,0
143955,-1000,4,2,1,40,0,0
143985,-52.6315789473684,4,2,1,40,0,0
144015,-1000,4,2,1,40,0,0
144045,-52.6315789473684,4,2,1,40,0,0
144075,-1000,4,2,1,40,0,0
144105,-52.6315789473684,4,2,1,40,0,0
144135,-1000,4,2,1,40,0,0
144165,-52.6315789473684,4,2,1,40,0,0
144195,-1000,4,2,1,40,0,0
144225,-52.6315789473684,4,2,1,40,0,0
144255,-1000,4,2,1,40,0,0
144285,-52.6315789473684,4,2,1,40,0,0
144315,-1000,4,2,1,40,0,0
144345,-52.6315789473684,4,2,1,40,0,0
144375,-1000,4,2,1,40,0,0
144405,-52.6315789473684,4,2,1,40,0,0
144435,-1000,4,2,1,40,0,0
144465,-52.6315789473684,4,2,1,40,0,0
144495,-1000,4,2,1,40,0,0
144525,-45.4545454545455,4,2,1,40,0,0
144555,-166.666666666667,4,2,1,40,0,0
144645,-100,4,2,1,40,0,0
144765,-45.4545454545455,4,2,1,40,0,0
144795,-166.666666666667,4,2,1,40,0,0
144885,-100,4,2,1,40,0,0
147165,-45.4545454545455,4,2,1,40,0,0
147225,-166.666666666667,4,2,1,40,0,0
147405,-52.6315789473684,4,2,1,40,0,0
147435,-1000,4,2,1,40,0,0
147465,-52.6315789473684,4,2,1,40,0,0
147495,-1000,4,2,1,40,0,0
147525,-52.6315789473684,4,2,1,40,0,0
147555,-1000,4,2,1,40,0,0
147585,-52.6315789473684,4,2,1,40,0,0
147615,-1000,4,2,1,40,0,0
147645,-52.6315789473684,4,2,1,40,0,0
147675,-1000,4,2,1,40,0,0
147705,-52.6315789473684,4,2,1,40,0,0
147735,-1000,4,2,1,40,0,0
147765,-52.6315789473684,4,2,1,40,0,0
147795,-1000,4,2,1,40,0,0
147825,-52.6315789473684,4,2,1,40,0,0
147855,-1000,4,2,1,40,0,0
147885,-52.6315789473684,4,2,1,40,0,0
147915,-1000,4,2,1,40,0,0
147945,-52.6315789473684,4,2,1,40,0,0
147975,-1000,4,2,1,40,0,0
148005,-52.6315789473684,4,2,1,40,0,0
148035,-1000,4,2,1,40,0,0
148065,-52.6315789473684,4,2,1,40,0,0
148095,-1000,4,2,1,40,0,0
148125,-52.6315789473684,4,2,1,40,0,0
148155,-1000,4,2,1,40,0,0
148185,-52.6315789473684,4,2,1,40,0,0
148215,-1000,4,2,1,40,0,0
148245,-52.6315789473684,4,2,1,40,0,0
148275,-1000,4,2,1,40,0,0
148305,-52.6315789473684,4,2,1,40,0,0
148335,-1000,4,2,1,40,0,0
148365,-166.666666666667,4,2,1,40,0,0
148455,-45.4545454545455,4,2,1,40,0,0
148485,-166.666666666667,4,2,1,40,0,0
148575,-45.4545454545455,4,2,1,40,0,0
148605,-166.666666666667,4,2,1,40,0,0
148695,-45.4545454545455,4,2,1,40,0,0
148725,-166.666666666667,4,2,1,40,0,0
148815,-45.4545454545455,4,2,1,40,0,0
148845,-125,4,2,1,40,0,0
149085,-40,4,2,1,40,0,0
149145,-200,4,2,1,40,0,0
149325,-100,4,2,1,40,0,0
150765,-40,4,2,1,40,0,0
150795,-250,4,2,1,40,0,0
150885,-40,4,2,1,40,0,0
150915,-250,4,2,1,40,0,0
151005,-40,4,2,1,40,0,0
151035,-250,4,2,1,40,0,0
151125,-40,4,2,1,40,0,0
151155,-250,4,2,1,40,0,0
151245,-52.6315789473684,4,2,1,40,0,0
151275,-1000,4,2,1,40,0,0
151305,-52.6315789473684,4,2,1,40,0,0
151335,-1000,4,2,1,40,0,0
151365,-52.6315789473684,4,2,1,40,0,0
151395,-1000,4,2,1,40,0,0
151425,-52.6315789473684,4,2,1,40,0,0
151455,-1000,4,2,1,40,0,0
151485,-52.6315789473684,4,2,1,40,0,0
151515,-1000,4,2,1,40,0,0
151545,-52.6315789473684,4,2,1,40,0,0
151575,-1000,4,2,1,40,0,0
151605,-52.6315789473684,4,2,1,40,0,0
151635,-1000,4,2,1,40,0,0
151665,-52.6315789473684,4,2,1,40,0,0
151695,-1000,4,2,1,40,0,0
151725,-52.6315789473684,4,2,1,40,0,0
151755,-1000,4,2,1,40,0,0
151785,-52.6315789473684,4,2,1,40,0,0
151815,-1000,4,2,1,40,0,0
151845,-52.6315789473684,4,2,1,40,0,0
151875,-1000,4,2,1,40,0,0
151905,-52.6315789473684,4,2,1,40,0,0
151935,-1000,4,2,1,40,0,0
151965,-40,4,2,1,40,0,0
151985,-250,4,2,1,40,0,0
152045,-40,4,2,1,40,0,0
152065,-250,4,2,1,40,0,0
152125,-40,4,2,1,40,0,0
152145,-250,4,2,1,40,0,0
152205,-45.4545454545455,4,2,1,40,0,0
152235,-166.666666666667,4,2,1,40,0,0
152325,-100,4,2,1,40,0,0
154965,-166.666666666667,4,2,1,40,0,0
155055,-45.4545454545455,4,2,1,40,0,0
155085,-52.6315789473684,4,2,1,40,0,0
155115,-1000,4,2,1,40,0,0
155145,-52.6315789473684,4,2,1,40,0,0
155175,-1000,4,2,1,40,0,0
155205,-52.6315789473684,4,2,1,40,0,0
155235,-1000,4,2,1,40,0,0
155265,-52.6315789473684,4,2,1,40,0,0
155295,-1000,4,2,1,40,0,0
155325,-52.6315789473684,4,2,1,40,0,0
155355,-1000,4,2,1,40,0,0
155385,-52.6315789473684,4,2,1,40,0,0
155415,-1000,4,2,1,40,0,0
155445,-52.6315789473684,4,2,1,40,0,0
155475,-1000,4,2,1,40,0,0
155505,-52.6315789473684,4,2,1,40,0,0
155535,-1000,4,2,1,40,0,0
155565,-52.6315789473684,4,2,1,40,0,0
155595,-1000,4,2,1,40,0,0
155625,-52.6315789473684,4,2,1,40,0,0
155655,-1000,4,2,1,40,0,0
155685,-52.6315789473684,4,2,1,40,0,0
155715,-1000,4,2,1,40,0,0
155745,-52.6315789473684,4,2,1,40,0,0
155775,-1000,4,2,1,40,0,0
155805,-52.6315789473684,4,2,1,40,0,0
155835,-1000,4,2,1,40,0,0
155865,-52.6315789473684,4,2,1,40,0,0
155895,-1000,4,2,1,40,0,0
155925,-52.6315789473684,4,2,1,40,0,0
155955,-1000,4,2,1,40,0,0
155985,-52.6315789473684,4,2,1,40,0,0
156015,-1000,4,2,1,40,0,0
156045,-166.666666666667,4,2,1,40,0,0
156135,-45.4545454545455,4,2,1,40,0,0
156165,-166.666666666667,4,2,1,40,0,0
156255,-45.4545454545455,4,2,1,40,0,0
156285,-166.666666666667,4,2,1,40,0,0
156375,-45.4545454545455,4,2,1,40,0,0
156405,-166.666666666667,4,2,1,40,0,0
156495,-45.4545454545455,4,2,1,40,0,0
156525,-45.4545454545455,4,2,1,40,0,0
156585,-166.666666666667,4,2,1,40,0,0
156765,-71.4285714285714,4,2,1,40,0,0
156805,-166.666666666667,4,2,1,40,0,0
156845,-71.4285714285714,4,2,1,40,0,0
156885,-166.666666666667,4,2,1,40,0,0
156925,-71.4285714285714,4,2,1,40,0,0
156965,-166.666666666667,4,2,1,40,0,0
157005,-100,4,2,1,40,0,0
158925,-52.6315789473684,4,2,1,40,0,0
158955,-1000,4,2,1,40,0,0
158985,-52.6315789473684,4,2,1,40,0,0
159015,-1000,4,2,1,40,0,0
159045,-52.6315789473684,4,2,1,40,0,0
159075,-1000,4,2,1,40,0,0
159105,-52.6315789473684,4,2,1,40,0,0
159135,-1000,4,2,1,40,0,0
159165,-52.6315789473684,4,2,1,40,0,0
159195,-1000,4,2,1,40,0,0
159225,-52.6315789473684,4,2,1,40,0,0
159255,-1000,4,2,1,40,0,0
159285,-52.6315789473684,4,2,1,40,0,0
159315,-1000,4,2,1,40,0,0
159345,-52.6315789473684,4,2,1,40,0,0
159375,-1000,4,2,1,40,0,0
159405,-52.6315789473684,4,2,1,40,0,0
159435,-1000,4,2,1,40,0,0
159465,-52.6315789473684,4,2,1,40,0,0
159495,-1000,4,2,1,40,0,0
159525,-52.6315789473684,4,2,1,40,0,0
159555,-1000,4,2,1,40,0,0
159585,-52.6315789473684,4,2,1,40,0,0
159615,-1000,4,2,1,40,0,0
159645,-52.6315789473684,4,2,1,40,0,0
159675,-1000,4,2,1,40,0,0
159705,-52.6315789473684,4,2,1,40,0,0
159735,-1000,4,2,1,40,0,0
159765,-52.6315789473684,4,2,1,40,0,0
159795,-1000,4,2,1,40,0,0
159825,-52.6315789473684,4,2,1,40,0,0
159855,-1000,4,2,1,40,0,0
159885,-45.4545454545455,4,2,1,40,0,0
159915,-166.666666666667,4,2,1,40,0,0
160005,-45.4545454545455,4,2,1,40,0,0
160065,-166.666666666667,4,2,1,40,0,0
160245,-45.4545454545455,4,2,1,40,0,0
160275,-166.666666666667,4,2,1,40,0,0
160365,-45.4545454545455,4,2,1,40,0,0
160425,-166.666666666667,4,2,1,40,0,0
160605,-45.4545454545455,4,2,1,40,0,0
160665,-166.666666666667,4,2,1,40,0,0
160845,-45.4545454545455,4,2,1,40,0,0
160875,-166.666666666667,4,2,1,40,0,0
160965,-45.4545454545455,4,2,1,40,0,0
160995,-166.666666666667,4,2,1,40,0,0
161085,-45.4545454545455,4,2,1,40,0,0
161115,-166.666666666667,4,2,1,40,0,0
161205,-45.4545454545455,4,2,1,40,0,0
161235,-166.666666666667,4,2,1,40,0,0
161325,-52.6315789473684,4,2,1,40,0,0
161355,-1000,4,2,1,40,0,0
161385,-52.6315789473684,4,2,1,40,0,0
161415,-1000,4,2,1,40,0,0
161445,-52.6315789473684,4,2,1,40,0,0
161475,-1000,4,2,1,40,0,0
161505,-52.6315789473684,4,2,1,40,0,0
161535,-1000,4,2,1,40,0,0
161565,-52.6315789473684,4,2,1,40,0,0
161595,-1000,4,2,1,40,0,0
161625,-52.6315789473684,4,2,1,40,0,0
161655,-1000,4,2,1,40,0,0
161685,-52.6315789473684,4,2,1,40,0,0
161715,-1000,4,2,1,40,0,0
161745,-52.6315789473684,4,2,1,40,0,0
161775,-1000,4,2,1,40,0,0
161805,-45.4545454545455,4,2,1,40,0,0
161835,-166.666666666667,4,2,1,40,0,0
161925,-45.4545454545455,4,2,1,40,0,0
161955,-166.666666666667,4,2,1,40,0,0
162045,-52.6315789473684,4,2,1,40,0,0
162075,-1000,4,2,1,40,0,0
162105,-52.6315789473684,4,2,1,40,0,0
162135,-1000,4,2,1,40,0,0
162165,-52.6315789473684,4,2,1,40,0,0
162195,-1000,4,2,1,40,0,0
162225,-52.6315789473684,4,2,1,40,0,0
162255,-1000,4,2,1,40,0,0
162285,-52.6315789473684,4,2,1,40,0,0
162315,-1000,4,2,1,40,0,0
162345,-52.6315789473684,4,2,1,40,0,0
162375,-1000,4,2,1,40,0,0
162405,-52.6315789473684,4,2,1,40,0,0
162435,-1000,4,2,1,40,0,0
162465,-52.6315789473684,4,2,1,40,0,0
162495,-1000,4,2,1,40,0,0
162525,-40,4,2,1,40,0,0
162585,-250.000000000001,4,2,1,40,0,0
162765,-52.6315789473684,4,2,1,40,0,0
162795,-1000,4,2,1,40,0,0
162825,-52.6315789473684,4,2,1,40,0,0
162855,-1000,4,2,1,40,0,0
162885,-52.6315789473684,4,2,1,40,0,0
162915,-1000,4,2,1,40,0,0
162945,-52.6315789473684,4,2,1,40,0,0
162975,-1000,4,2,1,40,0,0
163005,-52.6315789473684,4,2,1,40,0,0
163035,-1000,4,2,1,40,0,0
163065,-52.6315789473684,4,2,1,40,0,0
163095,-1000,4,2,1,40,0,0
163125,-52.6315789473684,4,2,1,40,0,0
163155,-1000,4,2,1,40,0,0
163185,-52.6315789473684,4,2,1,40,0,0
163215,-1000,4,2,1,40,0,0
163245,-52.6315789473684,4,2,1,40,0,0
163275,-1000,4,2,1,40,0,0
163305,-52.6315789473684,4,2,1,40,0,0
163335,-1000,4,2,1,40,0,0
163365,-52.6315789473684,4,2,1,40,0,0
163395,-1000,4,2,1,40,0,0
163425,-52.6315789473684,4,2,1,40,0,0
163455,-1000,4,2,1,40,0,0
163485,-52.6315789473684,4,2,1,40,0,0
163515,-1000,4,2,1,40,0,0
163545,-52.6315789473684,4,2,1,40,0,0
163575,-1000,4,2,1,40,0,0
163605,-52.6315789473684,4,2,1,40,0,0
163635,-1000,4,2,1,40,0,0
163665,-52.6315789473684,4,2,1,40,0,0
163695,-1000,4,2,1,40,0,0
163725,-45.4545454545455,4,2,1,40,0,0
163755,-166.666666666667,4,2,1,40,0,0
163845,-45.4545454545455,4,2,1,40,0,0
163905,-166.666666666667,4,2,1,40,0,0
164085,-45.4545454545455,4,2,1,40,0,0
164115,-166.666666666667,4,2,1,40,0,0
164205,-45.4545454545455,4,2,1,40,0,0
164265,-166.666666666667,4,2,1,40,0,0
164445,-45.4545454545455,4,2,1,40,0,0
164505,-166.666666666667,4,2,1,40,0,0
164685,-45.4545454545455,4,2,1,40,0,0
164715,-166.666666666667,4,2,1,40,0,0
164805,-45.4545454545455,4,2,1,40,0,0
164835,-166.666666666667,4,2,1,40,0,0
164925,-45.4545454545455,4,2,1,40,0,0
164955,-166.666666666667,4,2,1,40,0,0
165045,-45.4545454545455,4,2,1,40,0,0
165075,-166.666666666667,4,2,1,40,0,0
165165,-52.6315789473684,4,2,1,40,0,0
165195,-1000,4,2,1,40,0,0
165225,-52.6315789473684,4,2,1,40,0,0
165255,-1000,4,2,1,40,0,0
165285,-52.6315789473684,4,2,1,40,0,0
165315,-1000,4,2,1,40,0,0
165345,-52.6315789473684,4,2,1,40,0,0
165375,-1000,4,2,1,40,0,0
165405,-52.6315789473684,4,2,1,40,0,0
165435,-1000,4,2,1,40,0,0
165465,-52.6315789473684,4,2,1,40,0,0
165495,-1000,4,2,1,40,0,0
165525,-52.6315789473684,4,2,1,40,0,0
165555,-1000,4,2,1,40,0,0
165585,-52.6315789473684,4,2,1,40,0,0
165615,-1000,4,2,1,40,0,0
165645,-45.4545454545455,4,2,1,40,0,0
165675,-166.666666666667,4,2,1,40,0,0
165765,-45.4545454545455,4,2,1,40,0,0
165795,-166.666666666667,4,2,1,40,0,0
165885,-52.6315789473684,4,2,1,40,0,0
165915,-1000,4,2,1,40,0,0
165945,-52.6315789473684,4,2,1,40,0,0
165975,-1000,4,2,1,40,0,0
166005,-52.6315789473684,4,2,1,40,0,0
166035,-1000,4,2,1,40,0,0
166065,-52.6315789473684,4,2,1,40,0,0
166095,-1000,4,2,1,40,0,0
166125,-40,4,2,1,40,0,0
166185,-250.000000000001,4,2,1,40,0,0
166365,-40,4,2,1,40,0,0
166425,-250.000000000001,4,2,1,40,0,0
166605,-52.6315789473684,4,2,1,40,0,0
166635,-1000.00000000001,4,2,1,40,0,0
166665,-52.6315789473684,4,2,1,40,0,0
166695,-1000,4,2,1,40,0,0
166725,-52.6315789473684,4,2,1,40,0,0
166755,-1000,4,2,1,40,0,0
166785,-52.6315789473684,4,2,1,40,0,0
166815,-1000,4,2,1,40,0,0
166845,-52.6315789473684,4,2,1,40,0,0
166875,-1000,4,2,1,40,0,0
166905,-52.6315789473684,4,2,1,40,0,0
166935,-1000,4,2,1,40,0,0
166965,-52.6315789473684,4,2,1,40,0,0
166995,-1000,4,2,1,40,0,0
167025,-52.6315789473684,4,2,1,40,0,0
167055,-1000,4,2,1,40,0,0
167085,-52.6315789473684,4,2,1,40,0,0
167115,-1000,4,2,1,40,0,0
167145,-52.6315789473684,4,2,1,40,0,0
167175,-1000,4,2,1,40,0,0
167205,-52.6315789473684,4,2,1,40,0,0
167235,-1000,4,2,1,40,0,0
167265,-52.6315789473684,4,2,1,40,0,0
167295,-1000,4,2,1,40,0,0
167325,-52.6315789473684,4,2,1,40,0,0
167355,-1000,4,2,1,40,0,0
167385,-52.6315789473684,4,2,1,40,0,0
167415,-1000,4,2,1,40,0,0
167445,-52.6315789473684,4,2,1,40,0,0
167475,-1000,4,2,1,40,0,0
167505,-52.6315789473684,4,2,1,40,0,0
167535,-1000,4,2,1,40,0,0
167565,-45.4545454545455,4,2,1,40,0,0
167595,-166.666666666667,4,2,1,40,0,0
167685,-45.4545454545455,4,2,1,40,0,0
167745,-166.666666666667,4,2,1,40,0,0
167925,-45.4545454545455,4,2,1,40,0,0
167955,-166.666666666667,4,2,1,40,0,0
168045,-45.4545454545455,4,2,1,40,0,0
168105,-166.666666666667,4,2,1,40,0,0
168285,-45.4545454545455,4,2,1,40,0,0
168345,-166.666666666667,4,2,1,40,0,0
168525,-45.4545454545455,4,2,1,40,0,0
168555,-166.666666666667,4,2,1,40,0,0
168645,-45.4545454545455,4,2,1,40,0,0
168675,-166.666666666667,4,2,1,40,0,0
168765,-45.4545454545455,4,2,1,40,0,0
168795,-166.666666666667,4,2,1,40,0,0
168885,-45.4545454545455,4,2,1,40,0,0
168915,-166.666666666667,4,2,1,40,0,0
169005,-52.6315789473684,4,2,1,40,0,0
169035,-1000,4,2,1,40,0,0
169065,-52.6315789473684,4,2,1,40,0,0
169095,-1000,4,2,1,40,0,0
169125,-52.6315789473684,4,2,1,40,0,0
169155,-1000,4,2,1,40,0,0
169185,-52.6315789473684,4,2,1,40,0,0
169215,-1000,4,2,1,40,0,0
169245,-52.6315789473684,4,2,1,40,0,0
169275,-1000,4,2,1,40,0,0
169305,-52.6315789473684,4,2,1,40,0,0
169335,-1000,4,2,1,40,0,0
169365,-52.6315789473684,4,2,1,40,0,0
169395,-1000,4,2,1,40,0,0
169425,-52.6315789473684,4,2,1,40,0,0
169455,-1000,4,2,1,40,0,0
169485,-45.4545454545455,4,2,1,40,0,0
169515,-166.666666666667,4,2,1,40,0,0
169605,-45.4545454545455,4,2,1,40,0,0
169635,-166.666666666667,4,2,1,40,0,0
169725,-52.6315789473684,4,2,1,40,0,0
169755,-1000,4,2,1,40,0,0
169785,-52.6315789473684,4,2,1,40,0,0
169815,-1000,4,2,1,40,0,0
169845,-52.6315789473684,4,2,1,40,0,0
169875,-1000,4,2,1,40,0,0
169905,-52.6315789473684,4,2,1,40,0,0
169935,-1000,4,2,1,40,0,0
169965,-52.6315789473684,4,2,1,40,0,0
169995,-1000,4,2,1,40,0,0
170025,-52.6315789473684,4,2,1,40,0,0
170055,-1000,4,2,1,40,0,0
170085,-52.6315789473684,4,2,1,40,0,0
170115,-1000,4,2,1,40,0,0
170145,-52.6315789473684,4,2,1,40,0,0
170175,-1000,4,2,1,40,0,0
170205,-40,4,2,1,40,0,0
170265,-250.000000000001,4,2,1,40,0,0
170445,-52.6315789473684,4,2,1,40,0,0
170475,-1000,4,2,1,40,0,0
170505,-52.6315789473684,4,2,1,40,0,0
170535,-1000,4,2,1,40,0,0
170565,-52.6315789473684,4,2,1,40,0,0
170595,-1000,4,2,1,40,0,0
170625,-52.6315789473684,4,2,1,40,0,0
170655,-1000,4,2,1,40,0,0
170685,-52.6315789473684,4,2,1,40,0,0
170715,-1000,4,2,1,40,0,0
170745,-52.6315789473684,4,2,1,40,0,0
170775,-1000,4,2,1,40,0,0
170805,-52.6315789473684,4,2,1,40,0,0
170835,-1000,4,2,1,40,0,0
170865,-52.6315789473684,4,2,1,40,0,0
170895,-1000,4,2,1,40,0,0
170925,-52.6315789473684,4,2,1,40,0,0
170955,-1000,4,2,1,40,0,0
170985,-52.6315789473684,4,2,1,40,0,0
171015,-1000,4,2,1,40,0,0
171045,-52.6315789473684,4,2,1,40,0,0
171075,-1000,4,2,1,40,0,0
171105,-52.6315789473684,4,2,1,40,0,0
171135,-1000,4,2,1,40,0,0
171165,-52.6315789473684,4,2,1,40,0,0
171195,-1000,4,2,1,40,0,0
171225,-52.6315789473684,4,2,1,40,0,0
171255,-1000,4,2,1,40,0,0
171285,-52.6315789473684,4,2,1,40,0,0
171315,-1000,4,2,1,40,0,0
171345,-52.6315789473684,4,2,1,40,0,0
171375,-1000,4,2,1,40,0,0
171405,-45.4545454545455,4,2,1,40,0,0
171435,-166.666666666667,4,2,1,40,0,0
171525,-45.4545454545455,4,2,1,40,0,0
171585,-166.666666666667,4,2,1,40,0,0
171765,-45.4545454545455,4,2,1,40,0,0
171795,-166.666666666667,4,2,1,40,0,0
171885,-45.4545454545455,4,2,1,40,0,0
171945,-166.666666666667,4,2,1,40,0,0
172125,-45.4545454545455,4,2,1,40,0,0
172185,-166.666666666667,4,2,1,40,0,0
172365,-45.4545454545455,4,2,1,40,0,0
172395,-166.666666666667,4,2,1,40,0,0
172485,-45.4545454545455,4,2,1,40,0,0
172515,-166.666666666667,4,2,1,40,0,0
172605,-45.4545454545455,4,2,1,40,0,0
172635,-166.666666666667,4,2,1,40,0,0
172725,-45.4545454545455,4,2,1,40,0,0
172755,-166.666666666667,4,2,1,40,0,0
172845,-52.6315789473684,4,2,1,40,0,0
172875,-1000,4,2,1,40,0,0
172905,-52.6315789473684,4,2,1,40,0,0
172935,-1000,4,2,1,40,0,0
172965,-52.6315789473684,4,2,1,40,0,0
172995,-1000,4,2,1,40,0,0
173025,-52.6315789473684,4,2,1,40,0,0
173055,-1000,4,2,1,40,0,0
173085,-52.6315789473684,4,2,1,40,0,0
173115,-1000,4,2,1,40,0,0
173145,-52.6315789473684,4,2,1,40,0,0
173175,-1000,4,2,1,40,0,0
173205,-52.6315789473684,4,2,1,40,0,0
173235,-1000,4,2,1,40,0,0
173265,-52.6315789473684,4,2,1,40,0,0
173295,-1000,4,2,1,40,0,0
173325,-45.4545454545455,4,2,1,40,0,0
173355,-166.666666666667,4,2,1,40,0,0
173445,-45.4545454545455,4,2,1,40,0,0
173475,-166.666666666667,4,2,1,40,0,0
173565,-52.6315789473684,4,2,1,40,0,0
173595,-1000,4,2,1,40,0,0
173625,-52.6315789473684,4,2,1,40,0,0
173655,-1000,4,2,1,40,0,0
173685,-52.6315789473684,4,2,1,40,0,0
173715,-1000,4,2,1,40,0,0
173745,-52.6315789473684,4,2,1,40,0,0
173775,-1000,4,2,1,40,0,0
173805,-40,4,2,1,40,0,0
173865,-250.000000000001,4,2,1,40,0,0
174045,-90.9090909090909,4,2,1,40,0,0
174075,-142.857142857143,4,2,1,40,0,0
174105,-200.000000000001,4,2,1,40,0,0
174165,-142.857142857143,4,2,1,40,0,0
174225,-90.9090909090909,4,2,1,40,0,0
174255,-47.6190476190476,4,2,1,40,0,0
174285,-100,4,2,1,40,0,0

[HitObjects]
64,192,1485,5,0,0:0:0:70:LR4_KickGBDV.wav
192,192,1485,1,0,0:0:0:0:
320,192,1485,1,0,0:0:0:0:
448,192,1485,128,0,3405:0:0:0:0:
64,192,3405,1,0,0:0:0:40:LR2_KickBassFast2.wav
192,192,3405,1,0,0:0:0:0:
320,192,3405,128,0,5325:0:0:0:0:
64,192,5325,1,0,0:0:0:40:LR2_KickBassFast2.wav
192,192,5325,128,0,7245:0:0:0:0:
448,192,5325,1,0,0:0:0:0:
64,192,7245,128,0,8925:0:0:0:40:LR2_KickBassFast2.wav
320,192,7245,1,0,0:0:0:0:
448,192,7245,128,0,8085:0:0:0:0:
448,192,8205,128,0,8565:0:0:0:0:
448,192,8685,128,0,9165:0:0:0:0:
320,192,8925,128,0,9165:0:0:0:0:
64,192,9165,1,0,0:0:0:30:LR_CymbalG.wav
192,192,9165,1,0,0:0:0:40:LR2_KickBassFast2.wav
448,192,9285,1,0,0:0:0:0:
320,192,9405,1,0,0:0:0:0:
64,192,9525,1,0,0:0:0:0:
192,192,9645,1,0,0:0:0:0:
320,192,9765,1,0,0:0:0:0:
192,192,9885,1,0,0:0:0:0:
64,192,10005,1,0,0:0:0:0:
320,192,10125,1,0,0:0:0:0:
448,192,10245,1,0,0:0:0:0:
64,192,10365,1,0,0:0:0:0:
192,192,10485,1,0,0:0:0:0:
320,192,10605,1,0,0:0:0:0:
192,192,10725,1,0,0:0:0:0:
448,192,10845,1,0,0:0:0:0:
320,192,10965,1,0,0:0:0:0:
64,192,11085,1,0,0:0:0:30:LR_CymbalG.wav
192,192,11085,1,0,0:0:0:40:LR2_KickBassFast2.wav
448,192,11085,128,0,13005:0:0:0:0:
64,192,13005,1,0,0:0:0:60:LR_CymbalG.wav
192,192,13005,1,0,0:0:0:70:LR4_KickGBDV.wav
320,192,13005,1,0,0:0:0:70:LR_Hit Med Click.wav
64,192,13245,1,0,0:0:0:0:
192,192,13245,1,0,0:0:0:0:
64,192,13485,1,0,0:0:0:70:LR_Hit Med Click.wav
320,192,13485,1,0,0:0:0:0:
448,192,13485,1,0,0:0:0:0:
64,192,13725,1,0,0:0:0:60:LR_CymbalG.wav
192,192,13725,1,0,0:0:0:70:LR4_KickGBDV.wav
320,192,13725,1,0,0:0:0:70:LR_Hit Med Click.wav
448,192,13725,1,0,0:0:0:0:
192,192,13965,1,0,0:0:0:0:
320,192,13965,1,0,0:0:0:0:
320,192,14205,1,0,0:0:0:70:LR_Hit Med Click.wav
448,192,14205,1,0,0:0:0:0:
64,192,14325,1,0,0:0:0:70:LR_Hit Med Click.wav
192,192,14325,1,0,0:0:0:0:
64,192,14445,1,0,0:0:0:60:LR_CymbalG.wav
192,192,14445,1,0,0:0:0:70:LR4_KickGBDV.wav
320,192,14445,1,0,0:0:0:70:LR_Hit Med Click.wav
448,192,14445,1,0,0:0:0:0:
192,192,14685,1,0,0:0:0:70:LR_Hit Med Click.wav
320,192,14685,1,0,0:0:0:0:
448,192,14685,1,0,0:0:0:0:
64,192,14925,1,0,0:0:0:70:LR_Hit Med Click.wav
192,192,14925,1,0,0:0:0:0:
64,192,15165,1,0,0:0:0:60:LR_CymbalG.wav
192,192,15165,1,0,0:0:0:70:LR4_KickGBDV.wav
320,192,15165,1,0,0:0:0:70:LR_Hit Med Click.wav
448,192,15165,1,0,0:0:0:0:
64,192,16845,1,0,0:0:0:50:LR2_KickBassFast2.wav
320,192,16845,1,0,0:0:0:30:LR_Tom Drop.wav
448,192,16845,1,0,0:0:0:0:
64,192,16965,1,0,0:0:0:20:LR_Hit Med Click.wav
192,192,17085,1,0,0:0:0:20:LR_Hit Med Click.wav
320,192,17205,1,0,0:0:0:20:LR_Hit Med Click.wav
64,192,17325,1,0,0:0:0:50:LR2_KickBassFast2.wav
192,192,17325,1,0,0:0:0:20:LR_Hit Med Click.wav
448,192,17325,1,0,0:0:0:0:
448,192,17445,1,0,0:0:0:20:LR_Hit Med Click.wav
320,192,17565,1,0,0:0:0:20:LR_Hit Med Click.wav
64,192,17685,1,0,0:0:0:20:LR_Hit Med Click.wav
192,192,17805,1,0,0:0:0:50:LR2_KickBassFast2.wav
320,192,17805,1,0,0:0:0:25:LR_Hit Med Click.wav
448,192,17805,1,0,0:0:0:0:
192,192,17925,1,0,0:0:0:25:LR_Hit Med Click.wav
64,192,18045,1,0,0:0:0:25:LR_Hit Med Click.wav
448,192,18165,1,0,0:0:0:25:LR_Hit Med Click.wav
64,192,18285,1,0,0:0:0:50:LR2_KickBassFast2.wav
192,192,18285,1,0,0:0:0:25:LR_Hit Med Click.wav
320,192,18285,1,0,0:0:0:0:
320,192,18405,1,0,0:0:0:25:LR_Hit Med Click.wav
448,192,18525,1,0,0:0:0:25:LR_Hit Med Click.wav
192,192,18645,1,0,0:0:0:25:LR_Hit Med Click.wav
64,192,18765,1,0,0:0:0:50:LR2_KickBassFast2.wav
320,192,18765,1,0,0:0:0:30:LR_Hit Med Click.wav
448,192,18765,1,0,0:0:0:0:
64,192,18885,1,0,0:0:0:30:LR_Hit Med Click.wav
192,192,19005,1,0,0:0:0:30:LR_Hit Med Click.wav
320,192,19125,1,0,0:0:0:30:LR_Hit Med Click.wav
64,192,19245,1,0,0:0:0:50:LR2_KickBassFast2.wav
192,192,19245,1,0,0:0:0:30:LR_Hit Med Click.wav
448,192,19245,1,0,0:0:0:0:
192,192,19365,1,0,0:0:0:30:LR_Hit Med Click.wav
320,192,19485,1,0,0:0:0:30:LR_Hit Med Click.wav
448,192,19605,1,0,0:0:0:30:LR_Hit Med Click.wav
64,192,19725,1,0,0:0:0:50:LR2_KickBassFast2.wav
192,192,19725,1,0,0:0:0:35:LR_Hit Med Click.wav
320,192,19725,1,0,0:0:0:0:
320,192,19845,1,0,0:0:0:35:LR_Hit Med Click.wav
448,192,19965,1,0,0:0:0:35:LR_Hit Med Click.wav
64,192,20085,1,0,0:0:0:35:LR_Hit Med Click.wav
192,192,20205,1,0,0:0:0:50:LR2_KickBassFast2.wav
320,192,20205,1,0,0:0:0:35:LR_Hit Med Click.wav
448,192,20205,1,0,0:0:0:0:
448,192,20325,1,0,0:0:0:35:LR_Hit Med Click.wav
192,192,20445,1,0,0:0:0:35:LR_Hit Med Click.wav
64,192,20565,1,0,0:0:0:35:LR_Hit Med Click.wav
192,192,20685,1,0,0:0:0:50:LR2_KickBassFast2.wav
320,192,20685,1,0,0:0:0:40:LR_Hit Med Click.wav
448,192,20685,1,0,0:0:0:0:
320,192,20925,1,0,0:0:0:40:LR_Hit Med Click.wav
448,192,21045,1,0,0:0:0:40:LR_Hit Med Click.wav
64,192,21165,1,0,0:0:0:50:LR2_KickBassFast2.wav
192,192,21165,1,0,0:0:0:40:LR_Hit Med Click.wav
320,192,21165,1,0,0:0:0:0:
448,192,21405,1,0,0:0:0:40:LR_Hit Med Click.wav
192,192,21525,1,0,0:0:0:40:LR_Hit Med Click.wav
64,192,21645,1,0,0:0:0:50:LR2_KickBassFast2.wav
320,192,21645,1,0,0:0:0:40:LR_Hit Med Click.wav
448,192,21645,1,0,0:0:0:0:
64,192,21765,1,0,0:0:0:40:LR_Hit Med Click.wav
320,192,21885,1,0,0:0:0:40:LR_Hit Med Click.wav
192,192,22005,1,0,0:0:0:40:LR_Hit Med Click.wav
64,192,22125,1,0,0:0:0:50:LR2_KickBassFast2.wav
320,192,22125,1,0,0:0:0:45:LR_Hit Med Click.wav
448,192,22125,1,0,0:0:0:0:
448,192,22245,1,0,0:0:0:45:LR_Hit Med Click.wav
192,192,22365,1,0,0:0:0:45:LR_Hit Med Click.wav
320,192,22485,1,0,0:0:0:45:LR_Hit Med Click.wav
64,192,22605,1,0,0:0:0:50:LR2_KickBassFast2.wav
192,192,22605,1,0,0:0:0:45:LR_Hit Med Click.wav
448,192,22605,1,0,0:0:0:0:
64,192,22725,1,0,0:0:0:45:LR_Hit Med Click.wav
448,192,22845,1,0,0:0:0:45:LR_Hit Med Click.wav
320,192,22965,1,0,0:0:0:45:LR_Hit Med Click.wav
64,192,23085,1,0,0:0:0:50:LR2_KickBassFast2.wav
192,192,23085,1,0,0:0:0:50:LR_Hit Med Click.wav
448,192,23085,1,0,0:0:0:0:
448,192,23205,1,0,0:0:0:50:LR_Hit Med Click.wav
64,192,23325,1,0,0:0:0:50:LR_Hit Med Click.wav
192,192,23445,1,0,0:0:0:50:LR_Hit Med Click.wav
64,192,23565,1,0,0:0:0:50:LR2_KickBassFast2.wav
320,192,23565,1,0,0:0:0:50:LR_Hit Med Click.wav
448,192,23565,1,0,0:0:0:0:
64,192,23685,1,0,0:0:0:50:LR_Hit Med Click.wav
320,192,23805,1,0,0:0:0:50:LR_Hit Med Click.wav
192,192,23925,1,0,0:0:0:50:LR_Hit Med Click.wav
64,192,24045,1,0,0:0:0:50:LR2_KickBassFast2.wav
320,192,24045,1,0,0:0:0:50:LR_Hit Med Click.wav
448,192,24045,1,0,0:0:0:0:
64,192,24165,1,0,0:0:0:50:LR_Hit Med Click.wav
192,192,24285,1,0,0:0:0:50:LR_Hit Med Click.wav
320,192,24405,1,0,0:0:0:50:LR_Hit Med Click.wav
64,192,24525,1,0,0:0:0:70:LR4_KickGBDV.wav
448,192,24525,1,0,0:0:0:100:LR_Hit Med Click.wav
320,192,24645,1,0,0:0:0:100:LR_Hit Med Click.wav
448,192,24645,1,0,0:0:0:0:
64,192,24765,1,0,0:0:0:40:LR2_KickBassFast2.wav
320,192,24765,1,0,0:0:0:100:LR_Hit Med Click.wav
64,192,24885,1,0,0:0:0:100:LR_Hit Med Click.wav
192,192,24885,1,0,0:0:0:0:
192,192,25005,1,0,0:0:0:70:LR4_KickGBDV.wav
448,192,25005,1,0,0:0:0:100:LR_Hit Med Click.wav
320,192,25125,1,0,0:0:0:100:LR_Hit Med Click.wav
448,192,25125,1,0,0:0:0:0:
64,192,25245,1,0,0:0:0:40:LR2_KickBassFast2.wav
320,192,25245,1,0,0:0:0:100:LR_Hit Med Click.wav
64,192,25365,1,0,0:0:0:100:LR_Hit Med Click.wav
192,192,25365,1,0,0:0:0:0:
192,192,25485,1,0,0:0:0:70:LR4_KickGBDV.wav
320,192,25485,1,0,0:0:0:100:LR_Hit Med Click.wav
64,192,25605,1,0,0:0:0:100:LR_Hit Med Click.wav
320,192,25605,1,0,0:0:0:0:
64,192,25725,1,0,0:0:0:40:LR2_KickBassFast2.wav
448,192,25725,1,0,0:0:0:100:LR_Hit Med Click.wav
192,192,25845,1,0,0:0:0:100:LR_Hit Med Click.wav
448,192,25845,1,0,0:0:0:0:
192,192,25965,1,0,0:0:0:70:LR4_KickGBDV.wav
320,192,25965,1,0,0:0:0:100:LR_Hit Med Click.wav
320,192,26085,1,0,0:0:0:100:LR_Hit Med Click.wav
448,192,26085,1,0,0:0:0:0:
64,192,26205,1,0,0:0:0:40:LR2_KickBassFast2.wav
448,192,26205,1,0,0:0:0:100:LR_Hit Med Click.wav
64,192,26325,1,0,0:0:0:100:LR_Hit Med Click.wav
320,192,26325,1,0,0:0:0:0:
192,192,26445,1,0,0:0:0:70:LR4_KickGBDV.wav
320,192,26445,1,0,0:0:0:100:LR_Hit Med Click.wav
192,192,26565,1,0,0:0:0:100:LR_Hit Med Click.wav
448,192,26565,1,0,0:0:0:0:
320,192,26685,1,0,0:0:0:40:LR2_KickBassFast2.wav
448,192,26685,1,0,0:0:0:100:LR_Hit Med Click.wav
64,192,26805,1,0,0:0:0:100:LR_Hit Med Click.wav
320,192,26805,1,0,0:0:0:0:
64,192,26925,1,0,0:0:0:70:LR4_KickGBDV.wav
192,192,26925,1,0,0:0:0:100:LR_Hit Med Click.wav
192,192,27045,1,0,0:0:0:100:LR_Hit Med Click.wav
448,192,27045,1,0,0:0:0:0:
64,192,27165,1,0,0:0:0:40:LR2_KickBassFast2.wav
448,192,27165,1,0,0:0:0:100:LR_Hit Med Click.wav
64,192,27285,1,0,0:0:0:100:LR_Hit Med Click.wav
192,192,27285,1,0,0:0:0:0:
192,192,27405,1,0,0:0:0:70:LR4_KickGBDV.wav
448,192,27405,1,0,0:0:0:100:LR_Hit Med Click.wav
320,192,27525,1,0,0:0:0:100:LR_Hit Med Click.wav
448,192,27525,1,0,0:0:0:0:
192,192,27645,1,0,0:0:0:40:LR2_KickBassFast2.wav
320,192,27645,1,0,0:0:0:100:LR_Hit Med Click.wav
64,192,27765,1,0,0:0:0:100:LR_Hit Med Click.wav
192,192,27765,1,0,0:0:0:0:
64,192,27885,1,0,0:0:0:70:LR4_KickGBDV.wav
320,192,27885,1,0,0:0:0:100:LR_Hit Med Click.wav
448,192,27885,1,0,0:0:0:0:
448,192,28005,1,0,0:0:0:100:LR_Hit Med Click.wav
64,192,28125,1,0,0:0:0:40:LR2_KickBassFast2.wav
192,192,28125,1,0,0:0:0:100:LR_Hit Med Click.wav
320,192,28185,1,0,0:0:0:100:LR_Hit Med Click.wav
448,192,28185,1,0,0:0:0:0:
64,192,28245,1,0,0:0:0:100:LR_Hit Med Click.wav
192,192,28245,1,0,0:0:0:0:
320,192,28305,1,0,0:0:0:100:LR_Hit Med Click.wav
64,192,28365,1,0,0:0:0:70:LR4_KickGBDV.wav
192,192,28365,1,0,0:0:0:100:LR_Hit Med Click.wav
448,192,28365,1,0,0:0:0:0:
64,192,28485,1,0,0:0:0:100:LR_Hit Med Click.wav
192,192,28485,1,0,0:0:0:0:
320,192,28605,1,0,0:0:0:100:LR_Hit Med Click.wav
448,192,28605,1,0,0:0:0:0:
320,192,28725,1,0,0:0:0:100:LR_Hit Med Click.wav
448,192,28725,1,0,0:0:0:0:
64,192,28845,1,0,0:0:0:70:LR4_KickGBDV.wav
192,192,28845,1,0,0:0:0:100:LR_Hit Med Click.wav
448,192,28845,1,0,0:0:0:0:
64,192,28965,1,0,0:0:0:100:LR_Hit Med Click.wav
320,192,28965,1,0,0:0:0:0:
192,192,29085,1,0,0:0:0:100:LR_Hit Med Click.wav
448,192,29085,1,0,0:0:0:0:
192,192,29205,1,0,0:0:0:100:LR_Hit Med Click.wav
448,192,29205,1,0,0:0:0:0:
64,192,29325,1,0,0:0:0:70:LR4_KickGBDV.wav
192,192,29325,1,0,0:0:0:100:LR_Hit Med Click.wav
320,192,29325,1,0,0:0:0:0:
320,192,29445,1,0,0:0:0:100:LR_Hit Med Click.wav
448,192,29445,1,0,0:0:0:0:
64,192,29565,1,0,0:0:0:100:LR_Hit Med Click.wav
192,192,29565,1,0,0:0:0:0:
64,192,29685,1,0,0:0:0:100:LR_Hit Med Click.wav
192,192,29685,1,0,0:0:0:0:
64,192,29805,1,0,0:0:0:70:LR4_KickGBDV.wav
320,192,29805,1,0,0:0:0:100:LR_Hit Med Click.wav
448,192,29805,1,0,0:0:0:0:
192,192,29925,1,0,0:0:0:100:LR_Hit Med Click.wav
448,192,29925,1,0,0:0:0:0:
64,192,30045,1,0,0:0:0:100:LR_Hit Med Click.wav
320,192,30045,1,0,0:0:0:0:
64,192,30165,1,0,0:0:0:100:LR_Hit Med Click.wav
320,192,30165,1,0,0:0:0:0:
64,192,30285,1,0,0:0:0:70:LR4_KickGBDV.wav
192,192,30285,1,0,0:0:0:100:LR_Hit Med Click.wav
448,192,30285,1,0,0:0:0:0:
320,192,30345,1,0,0:0:0:100:LR_Hit Med Click.wav
448,192,30405,1,0,0:0:0:100:LR_Hit Med Click.wav
64,192,30465,1,0,0:0:0:100:LR_Hit Med Click.wav
192,192,30465,1,0,0:0:0:0:
320,192,30525,1,0,0:0:0:100:LR_Hit Med Click.wav
448,192,30525,1,0,0:0:0:0:
64,192,30585,1,0,0:0:0:100:LR_Hit Med Click.wav
192,192,30585,1,0,0:0:0:0:
320,192,30645,1,0,0:0:0:100:LR_Hit Med Click.wav
448,192,30645,1,0,0:0:0:0:
192,192,30705,1,0,0:0:0:100:LR_Hit Med Click.wav
64,192,30765,1,0,0:0:0:70:LR4_KickGBDV.wav
320,192,30765,1,0,0:0:0:100:LR_Hit Med Click.wav
448,192,30765,1,0,0:0:0:0:
192,192,30825,1,0,0:0:0:100:LR_Hit Med Click.wav
64,192,30885,1,0,0:0:0:100:LR_Hit Med Click.wav
320,192,30945,1,0,0:0:0:100:LR_Hit Med Click.wav
448,192,30945,1,0,0:0:0:0:
64,192,31005,1,0,0:0:0:100:LR_Hit Med Click.wav
192,192,31005,1,0,0:0:0:0:
320,192,31065,1,0,0:0:0:100:LR_Hit Med Click.wav
448,192,31065,1,0,0:0:0:0:
64,192,31125,1,0,0:0:0:100:LR_Hit Med Click.wav
192,192,31125,1,0,0:0:0:0:
448,192,31185,1,0,0:0:0:100:LR_Hit Med Click.wav
64,192,31245,1,0,0:0:0:70:LR4_KickGBDV.wav
192,192,31245,1,0,0:0:0:100:LR_Hit Med Click.wav
320,192,31245,1,0,0:0:0:0:
448,192,31305,1,0,0:0:0:100:LR_Hit Med Click.wav
320,192,31365,1,0,0:0:0:100:LR_Hit Med Click.wav
64,192,31425,1,0,0:0:0:100:LR_Hit Med Click.wav
192,192,31425,1,0,0:0:0:0:
320,192,31485,1,0,0:0:0:100:LR_Hit Med Click.wav
448,192,31485,1,0,0:0:0:0:
64,192,31545,1,0,0:0:0:100:LR_Hit Med Click.wav
192,192,31545,1,0,0:0:0:0:
320,192,31605,1,0,0:0:0:100:LR_Hit Med Click.wav
448,192,31605,1,0,0:0:0:0:
64,192,31665,1,0,0:0:0:100:LR_Hit Med Click.wav
192,192,31725,1,0,0:0:0:70:LR4_KickGBDV.wav
320,192,31725,1,0,0:0:0:100:LR_Hit Med Click.wav
448,192,31725,1,0,0:0:0:0:
64,192,31785,1,0,0:0:0:100:LR_Hit Med Click.wav
192,192,31845,1,0,0:0:0:100:LR_Hit Med Click.wav
320,192,31905,1,0,0:0:0:100:LR_Hit Med Click.wav
448,192,31905,1,0,0:0:0:0:
64,192,31965,1,0,0:0:0:100:LR_Hit Med Click.wav
192,192,31965,1,0,0:0:0:0:
320,192,32025,1,0,0:0:0:100:LR_Hit Med Click.wav
448,192,32025,1,0,0:0:0:0:
64,192,32085,1,0,0:0:0:100:LR_Hit Med Click.wav
192,192,32085,1,0,0:0:0:0:
320,192,32145,1,0,0:0:0:100:LR_Hit Med Click.wav
64,192,32205,1,0,0:0:0:60:LR_CymbalG.wav
192,192,32205,1,0,0:0:0:80:LR4_KickGBDV.wav
448,192,32205,1,0,0:0:0:100:LR_Hit Med Click.wav
64,192,33525,1,0,0:0:0:40:LR_Tom Drop.wav
192,192,33525,1,0,0:0:0:0:
64,192,33645,1,0,0:0:0:40:LR_Tom Drop.wav
320,192,33645,1,0,0:0:0:0:
448,192,33645,1,0,0:0:0:0:
192,192,33765,1,0,0:0:0:40:LR_Tom Drop.wav
320,192,33765,1,0,0:0:0:0:
448,192,33765,1,0,0:0:0:0:
64,192,33885,1,0,0:0:0:40:LR_Tom Drop.wav
192,192,33885,1,0,0:0:0:0:
320,192,33885,1,0,0:0:0:0:
64,192,34125,1,0,0:0:0:70:LR4_KickGBDV.wav
320,192,34125,128,0,34245:0:0:0:0:
448,192,34125,128,0,34605:0:0:0:0:
192,192,34245,128,0,34365:0:0:0:0:
64,192,34365,1,0,0:0:0:100:LR5_HiHat NSynth.wav
320,192,34485,128,0,34605:0:0:0:100:LR5_HiHat NSynth.wav
64,192,34605,128,0,35085:0:0:0:60:LR_CymbalSSD.wav
192,192,34605,1,0,0:0:0:70:LR4_KickGBDV.wav
320,192,34845,1,0,0:0:0:100:LR5_HiHat NSynth.wav
448,192,34845,128,0,35085:0:0:0:0:
192,192,35085,1,0,0:0:0:70:LR4_KickGBDV.wav
320,192,35085,1,0,0:0:0:0:
64,192,35205,1,0,0:0:0:0:
448,192,35205,1,0,0:0:0:0:
192,192,35325,1,0,0:0:0:100:LR5_HiHat NSynth.wav
320,192,35325,1,0,0:0:0:0:
448,192,35325,1,0,0:0:0:0:
64,192,35445,1,0,0:0:0:0:
192,192,35445,1,0,0:0:0:0:
64,192,35565,1,0,0:0:0:60:LR_CymbalSSD.wav
192,192,35565,1,0,0:0:0:70:LR4_KickGBDV.wav
320,192,35565,1,0,0:0:0:0:
448,192,35565,1,0,0:0:0:0:
320,192,35685,1,0,0:0:0:0:
448,192,35685,1,0,0:0:0:0:
64,192,35805,1,0,0:0:0:100:LR5_HiHat NSynth.wav
192,192,35805,1,0,0:0:0:0:
320,192,35805,1,0,0:0:0:0:
192,192,35925,1,0,0:0:0:0:
448,192,35925,1,0,0:0:0:0:
64,192,36045,1,0,0:0:0:70:LR4_KickGBDV.wav
320,192,36045,128,0,36165:0:0:0:0:
448,192,36045,128,0,36525:0:0:0:0:
192,192,36165,128,0,36285:0:0:0:0:
320,192,36285,1,0,0:0:0:100:LR5_HiHat NSynth.wav
64,192,36405,128,0,36525:0:0:0:100:LR5_HiHat NSynth.wav
192,192,36525,1,0,0:0:0:60:LR_CymbalSSD.wav
320,192,36525,128,0,37005:0:0:0:70:LR4_KickGBDV.wav
64,192,36765,1,0,0:0:0:100:LR5_HiHat NSynth.wav
192,192,36765,128,0,37005:0:0:0:0:
64,192,37005,1,0,0:0:0:70:LR4_KickGBDV.wav
448,192,37005,1,0,0:0:0:0:
64,192,37125,1,0,0:0:0:0:
192,192,37125,1,0,0:0:0:0:
192,192,37245,1,0,0:0:0:100:LR5_HiHat NSynth.wav
320,192,37245,1,0,0:0:0:0:
448,192,37245,1,0,0:0:0:0:
64,192,37365,1,0,0:0:0:0:
192,192,37365,1,0,0:0:0:0:
64,192,37485,1,0,0:0:0:60:LR_CymbalSSD.wav
192,192,37485,1,0,0:0:0:70:LR4_KickGBDV.wav
320,192,37485,1,0,0:0:0:0:
448,192,37485,1,0,0:0:0:0:
320,192,37605,1,0,0:0:0:0:
448,192,37605,1,0,0:0:0:0:
64,192,37725,1,0,0:0:0:100:LR5_HiHat NSynth.wav
192,192,37725,1,0,0:0:0:0:
448,192,37725,1,0,0:0:0:0:
192,192,37845,1,0,0:0:0:0:
320,192,37845,1,0,0:0:0:0:
64,192,37965,128,0,38445:0:0:0:70:LR4_KickGBDV.wav
192,192,37965,1,0,0:0:0:0:
320,192,37965,128,0,38085:0:0:0:0:
448,192,38085,128,0,38205:0:0:0:0:
320,192,38205,1,0,0:0:0:100:LR5_HiHat NSynth.wav
192,192,38325,128,0,38445:0:0:0:100:LR5_HiHat NSynth.wav
320,192,38445,1,0,0:0:0:60:LR_CymbalSSD.wav
448,192,38445,128,0,38925:0:0:0:70:LR4_KickGBDV.wav
64,192,38685,128,0,38925:0:0:0:100:LR5_HiHat NSynth.wav
192,192,38685,1,0,0:0:0:0:
192,192,38925,1,0,0:0:0:70:LR4_KickGBDV.wav
320,192,38925,1,0,0:0:0:0:
320,192,39045,1,0,0:0:0:0:
448,192,39105,1,0,0:0:0:0:
64,192,39165,1,0,0:0:0:100:LR5_HiHat NSynth.wav
192,192,39165,1,0,0:0:0:0:
320,192,39285,1,0,0:0:0:0:
448,192,39285,1,0,0:0:0:0:
64,192,39405,1,0,0:0:0:60:LR_CymbalSSD.wav
192,192,39405,1,0,0:0:0:70:LR4_KickGBDV.wav
320,192,39405,1,0,0:0:0:0:
448,192,39405,1,0,0:0:0:0:
192,192,39525,1,0,0:0:0:0:
448,192,39525,1,0,0:0:0:0:
64,192,39645,1,0,0:0:0:100:LR5_HiHat NSynth.wav
320,192,39645,1,0,0:0:0:0:
448,192,39645,1,0,0:0:0:0:
64,192,39765,1,0,0:0:0:0:
192,192,39765,1,0,0:0:0:0:
320,192,39885,1,0,0:0:0:70:LR4_KickGBDV.wav
448,192,39885,1,0,0:0:0:0:
64,192,39945,1,0,0:0:0:0:
192,192,40005,1,0,0:0:0:0:
320,192,40065,1,0,0:0:0:0:
64,192,40125,1,0,0:0:0:100:LR5_HiHat NSynth.wav
448,192,40125,1,0,0:0:0:0:
192,192,40185,1,0,0:0:0:0:
320,192,40245,1,0,0:0:0:100:LR5_HiHat NSynth.wav
64,192,40305,1,0,0:0:0:0:
192,192,40365,1,0,0:0:0:60:LR_CymbalSSD.wav
320,192,40365,1,0,0:0:0:70:LR4_KickGBDV.wav
448,192,40365,1,0,0:0:0:0:
320,192,40605,1,0,0:0:0:100:LR5_HiHat NSynth.wav
448,192,40605,1,0,0:0:0:0:
64,192,40725,1,0,0:0:0:0:
192,192,40725,1,0,0:0:0:0:
64,192,40845,128,0,41025:0:0:0:70:LR4_KickGBDV.wav
192,192,40845,128,0,41025:0:0:0:0:
448,192,40845,1,0,0:0:0:0:
64,192,41085,128,0,41265:0:0:0:100:LR5_HiHat NSynth.wav
320,192,41085,1,0,0:0:0:0:
448,192,41085,128,0,41265:0:0:0:0:
192,192,41325,1,0,0:0:0:60:LR_CymbalSSD.wav
320,192,41325,1,0,0:0:0:70:LR4_KickGBDV.wav
448,192,41325,1,0,0:0:0:0:
192,192,41565,128,0,41685:0:0:0:0:
320,192,41565,128,0,41685:0:0:0:0:
64,192,41805,128,0,41925:0:0:0:70:LR4_KickGBDV.wav
320,192,41805,1,0,0:0:0:0:
448,192,41805,128,0,42285:0:0:0:0:
192,192,41925,128,0,42045:0:0:0:0:
64,192,42045,1,0,0:0:0:100:LR5_HiHat NSynth.wav
320,192,42165,128,0,42285:0:0:0:100:LR5_HiHat NSynth.wav
64,192,42285,128,0,42765:0:0:0:60:LR_CymbalSSD.wav
192,192,42285,1,0,0:0:0:70:LR4_KickGBDV.wav
192,192,42525,128,0,42765:0:0:0:100:LR5_HiHat NSynth.wav
448,192,42525,1,0,0:0:0:0:
320,192,42765,1,0,0:0:0:70:LR4_KickGBDV.wav
448,192,42765,1,0,0:0:0:0:
192,192,42885,1,0,0:0:0:0:
448,192,42885,1,0,0:0:0:0:
64,192,43005,1,0,0:0:0:100:LR5_HiHat NSynth.wav
320,192,43005,1,0,0:0:0:0:
448,192,43005,1,0,0:0:0:0:
64,192,43125,1,0,0:0:0:0:
192,192,43125,1,0,0:0:0:0:
64,192,43245,1,0,0:0:0:60:LR_CymbalSSD.wav
192,192,43245,1,0,0:0:0:70:LR4_KickGBDV.wav
320,192,43245,1,0,0:0:0:0:
448,192,43245,1,0,0:0:0:0:
320,192,43365,1,0,0:0:0:0:
448,192,43365,1,0,0:0:0:0:
64,192,43485,1,0,0:0:0:100:LR5_HiHat NSynth.wav
192,192,43485,1,0,0:0:0:0:
448,192,43485,1,0,0:0:0:0:
192,192,43605,1,0,0:0:0:0:
320,192,43605,1,0,0:0:0:0:
64,192,43725,1,0,0:0:0:70:LR4_KickGBDV.wav
320,192,43725,128,0,43845:0:0:0:0:
448,192,43725,128,0,44205:0:0:0:0:
192,192,43845,128,0,43965:0:0:0:0:
320,192,43965,1,0,0:0:0:100:LR5_HiHat NSynth.wav
64,192,44085,128,0,44205:0:0:0:100:LR5_HiHat NSynth.wav
192,192,44205,1,0,0:0:0:60:LR_CymbalSSD.wav
320,192,44205,128,0,44685:0:0:0:70:LR4_KickGBDV.wav
64,192,44445,1,0,0:0:0:100:LR5_HiHat NSynth.wav
448,192,44445,128,0,44685:0:0:0:0:
64,192,44685,1,0,0:0:0:70:LR4_KickGBDV.wav
192,192,44685,1,0,0:0:0:0:
320,192,44805,1,0,0:0:0:0:
448,192,44805,1,0,0:0:0:0:
64,192,44925,1,0,0:0:0:100:LR5_HiHat NSynth.wav
192,192,44925,1,0,0:0:0:0:
320,192,44925,1,0,0:0:0:0:
320,192,45045,1,0,0:0:0:0:
448,192,45045,1,0,0:0:0:0:
64,192,45165,1,0,0:0:0:60:LR_CymbalSSD.wav
192,192,45165,1,0,0:0:0:70:LR4_KickGBDV.wav
320,192,45165,1,0,0:0:0:0:
448,192,45165,1,0,0:0:0:0:
64,192,45285,1,0,0:0:0:0:
192,192,45285,1,0,0:0:0:0:
192,192,45405,1,0,0:0:0:100:LR5_HiHat NSynth.wav
320,192,45405,1,0,0:0:0:0:
448,192,45405,1,0,0:0:0:0:
64,192,45525,1,0,0:0:0:0:
192,192,45525,1,0,0:0:0:0:
64,192,45645,128,0,46125:0:0:0:70:LR4_KickGBDV.wav
320,192,45645,1,0,0:0:0:0:
448,192,45645,128,0,45765:0:0:0:0:
192,192,45765,128,0,45885:0:0:0:0:
448,192,45885,1,0,0:0:0:100:LR5_HiHat NSynth.wav
320,192,46005,128,0,46125:0:0:0:100:LR5_HiHat NSynth.wav
192,192,46125,1,0,0:0:0:60:LR_CymbalSSD.wav
448,192,46125,128,0,46605:0:0:0:70:LR4_KickGBDV.wav
64,192,46365,128,0,46605:0:0:0:100:LR5_HiHat NSynth.wav
192,192,46365,1,0,0:0:0:0:
192,192,46605,1,0,0:0:0:70:LR4_KickGBDV.wav
320,192,46605,1,0,0:0:0:0:
320,192,46725,1,0,0:0:0:0:
448,192,46785,1,0,0:0:0:0:
64,192,46845,1,0,0:0:0:100:LR5_HiHat NSynth.wav
192,192,46845,1,0,0:0:0:0:
320,192,46965,1,0,0:0:0:0:
448,192,46965,1,0,0:0:0:0:
64,192,47085,1,0,0:0:0:60:LR_CymbalSSD.wav
192,192,47085,1,0,0:0:0:70:LR4_KickGBDV.wav
320,192,47085,1,0,0:0:0:0:
448,192,47085,1,0,0:0:0:0:
64,192,47205,1,0,0:0:0:0:
192,192,47205,1,0,0:0:0:0:
64,192,47325,1,0,0:0:0:100:LR5_HiHat NSynth.wav
320,192,47325,1,0,0:0:0:0:
448,192,47325,1,0,0:0:0:0:
192,192,47445,1,0,0:0:0:0:
320,192,47445,1,0,0:0:0:0:
320,192,47565,1,0,0:0:0:70:LR4_KickGBDV.wav
448,192,47565,1,0,0:0:0:0:
64,192,47625,1,0,0:0:0:0:
192,192,47685,1,0,0:0:0:0:
320,192,47745,1,0,0:0:0:0:
64,192,47805,1,0,0:0:0:100:LR5_HiHat NSynth.wav
448,192,47805,1,0,0:0:0:0:
192,192,47865,1,0,0:0:0:0:
320,192,47925,1,0,0:0:0:100:LR5_HiHat NSynth.wav
192,192,47985,1,0,0:0:0:0:
64,192,48045,1,0,0:0:0:60:LR_CymbalSSD.wav
320,192,48045,1,0,0:0:0:70:LR4_KickGBDV.wav
448,192,48045,1,0,0:0:0:0:
320,192,48285,1,0,0:0:0:100:LR5_HiHat NSynth.wav
448,192,48285,1,0,0:0:0:0:
192,192,48405,1,0,0:0:0:100:LR5_HiHat NSynth.wav
320,192,48405,1,0,0:0:0:0:
64,192,48525,128,0,49005:0:0:0:70:LR4_KickGBDV.wav
192,192,48525,128,0,48765:0:0:0:0:
448,192,48525,1,0,0:0:0:0:
320,192,48765,1,0,0:0:0:100:LR5_HiHat NSynth.wav
448,192,48765,128,0,49005:0:0:0:0:
192,192,49005,1,0,0:0:0:60:LR_CymbalSSD.wav
320,192,49005,1,0,0:0:0:100:LR5_HiHat NSynth.wav
64,192,49245,1,0,0:0:0:100:LR5_HiHat NSynth.wav
192,192,49245,1,0,0:0:0:0:
448,192,49245,1,0,0:0:0:0:
64,192,49485,1,0,0:0:0:70:LR4_KickGBDV.wav
320,192,49485,1,0,0:0:0:0:
448,192,49485,1,0,0:0:0:0:
192,192,49545,1,0,0:0:0:0:
320,192,49605,1,0,0:0:0:0:
448,192,49665,1,0,0:0:0:0:
64,192,49725,1,0,0:0:0:0:
192,192,49785,1,0,0:0:0:0:
320,192,49845,1,0,0:0:0:0:
64,192,49905,1,0,0:0:0:0:
192,192,49965,1,0,0:0:0:0:
448,192,50025,1,0,0:0:0:0:
320,192,50085,1,0,0:0:0:0:
192,192,50145,1,0,0:0:0:0:
64,192,50205,1,0,0:0:0:0:
320,192,50265,1,0,0:0:0:0:
192,192,50325,1,0,0:0:0:0:
320,192,50385,1,0,0:0:0:0:
64,192,50445,1,0,0:0:0:60:LR_CymbalSSD.wav
192,192,50445,1,0,0:0:0:0:
448,192,50445,1,0,0:0:0:0:
448,192,50565,1,0,0:0:0:0:
64,192,50685,1,0,0:0:0:70:LR4_KickGBDV.wav
192,192,50685,1,0,0:0:0:0:
192,192,50805,1,0,0:0:0:0:
448,192,50805,1,0,0:0:0:0:
64,192,50925,1,0,0:0:0:0:
320,192,50925,1,0,0:0:0:0:
64,192,51165,1,0,0:0:0:0:
192,192,51225,1,0,0:0:0:0:
448,192,51285,1,0,0:0:0:0:
320,192,51345,1,0,0:0:0:0:
64,192,51405,128,0,51765:0:0:0:70:LR4_KickGBDV.wav
192,192,51405,1,0,0:0:0:0:
448,192,51465,1,0,0:0:0:0:
320,192,51525,1,0,0:0:0:0:
192,192,51585,1,0,0:0:0:0:
448,192,51645,1,0,0:0:0:0:
320,192,51705,1,0,0:0:0:0:
192,192,51765,128,0,52125:0:0:0:0:
64,192,51825,1,0,0:0:0:0:
448,192,51885,1,0,0:0:0:0:
320,192,51945,1,0,0:0:0:0:
64,192,52005,1,0,0:0:0:0:
448,192,52065,1,0,0:0:0:0:
64,192,52125,128,0,52365:0:0:0:70:LR4_KickGBDV.wav
448,192,52185,1,0,0:0:0:0:
320,192,52245,1,0,0:0:0:0:
192,192,52305,1,0,0:0:0:0:
320,192,52365,128,0,52725:0:0:0:60:LR_CymbalSSD.wav
64,192,52425,1,0,0:0:0:0:
192,192,52485,1,0,0:0:0:0:
448,192,52545,1,0,0:0:0:0:
64,192,52605,1,0,0:0:0:0:
192,192,52665,1,0,0:0:0:0:
448,192,52725,128,0,53085:0:0:0:0:
320,192,52785,1,0,0:0:0:0:
192,192,52845,1,0,0:0:0:0:
64,192,52905,1,0,0:0:0:0:
320,192,52965,1,0,0:0:0:0:
192,192,53025,1,0,0:0:0:0:
64,192,53085,1,0,0:0:0:70:LR4_KickGBDV.wav
320,192,53085,128,0,53325:0:0:0:0:
64,192,53325,1,0,0:0:0:70:LR4_KickGBDV.wav
192,192,53325,1,0,0:0:0:0:
448,192,53385,1,0,0:0:0:0:
64,192,53445,1,0,0:0:0:0:
192,192,53505,1,0,0:0:0:0:
320,192,53565,1,0,0:0:0:0:
448,192,53625,1,0,0:0:0:0:
64,192,53685,1,0,0:0:0:0:
192,192,53745,1,0,0:0:0:0:
320,192,53805,1,0,0:0:0:0:
64,192,53865,1,0,0:0:0:0:
448,192,53925,1,0,0:0:0:0:
320,192,53985,1,0,0:0:0:0:
192,192,54045,1,0,0:0:0:0:
448,192,54105,1,0,0:0:0:0:
64,192,54165,1,0,0:0:0:0:
192,192,54225,1,0,0:0:0:0:
64,192,54285,1,0,0:0:0:60:LR_CymbalSSD.wav
320,192,54285,1,0,0:0:0:70:LR4_KickGBDV.wav
448,192,54285,1,0,0:0:0:0:
64,192,54405,1,0,0:0:0:0:
192,192,54405,1,0,0:0:0:0:
320,192,54525,1,0,0:0:0:0:
192,192,54645,1,0,0:0:0:0:
448,192,54645,1,0,0:0:0:0:
192,192,54765,1,0,0:0:0:0:
448,192,54765,1,0,0:0:0:0:
64,192,55005,1,0,0:0:0:70:LR4_KickGBDV.wav
192,192,55005,1,0,0:0:0:0:
64,192,55245,128,0,55965:0:0:0:70:LR4_KickGBDV.wav
320,192,55245,1,0,0:0:0:0:
448,192,55245,1,0,0:0:0:0:
192,192,55305,1,0,0:0:0:0:
320,192,55365,1,0,0:0:0:0:
448,192,55425,1,0,0:0:0:0:
192,192,55485,1,0,0:0:0:0:
320,192,55545,1,0,0:0:0:0:
448,192,55605,1,0,0:0:0:0:
192,192,55665,1,0,0:0:0:0:
320,192,55725,1,0,0:0:0:0:
448,192,55785,1,0,0:0:0:0:
192,192,55845,1,0,0:0:0:0:
320,192,55905,1,0,0:0:0:0:
448,192,55965,128,0,56565:0:0:0:70:LR4_KickGBDV.wav
320,192,56025,1,0,0:0:0:0:
192,192,56085,1,0,0:0:0:0:
64,192,56145,1,0,0:0:0:0:
320,192,56205,1,0,0:0:0:0:
192,192,56265,1,0,0:0:0:0:
64,192,56325,1,0,0:0:0:0:
320,192,56385,1,0,0:0:0:0:
192,192,56445,1,0,0:0:0:0:
64,192,56505,1,0,0:0:0:0:
320,192,56565,1,0,0:0:0:0:
192,192,56625,1,0,0:0:0:0:
64,192,56685,1,0,0:0:0:50:LR_Tom Drop.wav
448,192,56685,1,0,0:0:0:0:
192,192,56805,1,0,0:0:0:50:LR_Tom Drop.wav
448,192,56805,1,0,0:0:0:0:
64,192,56925,1,0,0:0:0:50:LR_Tom Drop.wav
192,192,56925,1,0,0:0:0:0:
320,192,57045,1,0,0:0:0:50:LR_Tom Drop.wav
448,192,57045,1,0,0:0:0:0:
64,192,57165,1,0,0:0:0:70:LR4_KickGBDV.wav
320,192,57165,1,0,0:0:0:0:
448,192,57165,1,0,0:0:0:0:
192,192,57225,1,0,0:0:0:0:
320,192,57285,1,0,0:0:0:0:
448,192,57345,1,0,0:0:0:0:
192,192,57405,1,0,0:0:0:0:
64,192,57465,1,0,0:0:0:0:
320,192,57525,1,0,0:0:0:0:
448,192,57585,1,0,0:0:0:0:
192,192,57645,1,0,0:0:0:0:
320,192,57705,1,0,0:0:0:0:
64,192,57765,1,0,0:0:0:0:
448,192,57765,1,0,0:0:0:0:
192,192,57825,1,0,0:0:0:0:
320,192,57885,1,0,0:0:0:80:LR5_HiHat NSynth.wav
448,192,57885,1,0,0:0:0:0:
64,192,57965,1,0,0:0:0:80:LR5_HiHat NSynth.wav
192,192,57965,1,0,0:0:0:0:
64,192,58045,1,0,0:0:0:80:LR5_HiHat NSynth.wav
192,192,58045,1,0,0:0:0:0:
64,192,58125,1,0,0:0:0:60:LR_CymbalSSD.wav
320,192,58125,1,0,0:0:0:80:LR5_HiHat NSynth.wav
448,192,58125,1,0,0:0:0:0:
448,192,58245,1,0,0:0:0:0:
64,192,58365,1,0,0:0:0:70:LR4_KickGBDV.wav
320,192,58365,1,0,0:0:0:0:
192,192,58485,1,0,0:0:0:0:
320,192,58485,1,0,0:0:0:0:
64,192,58605,1,0,0:0:0:0:
448,192,58605,1,0,0:0:0:0:
448,192,58845,1,0,0:0:0:0:
64,192,58965,1,0,0:0:0:0:
320,192,59085,1,0,0:0:0:70:LR4_KickGBDV.wav
448,192,59085,128,0,59445:0:0:0:0:
64,192,59145,1,0,0:0:0:0:
192,192,59205,1,0,0:0:0:0:
320,192,59265,1,0,0:0:0:0:
64,192,59325,1,0,0:0:0:0:
192,192,59385,1,0,0:0:0:0:
320,192,59445,128,0,59805:0:0:0:0:
448,192,59505,1,0,0:0:0:0:
64,192,59565,1,0,0:0:0:0:
192,192,59625,1,0,0:0:0:0:
448,192,59685,1,0,0:0:0:0:
64,192,59745,1,0,0:0:0:0:
192,192,59805,128,0,60045:0:0:0:70:LR4_KickGBDV.wav
448,192,59865,1,0,0:0:0:0:
320,192,59925,1,0,0:0:0:0:
64,192,59985,1,0,0:0:0:0:
448,192,60045,128,0,60405:0:0:0:60:LR_CymbalSSD.wav
320,192,60105,1,0,0:0:0:0:
192,192,60165,1,0,0:0:0:0:
64,192,60225,1,0,0:0:0:0:
320,192,60285,1,0,0:0:0:0:
192,192,60345,1,0,0:0:0:0:
64,192,60405,128,0,60765:0:0:0:0:
320,192,60465,1,0,0:0:0:0:
448,192,60525,1,0,0:0:0:0:
192,192,60585,1,0,0:0:0:0:
320,192,60645,1,0,0:0:0:0:
448,192,60705,1,0,0:0:0:0:
192,192,60765,1,0,0:0:0:70:LR4_KickGBDV.wav
320,192,60765,128,0,61005:0:0:0:0:
64,192,61005,1,0,0:0:0:70:LR4_KickGBDV.wav
448,192,61005,1,0,0:0:0:0:
192,192,61065,1,0,0:0:0:0:
320,192,61125,1,0,0:0:0:0:
64,192,61185,1,0,0:0:0:0:
192,192,61245,1,0,0:0:0:0:
448,192,61305,1,0,0:0:0:0:
320,192,61365,1,0,0:0:0:0:
64,192,61425,1,0,0:0:0:0:
320,192,61485,1,0,0:0:0:0:
192,192,61545,1,0,0:0:0:0:
64,192,61605,1,0,0:0:0:0:
448,192,61605,1,0,0:0:0:0:
320,192,61665,1,0,0:0:0:0:
192,192,61725,1,0,0:0:0:0:
448,192,61785,1,0,0:0:0:0:
64,192,61845,1,0,0:0:0:0:
192,192,61905,1,0,0:0:0:0:
64,192,61965,1,0,0:0:0:60:LR_CymbalSSD.wav
320,192,61965,1,0,0:0:0:70:LR4_KickGBDV.wav
448,192,61965,1,0,0:0:0:0:
64,192,62085,1,0,0:0:0:0:
192,192,62085,1,0,0:0:0:0:
448,192,62205,1,0,0:0:0:0:
64,192,62325,1,0,0:0:0:0:
320,192,62325,1,0,0:0:0:0:
64,192,62445,1,0,0:0:0:0:
320,192,62445,1,0,0:0:0:0:
320,192,62685,1,0,0:0:0:50:LR_Tom Drop.wav
448,192,62685,1,0,0:0:0:0:
64,192,62765,1,0,0:0:0:50:LR_Tom Drop.wav
192,192,62765,1,0,0:0:0:0:
320,192,62845,1,0,0:0:0:50:LR_Tom Drop.wav
448,192,62845,1,0,0:0:0:0:
64,192,62925,128,0,63645:0:0:0:70:LR4_KickGBDV.wav
192,192,62925,1,0,0:0:0:0:
448,192,62985,1,0,0:0:0:0:
320,192,63045,1,0,0:0:0:0:
192,192,63105,1,0,0:0:0:0:
448,192,63165,1,0,0:0:0:0:
320,192,63225,1,0,0:0:0:0:
192,192,63285,1,0,0:0:0:0:
448,192,63345,1,0,0:0:0:0:
320,192,63405,1,0,0:0:0:0:
448,192,63465,1,0,0:0:0:0:
192,192,63525,1,0,0:0:0:0:
320,192,63585,1,0,0:0:0:0:
448,192,63645,128,0,64725:0:0:0:70:LR4_KickGBDV.wav
64,192,63705,1,0,0:0:0:0:
192,192,63765,1,0,0:0:0:0:
320,192,63825,1,0,0:0:0:0:
64,192,63885,1,0,0:0:0:0:
192,192,63945,1,0,0:0:0:0:
320,192,64005,1,0,0:0:0:0:
64,192,64065,1,0,0:0:0:0:
192,192,64125,1,0,0:0:0:0:
320,192,64185,1,0,0:0:0:0:
64,192,64245,1,0,0:0:0:0:
192,192,64305,1,0,0:0:0:0:
320,192,64365,1,0,0:0:0:0:
192,192,64425,1,0,0:0:0:0:
64,192,64485,1,0,0:0:0:0:
320,192,64545,1,0,0:0:0:0:
192,192,64605,1,0,0:0:0:0:
64,192,64665,1,0,0:0:0:0:
320,192,64725,1,0,0:0:0:0:
192,192,64785,1,0,0:0:0:0:
64,192,64845,1,0,0:0:0:100:LR_Chm Med.wav
320,192,64845,1,0,0:0:0:30:LR_CymbalSSD.wav
448,192,64845,1,0,0:0:0:50:LR4_KickGBDV.wav
64,192,80205,5,0,0:0:0:40:LR_CymbalG.wav
192,192,80205,1,0,0:0:0:50:LR_Chm Med.wav
320,192,80205,1,0,0:0:0:50:LR2_KickBassFast2.wav
448,192,80205,1,0,0:0:0:0:
64,192,84045,1,0,0:0:0:50:LR_Chm Med.wav
192,192,84045,1,0,0:0:0:40:LR5_HiHat NSynth.wav
448,192,84045,1,0,0:0:0:0:
192,192,86485,128,0,86725:0:0:0:0:
448,192,86725,128,0,86965:0:0:0:0:
192,192,86965,128,0,87205:0:0:0:0:
448,192,87205,128,0,87445:0:0:0:0:
192,192,87445,128,0,87685:0:0:0:0:
64,192,87685,128,0,87885:0:0:0:0:
192,192,87885,1,0,0:0:0:40:LR_CymbalG.wav
320,192,87885,1,0,0:0:0:50:LR_Chm Med.wav
448,192,87885,1,0,0:0:0:50:LR2_KickBassFast2.wav
64,192,91725,1,0,0:0:0:50:LR_Chm Med.wav
320,192,91725,1,0,0:0:0:40:LR5_HiHat NSynth.wav
448,192,91725,1,0,0:0:0:0:
448,192,94165,128,0,94405:0:0:0:0:
64,192,94405,128,0,94645:0:0:0:0:
448,192,94645,128,0,94885:0:0:0:0:
64,192,94885,128,0,95125:0:0:0:0:
448,192,95125,128,0,95365:0:0:0:0:
192,192,95365,128,0,95565:0:0:0:0:
64,192,95565,1,0,0:0:0:70:LR_Chm Med.wav
320,192,95565,1,0,0:0:0:50:LR5_HiHat NSynth.wav
448,192,95565,1,0,0:0:0:0:
64,192,95685,1,0,0:0:0:0:
64,192,95805,1,0,0:0:0:0:
64,192,95925,1,0,0:0:0:0:
192,192,96045,1,0,0:0:0:0:
448,192,96285,1,0,0:0:0:0:
192,192,96405,1,0,0:0:0:0:
320,192,96525,1,0,0:0:0:0:
64,192,96645,1,0,0:0:0:0:
64,192,96765,1,0,0:0:0:0:
64,192,96885,1,0,0:0:0:0:
192,192,97005,1,0,0:0:0:0:
64,192,97245,1,0,0:0:0:0:
64,192,97485,1,0,0:0:0:0:
64,192,97605,1,0,0:0:0:0:
64,192,97725,1,0,0:0:0:0:
64,192,97845,1,0,0:0:0:0:
192,192,97965,1,0,0:0:0:0:
320,192,98085,1,0,0:0:0:0:
192,192,98205,1,0,0:0:0:0:
448,192,98205,128,0,98445:0:0:0:0:
64,192,98325,1,0,0:0:0:0:
64,192,98565,1,0,0:0:0:0:
448,192,98685,128,0,98925:0:0:0:0:
64,192,98805,1,0,0:0:0:0:
320,192,98925,1,0,0:0:0:0:
64,192,99165,1,0,0:0:0:0:
448,192,99165,128,0,99405:0:0:0:0:
64,192,99405,1,0,0:0:0:70:LR_Chm Med.wav
320,192,99405,1,0,0:0:0:50:LR5_HiHat NSynth.wav
320,192,99525,1,0,0:0:0:0:
320,192,99645,1,0,0:0:0:0:
320,192,99765,1,0,0:0:0:0:
192,192,99885,1,0,0:0:0:0:
64,192,100005,1,0,0:0:0:0:
192,192,100125,1,0,0:0:0:0:
320,192,100245,1,0,0:0:0:0:
320,192,100485,1,0,0:0:0:0:
320,192,100725,1,0,0:0:0:0:
192,192,100845,1,0,0:0:0:0:
320,192,101085,1,0,0:0:0:0:
320,192,101325,1,0,0:0:0:0:
320,192,101445,1,0,0:0:0:0:
320,192,101565,1,0,0:0:0:0:
320,192,101685,1,0,0:0:0:0:
192,192,101805,1,0,0:0:0:0:
64,192,101925,1,0,0:0:0:0:
192,192,102045,1,0,0:0:0:0:
320,192,102165,1,0,0:0:0:0:
320,192,102405,1,0,0:0:0:0:
320,192,102645,1,0,0:0:0:0:
192,192,102765,1,0,0:0:0:0:
320,192,103005,1,0,0:0:0:0:
64,192,103245,1,0,0:0:0:70:LR_Chm Med.wav
320,192,103245,1,0,0:0:0:50:LR5_HiHat NSynth.wav
448,192,103245,1,0,0:0:0:0:
64,192,103365,1,0,0:0:0:0:
64,192,103485,1,0,0:0:0:0:
64,192,103605,1,0,0:0:0:0:
192,192,103725,1,0,0:0:0:0:
320,192,103845,1,0,0:0:0:0:
192,192,103965,1,0,0:0:0:0:
64,192,104085,1,0,0:0:0:0:
448,192,104205,1,0,0:0:0:0:
64,192,104325,1,0,0:0:0:0:
192,192,104445,1,0,0:0:0:0:
64,192,104565,1,0,0:0:0:0:
192,192,104685,1,0,0:0:0:0:
64,192,104805,1,0,0:0:0:0:
64,192,104925,1,0,0:0:0:0:
64,192,105045,1,0,0:0:0:0:
192,192,105165,1,0,0:0:0:0:
448,192,105165,1,0,0:0:0:0:
448,192,105285,1,0,0:0:0:0:
448,192,105405,1,0,0:0:0:0:
448,192,105525,1,0,0:0:0:0:
320,192,105645,1,0,0:0:0:0:
192,192,105765,1,0,0:0:0:0:
320,192,105885,1,0,0:0:0:0:
448,192,106005,1,0,0:0:0:0:
64,192,106125,1,0,0:0:0:0:
448,192,106245,1,0,0:0:0:0:
320,192,106365,1,0,0:0:0:0:
448,192,106485,1,0,0:0:0:0:
192,192,106605,1,0,0:0:0:0:
64,192,106725,1,0,0:0:0:0:
448,192,106845,1,0,0:0:0:0:
448,192,106965,1,0,0:0:0:0:
64,192,107085,1,0,0:0:0:70:LR_Chm Med.wav
192,192,107085,1,0,0:0:0:50:LR5_HiHat NSynth.wav
320,192,107085,1,0,0:0:0:0:
192,192,107205,1,0,0:0:0:0:
192,192,107325,1,0,0:0:0:0:
192,192,107445,1,0,0:0:0:0:
320,192,107565,1,0,0:0:0:0:
64,192,107685,1,0,0:0:0:0:
320,192,107805,1,0,0:0:0:0:
192,192,107925,1,0,0:0:0:0:
448,192,108045,1,0,0:0:0:0:
192,192,108165,1,0,0:0:0:0:
320,192,108285,1,0,0:0:0:0:
192,192,108405,1,0,0:0:0:0:
320,192,108525,1,0,0:0:0:0:
64,192,108645,1,0,0:0:0:0:
192,192,108765,1,0,0:0:0:0:
448,192,108885,1,0,0:0:0:0:
64,192,109005,1,0,0:0:0:0:
192,192,109005,1,0,0:0:0:0:
320,192,109125,1,0,0:0:0:0:
320,192,109245,1,0,0:0:0:0:
320,192,109365,1,0,0:0:0:0:
448,192,109485,1,0,0:0:0:0:
192,192,109605,1,0,0:0:0:0:
448,192,109725,1,0,0:0:0:0:
320,192,109845,1,0,0:0:0:0:
64,192,109965,1,0,0:0:0:0:
320,192,110085,1,0,0:0:0:0:
448,192,110205,1,0,0:0:0:0:
320,192,110325,1,0,0:0:0:0:
192,192,110445,1,0,0:0:0:0:
448,192,110565,1,0,0:0:0:0:
320,192,110685,1,0,0:0:0:0:
192,192,110805,1,0,0:0:0:0:
64,192,110925,1,0,0:0:0:50:LR2_KickBassFast2.wav
320,192,110925,1,0,0:0:0:30:LR_Tom Drop.wav
448,192,110925,1,0,0:0:0:0:
448,192,111045,1,0,0:0:0:20:LR_Hit Med Click.wav
320,192,111165,1,0,0:0:0:20:LR_Hit Med Click.wav
192,192,111285,1,0,0:0:0:20:LR_Hit Med Click.wav
64,192,111405,1,0,0:0:0:50:LR2_KickBassFast2.wav
320,192,111405,1,0,0:0:0:20:LR_Hit Med Click.wav
448,192,111405,1,0,0:0:0:0:
64,192,111525,1,0,0:0:0:20:LR_Hit Med Click.wav
192,192,111645,1,0,0:0:0:20:LR_Hit Med Click.wav
320,192,111765,1,0,0:0:0:20:LR_Hit Med Click.wav
64,192,111885,1,0,0:0:0:50:LR2_KickBassFast2.wav
192,192,111885,1,0,0:0:0:25:LR_Hit Med Click.wav
448,192,111885,1,0,0:0:0:0:
192,192,112005,1,0,0:0:0:25:LR_Hit Med Click.wav
320,192,112125,1,0,0:0:0:25:LR_Hit Med Click.wav
64,192,112245,1,0,0:0:0:25:LR_Hit Med Click.wav
192,192,112365,1,0,0:0:0:50:LR2_KickBassFast2.wav
320,192,112365,1,0,0:0:0:25:LR_Hit Med Click.wav
448,192,112365,1,0,0:0:0:0:
320,192,112485,1,0,0:0:0:25:LR_Hit Med Click.wav
64,192,112605,1,0,0:0:0:25:LR_Hit Med Click.wav
192,192,112725,1,0,0:0:0:25:LR_Hit Med Click.wav
64,192,112845,1,0,0:0:0:50:LR2_KickBassFast2.wav
320,192,112845,1,0,0:0:0:30:LR_Hit Med Click.wav
448,192,112845,1,0,0:0:0:0:
64,192,112965,1,0,0:0:0:30:LR_Hit Med Click.wav
192,192,113085,1,0,0:0:0:30:LR_Hit Med Click.wav
320,192,113205,1,0,0:0:0:30:LR_Hit Med Click.wav
64,192,113325,1,0,0:0:0:50:LR2_KickBassFast2.wav
192,192,113325,1,0,0:0:0:30:LR_Hit Med Click.wav
448,192,113325,1,0,0:0:0:0:
448,192,113445,1,0,0:0:0:30:LR_Hit Med Click.wav
192,192,113565,1,0,0:0:0:30:LR_Hit Med Click.wav
64,192,113685,1,0,0:0:0:30:LR_Hit Med Click.wav
192,192,113805,1,0,0:0:0:50:LR2_KickBassFast2.wav
320,192,113805,1,0,0:0:0:35:LR_Hit Med Click.wav
448,192,113805,1,0,0:0:0:0:
192,192,113925,1,0,0:0:0:35:LR_Hit Med Click.wav
64,192,114045,1,0,0:0:0:35:LR_Hit Med Click.wav
448,192,114165,1,0,0:0:0:35:LR_Hit Med Click.wav
64,192,114285,1,0,0:0:0:50:LR2_KickBassFast2.wav
192,192,114285,1,0,0:0:0:35:LR_Hit Med Click.wav
320,192,114285,1,0,0:0:0:0:
64,192,114405,1,0,0:0:0:35:LR_Hit Med Click.wav
448,192,114525,1,0,0:0:0:35:LR_Hit Med Click.wav
320,192,114645,1,0,0:0:0:35:LR_Hit Med Click.wav
64,192,114765,1,0,0:0:0:50:LR2_KickBassFast2.wav
192,192,114765,1,0,0:0:0:40:LR_Hit Med Click.wav
448,192,114765,1,0,0:0:0:0:
64,192,115005,1,0,0:0:0:40:LR_Hit Med Click.wav
192,192,115125,1,0,0:0:0:40:LR_Hit Med Click.wav
64,192,115245,1,0,0:0:0:50:LR2_KickBassFast2.wav
320,192,115245,1,0,0:0:0:40:LR_Hit Med Click.wav
448,192,115245,1,0,0:0:0:0:
448,192,115485,1,0,0:0:0:40:LR_Hit Med Click.wav
320,192,115605,1,0,0:0:0:40:LR_Hit Med Click.wav
64,192,115725,1,0,0:0:0:50:LR2_KickBassFast2.wav
192,192,115725,1,0,0:0:0:40:LR_Hit Med Click.wav
448,192,115725,1,0,0:0:0:0:
448,192,115845,1,0,0:0:0:40:LR_Hit Med Click.wav
192,192,115965,1,0,0:0:0:40:LR_Hit Med Click.wav
320,192,116085,1,0,0:0:0:40:LR_Hit Med Click.wav
64,192,116205,1,0,0:0:0:50:LR2_KickBassFast2.wav
192,192,116205,1,0,0:0:0:45:LR_Hit Med Click.wav
448,192,116205,1,0,0:0:0:0:
64,192,116325,1,0,0:0:0:45:LR_Hit Med Click.wav
192,192,116445,1,0,0:0:0:45:LR_Hit Med Click.wav
320,192,116565,1,0,0:0:0:45:LR_Hit Med Click.wav
64,192,116685,1,0,0:0:0:50:LR2_KickBassFast2.wav
192,192,116685,1,0,0:0:0:45:LR_Hit Med Click.wav
448,192,116685,1,0,0:0:0:0:
448,192,116805,1,0,0:0:0:45:LR_Hit Med Click.wav
64,192,116925,1,0,0:0:0:45:LR_Hit Med Click.wav
192,192,117045,1,0,0:0:0:45:LR_Hit Med Click.wav
64,192,117165,1,0,0:0:0:50:LR2_KickBassFast2.wav
320,192,117165,1,0,0:0:0:50:LR_Hit Med Click.wav
448,192,117165,1,0,0:0:0:0:
64,192,117285,1,0,0:0:0:50:LR_Hit Med Click.wav
448,192,117405,1,0,0:0:0:50:LR_Hit Med Click.wav
320,192,117525,1,0,0:0:0:50:LR_Hit Med Click.wav
64,192,117645,1,0,0:0:0:50:LR2_KickBassFast2.wav
192,192,117645,1,0,0:0:0:50:LR_Hit Med Click.wav
448,192,117645,1,0,0:0:0:0:
448,192,117765,1,0,0:0:0:50:LR_Hit Med Click.wav
192,192,117885,1,0,0:0:0:50:LR_Hit Med Click.wav
320,192,118005,1,0,0:0:0:50:LR_Hit Med Click.wav
64,192,118125,1,0,0:0:0:50:LR2_KickBassFast2.wav
192,192,118125,1,0,0:0:0:50:LR_Hit Med Click.wav
448,192,118125,1,0,0:0:0:0:
448,192,118245,1,0,0:0:0:50:LR_Hit Med Click.wav
320,192,118365,1,0,0:0:0:50:LR_Hit Med Click.wav
192,192,118485,1,0,0:0:0:50:LR_Hit Med Click.wav
64,192,118605,1,0,0:0:0:70:LR4_KickGBDV.wav
448,192,118605,1,0,0:0:0:100:LR_Hit Med Click.wav
64,192,118725,1,0,0:0:0:100:LR_Hit Med Click.wav
320,192,118725,1,0,0:0:0:0:
320,192,118845,1,0,0:0:0:40:LR2_KickBassFast2.wav
448,192,118845,1,0,0:0:0:100:LR_Hit Med Click.wav
192,192,118965,1,0,0:0:0:100:LR_Hit Med Click.wav
448,192,118965,1,0,0:0:0:0:
64,192,119085,1,0,0:0:0:70:LR4_KickGBDV.wav
192,192,119085,1,0,0:0:0:100:LR_Hit Med Click.wav
64,192,119205,1,0,0:0:0:100:LR_Hit Med Click.wav
448,192,119205,1,0,0:0:0:0:
320,192,119325,1,0,0:0:0:40:LR2_KickBassFast2.wav
448,192,119325,1,0,0:0:0:100:LR_Hit Med Click.wav
192,192,119445,1,0,0:0:0:100:LR_Hit Med Click.wav
320,192,119445,1,0,0:0:0:0:
192,192,119565,1,0,0:0:0:70:LR4_KickGBDV.wav
448,192,119565,1,0,0:0:0:100:LR_Hit Med Click.wav
64,192,119685,1,0,0:0:0:100:LR_Hit Med Click.wav
448,192,119685,1,0,0:0:0:0:
64,192,119805,1,0,0:0:0:40:LR2_KickBassFast2.wav
320,192,119805,1,0,0:0:0:100:LR_Hit Med Click.wav
192,192,119925,1,0,0:0:0:100:LR_Hit Med Click.wav
320,192,119925,1,0,0:0:0:0:
192,192,120045,1,0,0:0:0:70:LR4_KickGBDV.wav
448,192,120045,1,0,0:0:0:100:LR_Hit Med Click.wav
64,192,120165,1,0,0:0:0:100:LR_Hit Med Click.wav
448,192,120165,1,0,0:0:0:0:
64,192,120285,1,0,0:0:0:40:LR2_KickBassFast2.wav
192,192,120285,1,0,0:0:0:100:LR_Hit Med Click.wav
192,192,120405,1,0,0:0:0:100:LR_Hit Med Click.wav
320,192,120405,1,0,0:0:0:0:
320,192,120525,1,0,0:0:0:70:LR4_KickGBDV.wav
448,192,120525,1,0,0:0:0:100:LR_Hit Med Click.wav
64,192,120645,1,0,0:0:0:100:LR_Hit Med Click.wav
448,192,120645,1,0,0:0:0:0:
64,192,120765,1,0,0:0:0:40:LR2_KickBassFast2.wav
320,192,120765,1,0,0:0:0:100:LR_Hit Med Click.wav
192,192,120885,1,0,0:0:0:100:LR_Hit Med Click.wav
320,192,120885,1,0,0:0:0:0:
64,192,121005,1,0,0:0:0:70:LR4_KickGBDV.wav
192,192,121005,1,0,0:0:0:100:LR_Hit Med Click.wav
64,192,121125,1,0,0:0:0:100:LR_Hit Med Click.wav
448,192,121125,1,0,0:0:0:0:
192,192,121245,1,0,0:0:0:40:LR2_KickBassFast2.wav
448,192,121245,1,0,0:0:0:100:LR_Hit Med Click.wav
192,192,121365,1,0,0:0:0:100:LR_Hit Med Click.wav
320,192,121365,1,0,0:0:0:0:
64,192,121485,1,0,0:0:0:70:LR4_KickGBDV.wav
320,192,121485,1,0,0:0:0:100:LR_Hit Med Click.wav
64,192,121605,1,0,0:0:0:100:LR_Hit Med Click.wav
448,192,121605,1,0,0:0:0:0:
320,192,121725,1,0,0:0:0:40:LR2_KickBassFast2.wav
448,192,121725,1,0,0:0:0:100:LR_Hit Med Click.wav
192,192,121845,1,0,0:0:0:100:LR_Hit Med Click.wav
320,192,121845,1,0,0:0:0:0:
64,192,121965,1,0,0:0:0:70:LR4_KickGBDV.wav
192,192,121965,1,0,0:0:0:100:LR_Hit Med Click.wav
448,192,121965,1,0,0:0:0:0:
64,192,122085,1,0,0:0:0:100:LR_Hit Med Click.wav
320,192,122205,1,0,0:0:0:40:LR2_KickBassFast2.wav
448,192,122205,1,0,0:0:0:100:LR_Hit Med Click.wav
64,192,122265,1,0,0:0:0:100:LR_Hit Med Click.wav
192,192,122265,1,0,0:0:0:0:
320,192,122325,1,0,0:0:0:100:LR_Hit Med Click.wav
448,192,122325,1,0,0:0:0:0:
192,192,122385,1,0,0:0:0:100:LR_Hit Med Click.wav
64,192,122445,1,0,0:0:0:70:LR4_KickGBDV.wav
320,192,122445,1,0,0:0:0:100:LR_Hit Med Click.wav
448,192,122445,1,0,0:0:0:0:
64,192,122565,1,0,0:0:0:100:LR_Hit Med Click.wav
192,192,122565,1,0,0:0:0:0:
320,192,122685,1,0,0:0:0:100:LR_Hit Med Click.wav
448,192,122685,1,0,0:0:0:0:
320,192,122805,1,0,0:0:0:100:LR_Hit Med Click.wav
448,192,122805,1,0,0:0:0:0:
64,192,122925,1,0,0:0:0:70:LR4_KickGBDV.wav
192,192,122925,1,0,0:0:0:100:LR_Hit Med Click.wav
448,192,122925,1,0,0:0:0:0:
192,192,123045,1,0,0:0:0:100:LR_Hit Med Click.wav
320,192,123045,1,0,0:0:0:0:
64,192,123165,1,0,0:0:0:100:LR_Hit Med Click.wav
448,192,123165,1,0,0:0:0:0:
64,192,123285,1,0,0:0:0:100:LR_Hit Med Click.wav
448,192,123285,1,0,0:0:0:0:
64,192,123405,1,0,0:0:0:70:LR4_KickGBDV.wav
192,192,123405,1,0,0:0:0:100:LR_Hit Med Click.wav
320,192,123405,1,0,0:0:0:0:
320,192,123525,1,0,0:0:0:100:LR_Hit Med Click.wav
448,192,123525,1,0,0:0:0:0:
64,192,123645,1,0,0:0:0:100:LR_Hit Med Click.wav
192,192,123645,1,0,0:0:0:0:
64,192,123765,1,0,0:0:0:100:LR_Hit Med Click.wav
192,192,123765,1,0,0:0:0:0:
192,192,123885,1,0,0:0:0:70:LR4_KickGBDV.wav
320,192,123885,1,0,0:0:0:100:LR_Hit Med Click.wav
448,192,123885,1,0,0:0:0:0:
64,192,124005,1,0,0:0:0:100:LR_Hit Med Click.wav
448,192,124005,1,0,0:0:0:0:
192,192,124125,1,0,0:0:0:100:LR_Hit Med Click.wav
320,192,124125,1,0,0:0:0:0:
192,192,124245,1,0,0:0:0:100:LR_Hit Med Click.wav
320,192,124245,1,0,0:0:0:0:
64,192,124365,1,0,0:0:0:70:LR4_KickGBDV.wav
320,192,124365,1,0,0:0:0:100:LR_Hit Med Click.wav
448,192,124365,1,0,0:0:0:0:
192,192,124425,1,0,0:0:0:100:LR_Hit Med Click.wav
64,192,124485,1,0,0:0:0:100:LR_Hit Med Click.wav
320,192,124545,1,0,0:0:0:100:LR_Hit Med Click.wav
448,192,124545,1,0,0:0:0:0:
64,192,124605,1,0,0:0:0:100:LR_Hit Med Click.wav
192,192,124605,1,0,0:0:0:0:
320,192,124665,1,0,0:0:0:100:LR_Hit Med Click.wav
448,192,124665,1,0,0:0:0:0:
64,192,124725,1,0,0:0:0:100:LR_Hit Med Click.wav
192,192,124725,1,0,0:0:0:0:
448,192,124785,1,0,0:0:0:100:LR_Hit Med Click.wav
64,192,124845,1,0,0:0:0:70:LR4_KickGBDV.wav
192,192,124845,1,0,0:0:0:100:LR_Hit Med Click.wav
320,192,124845,1,0,0:0:0:0:
448,192,124905,1,0,0:0:0:100:LR_Hit Med Click.wav
320,192,124965,1,0,0:0:0:100:LR_Hit Med Click.wav
64,192,125025,1,0,0:0:0:100:LR_Hit Med Click.wav
192,192,125025,1,0,0:0:0:0:
320,192,125085,1,0,0:0:0:100:LR_Hit Med Click.wav
448,192,125085,1,0,0:0:0:0:
64,192,125145,1,0,0:0:0:100:LR_Hit Med Click.wav
192,192,125145,1,0,0:0:0:0:
320,192,125205,1,0,0:0:0:100:LR_Hit Med Click.wav
448,192,125205,1,0,0:0:0:0:
64,192,125265,1,0,0:0:0:100:LR_Hit Med Click.wav
192,192,125325,1,0,0:0:0:70:LR4_KickGBDV.wav
320,192,125325,1,0,0:0:0:100:LR_Hit Med Click.wav
448,192,125325,1,0,0:0:0:0:
64,192,125385,1,0,0:0:0:100:LR_Hit Med Click.wav
192,192,125445,1,0,0:0:0:100:LR_Hit Med Click.wav
448,192,125505,1,0,0:0:0:100:LR_Hit Med Click.wav
320,192,125505,1,0,0:0:0:0:
192,192,125565,1,0,0:0:0:100:LR_Hit Med Click.wav
64,192,125565,1,0,0:0:0:0:
448,192,125625,1,0,0:0:0:100:LR_Hit Med Click.wav
320,192,125625,1,0,0:0:0:0:
192,192,125685,1,0,0:0:0:100:LR_Hit Med Click.wav
64,192,125685,1,0,0:0:0:0:
320,192,125745,1,0,0:0:0:100:LR_Hit Med Click.wav
448,192,125805,1,0,0:0:0:70:LR4_KickGBDV.wav
192,192,125805,1,0,0:0:0:100:LR_Hit Med Click.wav
64,192,125805,1,0,0:0:0:0:
320,192,125865,1,0,0:0:0:100:LR_Hit Med Click.wav
448,192,125925,1,0,0:0:0:100:LR_Hit Med Click.wav
192,192,125985,1,0,0:0:0:100:LR_Hit Med Click.wav
64,192,125985,1,0,0:0:0:0:
448,192,126045,1,0,0:0:0:100:LR_Hit Med Click.wav
320,192,126045,1,0,0:0:0:0:
192,192,126105,1,0,0:0:0:100:LR_Hit Med Click.wav
64,192,126105,1,0,0:0:0:0:
448,192,126165,1,0,0:0:0:100:LR_Hit Med Click.wav
320,192,126165,1,0,0:0:0:0:
192,192,126225,1,0,0:0:0:100:LR_Hit Med Click.wav
448,192,126285,1,0,0:0:0:60:LR_CymbalG.wav
320,192,126285,1,0,0:0:0:80:LR4_KickGBDV.wav
64,192,126285,1,0,0:0:0:100:LR_Hit Med Click.wav
64,192,127605,1,0,0:0:0:40:LR_Tom Drop.wav
192,192,127605,1,0,0:0:0:0:
192,192,127725,1,0,0:0:0:40:LR_Tom Drop.wav
320,192,127725,1,0,0:0:0:0:
448,192,127725,1,0,0:0:0:0:
64,192,127845,1,0,0:0:0:40:LR_Tom Drop.wav
320,192,127845,1,0,0:0:0:0:
448,192,127845,1,0,0:0:0:0:
64,192,127965,1,0,0:0:0:40:LR_Tom Drop.wav
192,192,127965,1,0,0:0:0:0:
320,192,127965,1,0,0:0:0:0:
64,192,128205,128,0,128325:0:0:0:70:LR4_KickGBDV.wav
320,192,128205,128,0,128685:0:0:0:0:
448,192,128205,1,0,0:0:0:0:
192,192,128325,128,0,128445:0:0:0:0:
64,192,128445,1,0,0:0:0:100:LR5_HiHat NSynth.wav
448,192,128565,128,0,128685:0:0:0:100:LR5_HiHat NSynth.wav
64,192,128685,128,0,129165:0:0:0:60:LR_CymbalSSD.wav
192,192,128685,1,0,0:0:0:70:LR4_KickGBDV.wav
192,192,128925,128,0,129165:0:0:0:100:LR5_HiHat NSynth.wav
448,192,128925,1,0,0:0:0:0:
320,192,129165,1,0,0:0:0:70:LR4_KickGBDV.wav
448,192,129165,1,0,0:0:0:0:
192,192,129285,1,0,0:0:0:0:
448,192,129285,1,0,0:0:0:0:
64,192,129405,1,0,0:0:0:100:LR5_HiHat NSynth.wav
192,192,129405,1,0,0:0:0:0:
320,192,129405,1,0,0:0:0:0:
320,192,129525,1,0,0:0:0:0:
448,192,129525,1,0,0:0:0:0:
64,192,129645,1,0,0:0:0:60:LR_CymbalSSD.wav
192,192,129645,1,0,0:0:0:70:LR4_KickGBDV.wav
320,192,129645,1,0,0:0:0:0:
448,192,129645,1,0,0:0:0:0:
64,192,129765,1,0,0:0:0:0:
192,192,129765,1,0,0:0:0:0:
192,192,129885,1,0,0:0:0:100:LR5_HiHat NSynth.wav
320,192,129885,1,0,0:0:0:0:
448,192,129885,1,0,0:0:0:0:
64,192,130005,1,0,0:0:0:0:
320,192,130005,1,0,0:0:0:0:
64,192,130125,128,0,130605:0:0:0:70:LR4_KickGBDV.wav
192,192,130125,1,0,0:0:0:0:
448,192,130125,128,0,130245:0:0:0:0:
320,192,130245,128,0,130365:0:0:0:0:
448,192,130365,1,0,0:0:0:100:LR5_HiHat NSynth.wav
192,192,130485,128,0,130605:0:0:0:100:LR5_HiHat NSynth.wav
320,192,130605,1,0,0:0:0:60:LR_CymbalSSD.wav
448,192,130605,128,0,131085:0:0:0:70:LR4_KickGBDV.wav
64,192,130845,1,0,0:0:0:100:LR5_HiHat NSynth.wav
320,192,130845,128,0,131085:0:0:0:0:
64,192,131085,1,0,0:0:0:70:LR4_KickGBDV.wav
192,192,131085,1,0,0:0:0:0:
320,192,131205,1,0,0:0:0:0:
448,192,131205,1,0,0:0:0:0:
64,192,131325,1,0,0:0:0:100:LR5_HiHat NSynth.wav
192,192,131325,1,0,0:0:0:0:
320,192,131325,1,0,0:0:0:0:
320,192,131445,1,0,0:0:0:0:
448,192,131445,1,0,0:0:0:0:
64,192,131565,1,0,0:0:0:60:LR_CymbalSSD.wav
192,192,131565,1,0,0:0:0:70:LR4_KickGBDV.wav
320,192,131565,1,0,0:0:0:0:
448,192,131565,1,0,0:0:0:0:
64,192,131685,1,0,0:0:0:0:
192,192,131685,1,0,0:0:0:0:
64,192,131805,1,0,0:0:0:100:LR5_HiHat NSynth.wav
320,192,131805,1,0,0:0:0:0:
448,192,131805,1,0,0:0:0:0:
192,192,131925,1,0,0:0:0:0:
320,192,131925,1,0,0:0:0:0:
64,192,132045,1,0,0:0:0:70:LR4_KickGBDV.wav
192,192,132045,128,0,132165:0:0:0:0:
448,192,132045,128,0,132525:0:0:0:0:
320,192,132165,128,0,132285:0:0:0:0:
192,192,132285,1,0,0:0:0:100:LR5_HiHat NSynth.wav
64,192,132405,128,0,132525:0:0:0:100:LR5_HiHat NSynth.wav
192,192,132525,1,0,0:0:0:60:LR_CymbalSSD.wav
320,192,132525,128,0,133005:0:0:0:70:LR4_KickGBDV.wav
192,192,132765,1,0,0:0:0:100:LR5_HiHat NSynth.wav
448,192,132765,128,0,133005:0:0:0:0:
64,192,133005,1,0,0:0:0:70:LR4_KickGBDV.wav
192,192,133005,1,0,0:0:0:0:
64,192,133125,1,0,0:0:0:0:
192,192,133185,1,0,0:0:0:0:
320,192,133245,1,0,0:0:0:100:LR5_HiHat NSynth.wav
448,192,133245,1,0,0:0:0:0:
320,192,133365,1,0,0:0:0:0:
448,192,133365,1,0,0:0:0:0:
64,192,133485,1,0,0:0:0:60:LR_CymbalSSD.wav
192,192,133485,1,0,0:0:0:70:LR4_KickGBDV.wav
320,192,133485,1,0,0:0:0:0:
448,192,133485,1,0,0:0:0:0:
64,192,133605,1,0,0:0:0:0:
192,192,133605,1,0,0:0:0:0:
192,192,133725,1,0,0:0:0:100:LR5_HiHat NSynth.wav
320,192,133725,1,0,0:0:0:0:
448,192,133725,1,0,0:0:0:0:
64,192,133845,1,0,0:0:0:0:
448,192,133845,1,0,0:0:0:0:
64,192,133965,1,0,0:0:0:70:LR4_KickGBDV.wav
192,192,133965,1,0,0:0:0:0:
448,192,134025,1,0,0:0:0:0:
320,192,134085,1,0,0:0:0:0:
64,192,134145,1,0,0:0:0:0:
192,192,134205,1,0,0:0:0:100:LR5_HiHat NSynth.wav
448,192,134205,1,0,0:0:0:0:
320,192,134265,1,0,0:0:0:0:
64,192,134325,1,0,0:0:0:100:LR5_HiHat NSynth.wav
192,192,134385,1,0,0:0:0:0:
320,192,134445,1,0,0:0:0:60:LR_CymbalSSD.wav
448,192,134445,1,0,0:0:0:70:LR4_KickGBDV.wav
64,192,134505,1,0,0:0:0:0:
320,192,134565,1,0,0:0:0:0:
192,192,134625,1,0,0:0:0:0:
64,192,134685,1,0,0:0:0:100:LR5_HiHat NSynth.wav
448,192,134685,1,0,0:0:0:0:
320,192,134745,1,0,0:0:0:0:
192,192,134805,1,0,0:0:0:0:
320,192,134865,1,0,0:0:0:0:
64,192,134925,128,0,135105:0:0:0:70:LR4_KickGBDV.wav
192,192,134925,128,0,135105:0:0:0:0:
448,192,134925,1,0,0:0:0:0:
64,192,135165,128,0,135345:0:0:0:100:LR5_HiHat NSynth.wav
320,192,135165,1,0,0:0:0:0:
448,192,135165,128,0,135345:0:0:0:0:
192,192,135405,1,0,0:0:0:60:LR_CymbalSSD.wav
320,192,135405,1,0,0:0:0:70:LR4_KickGBDV.wav
448,192,135405,1,0,0:0:0:0:
192,192,135645,128,0,135765:0:0:0:0:
320,192,135645,128,0,135765:0:0:0:0:
64,192,135885,128,0,136365:0:0:0:70:LR4_KickGBDV.wav
192,192,135885,1,0,0:0:0:0:
448,192,135885,128,0,136005:0:0:0:0:
320,192,136005,128,0,136125:0:0:0:0:
448,192,136125,1,0,0:0:0:100:LR5_HiHat NSynth.wav
192,192,136245,128,0,136365:0:0:0:100:LR5_HiHat NSynth.wav
320,192,136365,1,0,0:0:0:60:LR_CymbalSSD.wav
448,192,136365,128,0,136845:0:0:0:70:LR4_KickGBDV.wav
64,192,136605,1,0,0:0:0:100:LR5_HiHat NSynth.wav
320,192,136605,128,0,136845:0:0:0:0:
64,192,136845,1,0,0:0:0:70:LR4_KickGBDV.wav
192,192,136845,1,0,0:0:0:0:
64,192,136965,1,0,0:0:0:0:
320,192,136965,1,0,0:0:0:0:
64,192,137085,1,0,0:0:0:100:LR5_HiHat NSynth.wav
192,192,137085,1,0,0:0:0:0:
448,192,137085,1,0,0:0:0:0:
320,192,137205,1,0,0:0:0:0:
448,192,137205,1,0,0:0:0:0:
64,192,137325,1,0,0:0:0:60:LR_CymbalSSD.wav
192,192,137325,1,0,0:0:0:70:LR4_KickGBDV.wav
320,192,137325,1,0,0:0:0:0:
448,192,137325,1,0,0:0:0:0:
64,192,137445,1,0,0:0:0:0:
320,192,137445,1,0,0:0:0:0:
64,192,137565,1,0,0:0:0:100:LR5_HiHat NSynth.wav
192,192,137565,1,0,0:0:0:0:
448,192,137565,1,0,0:0:0:0:
192,192,137685,1,0,0:0:0:0:
320,192,137685,1,0,0:0:0:0:
64,192,137805,128,0,138285:0:0:0:70:LR4_KickGBDV.wav
192,192,137805,128,0,137925:0:0:0:0:
448,192,137805,1,0,0:0:0:0:
320,192,137925,128,0,138045:0:0:0:0:
192,192,138045,1,0,0:0:0:100:LR5_HiHat NSynth.wav
448,192,138165,128,0,138285:0:0:0:100:LR5_HiHat NSynth.wav
192,192,138285,128,0,138765:0:0:0:60:LR_CymbalSSD.wav
320,192,138285,1,0,0:0:0:70:LR4_KickGBDV.wav
64,192,138525,128,0,138765:0:0:0:100:LR5_HiHat NSynth.wav
448,192,138525,1,0,0:0:0:0:
320,192,138765,1,0,0:0:0:70:LR4_KickGBDV.wav
448,192,138765,1,0,0:0:0:0:
64,192,138885,1,0,0:0:0:0:
192,192,138885,1,0,0:0:0:0:
192,192,139005,1,0,0:0:0:100:LR5_HiHat NSynth.wav
320,192,139005,1,0,0:0:0:0:
448,192,139005,1,0,0:0:0:0:
64,192,139125,1,0,0:0:0:0:
192,192,139125,1,0,0:0:0:0:
64,192,139245,1,0,0:0:0:60:LR_CymbalSSD.wav
192,192,139245,1,0,0:0:0:70:LR4_KickGBDV.wav
320,192,139245,1,0,0:0:0:0:
448,192,139245,1,0,0:0:0:0:
320,192,139365,1,0,0:0:0:0:
448,192,139365,1,0,0:0:0:0:
64,192,139485,1,0,0:0:0:100:LR5_HiHat NSynth.wav
192,192,139485,1,0,0:0:0:0:
448,192,139485,1,0,0:0:0:0:
192,192,139605,1,0,0:0:0:0:
320,192,139605,1,0,0:0:0:0:
192,192,139725,128,0,139845:0:0:0:70:LR4_KickGBDV.wav
320,192,139725,1,0,0:0:0:0:
448,192,139725,128,0,140205:0:0:0:0:
64,192,139845,128,0,139965:0:0:0:0:
192,192,139965,1,0,0:0:0:100:LR5_HiHat NSynth.wav
320,192,140085,128,0,140205:0:0:0:100:LR5_HiHat NSynth.wav
64,192,140205,128,0,140685:0:0:0:60:LR_CymbalSSD.wav
192,192,140205,1,0,0:0:0:70:LR4_KickGBDV.wav
320,192,140445,1,0,0:0:0:100:LR5_HiHat NSynth.wav
448,192,140445,128,0,140685:0:0:0:0:
192,192,140685,1,0,0:0:0:70:LR4_KickGBDV.wav
320,192,140685,1,0,0:0:0:0:
192,192,140805,1,0,0:0:0:0:
64,192,140865,1,0,0:0:0:0:
320,192,140925,1,0,0:0:0:100:LR5_HiHat NSynth.wav
448,192,140925,1,0,0:0:0:0:
64,192,141045,1,0,0:0:0:0:
192,192,141045,1,0,0:0:0:0:
64,192,141165,1,0,0:0:0:60:LR_CymbalSSD.wav
192,192,141165,1,0,0:0:0:70:LR4_KickGBDV.wav
320,192,141165,1,0,0:0:0:0:
448,192,141165,1,0,0:0:0:0:
320,192,141285,1,0,0:0:0:0:
448,192,141285,1,0,0:0:0:0:
64,192,141405,1,0,0:0:0:100:LR5_HiHat NSynth.wav
192,192,141405,1,0,0:0:0:0:
448,192,141405,1,0,0:0:0:0:
192,192,141525,1,0,0:0:0:0:
320,192,141525,1,0,0:0:0:0:
64,192,141645,1,0,0:0:0:70:LR4_KickGBDV.wav
192,192,141645,1,0,0:0:0:0:
448,192,141705,1,0,0:0:0:0:
320,192,141765,1,0,0:0:0:0:
192,192,141825,1,0,0:0:0:0:
64,192,141885,1,0,0:0:0:100:LR5_HiHat NSynth.wav
448,192,141885,1,0,0:0:0:0:
320,192,141945,1,0,0:0:0:0:
192,192,142005,1,0,0:0:0:100:LR5_HiHat NSynth.wav
448,192,142065,1,0,0:0:0:0:
64,192,142125,1,0,0:0:0:60:LR_CymbalSSD.wav
320,192,142125,1,0,0:0:0:70:LR4_KickGBDV.wav
192,192,142185,1,0,0:0:0:0:
320,192,142245,1,0,0:0:0:0:
64,192,142305,1,0,0:0:0:0:
192,192,142365,1,0,0:0:0:100:LR5_HiHat NSynth.wav
448,192,142365,1,0,0:0:0:0:
320,192,142425,1,0,0:0:0:0:
64,192,142485,1,0,0:0:0:100:LR5_HiHat NSynth.wav
192,192,142545,1,0,0:0:0:0:
64,192,142605,1,0,0:0:0:70:LR4_KickGBDV.wav
320,192,142605,128,0,142845:0:0:0:0:
448,192,142605,128,0,143085:0:0:0:0:
64,192,142845,128,0,143085:0:0:0:100:LR5_HiHat NSynth.wav
192,192,142845,1,0,0:0:0:0:
192,192,143085,1,0,0:0:0:60:LR_CymbalSSD.wav
320,192,143085,1,0,0:0:0:100:LR5_HiHat NSynth.wav
64,192,143325,1,0,0:0:0:100:LR5_HiHat NSynth.wav
192,192,143325,1,0,0:0:0:0:
320,192,143325,1,0,0:0:0:0:
64,192,143565,1,0,0:0:0:70:LR4_KickGBDV.wav
192,192,143565,1,0,0:0:0:0:
448,192,143565,1,0,0:0:0:0:
320,192,143625,1,0,0:0:0:0:
192,192,143685,1,0,0:0:0:0:
64,192,143745,1,0,0:0:0:0:
320,192,143805,1,0,0:0:0:0:
448,192,143865,1,0,0:0:0:0:
192,192,143925,1,0,0:0:0:0:
320,192,143985,1,0,0:0:0:0:
64,192,144045,1,0,0:0:0:0:
192,192,144105,1,0,0:0:0:0:
320,192,144165,1,0,0:0:0:0:
64,192,144225,1,0,0:0:0:0:
448,192,144285,1,0,0:0:0:0:
192,192,144345,1,0,0:0:0:0:
320,192,144405,1,0,0:0:0:0:
192,192,144465,1,0,0:0:0:0:
64,192,144525,1,0,0:0:0:60:LR_CymbalSSD.wav
320,192,144525,1,0,0:0:0:0:
448,192,144525,1,0,0:0:0:0:
448,192,144645,1,0,0:0:0:0:
64,192,144765,1,0,0:0:0:70:LR4_KickGBDV.wav
320,192,144765,1,0,0:0:0:0:
320,192,144885,1,0,0:0:0:0:
448,192,144885,1,0,0:0:0:0:
64,192,145005,1,0,0:0:0:0:
192,192,145005,1,0,0:0:0:0:
64,192,145245,1,0,0:0:0:0:
192,192,145305,1,0,0:0:0:0:
320,192,145365,1,0,0:0:0:0:
448,192,145425,1,0,0:0:0:0:
64,192,145485,128,0,145845:0:0:0:70:LR4_KickGBDV.wav
192,192,145485,1,0,0:0:0:0:
320,192,145545,1,0,0:0:0:0:
448,192,145605,1,0,0:0:0:0:
192,192,145665,1,0,0:0:0:0:
320,192,145725,1,0,0:0:0:0:
448,192,145785,1,0,0:0:0:0:
192,192,145845,128,0,146205:0:0:0:0:
448,192,145905,1,0,0:0:0:0:
320,192,145965,1,0,0:0:0:0:
64,192,146025,1,0,0:0:0:0:
320,192,146085,1,0,0:0:0:0:
448,192,146145,1,0,0:0:0:0:
64,192,146205,128,0,146445:0:0:0:70:LR4_KickGBDV.wav
192,192,146265,1,0,0:0:0:0:
320,192,146325,1,0,0:0:0:0:
448,192,146385,1,0,0:0:0:0:
320,192,146445,128,0,146805:0:0:0:60:LR_CymbalSSD.wav
192,192,146505,1,0,0:0:0:0:
64,192,146565,1,0,0:0:0:0:
448,192,146625,1,0,0:0:0:0:
192,192,146685,1,0,0:0:0:0:
64,192,146745,1,0,0:0:0:0:
448,192,146805,128,0,147165:0:0:0:0:
192,192,146865,1,0,0:0:0:0:
320,192,146925,1,0,0:0:0:0:
64,192,146985,1,0,0:0:0:0:
192,192,147045,1,0,0:0:0:0:
320,192,147105,1,0,0:0:0:0:
64,192,147165,1,0,0:0:0:70:LR4_KickGBDV.wav
192,192,147165,128,0,147405:0:0:0:0:
320,192,147405,1,0,0:0:0:70:LR4_KickGBDV.wav
448,192,147405,1,0,0:0:0:0:
192,192,147465,1,0,0:0:0:0:
64,192,147525,1,0,0:0:0:0:
320,192,147585,1,0,0:0:0:0:
448,192,147645,1,0,0:0:0:0:
192,192,147705,1,0,0:0:0:0:
320,192,147765,1,0,0:0:0:0:
64,192,147825,1,0,0:0:0:0:
192,192,147885,1,0,0:0:0:0:
448,192,147945,1,0,0:0:0:0:
320,192,148005,1,0,0:0:0:0:
192,192,148065,1,0,0:0:0:0:
448,192,148125,1,0,0:0:0:0:
64,192,148185,1,0,0:0:0:0:
192,192,148245,1,0,0:0:0:0:
320,192,148305,1,0,0:0:0:0:
64,192,148365,1,0,0:0:0:60:LR_CymbalSSD.wav
192,192,148365,1,0,0:0:0:70:LR4_KickGBDV.wav
448,192,148365,1,0,0:0:0:0:
192,192,148485,1,0,0:0:0:0:
320,192,148485,1,0,0:0:0:0:
64,192,148605,1,0,0:0:0:0:
192,192,148725,1,0,0:0:0:0:
448,192,148725,1,0,0:0:0:0:
192,192,148845,1,0,0:0:0:0:
448,192,148845,1,0,0:0:0:0:
64,192,149085,1,0,0:0:0:70:LR4_KickGBDV.wav
320,192,149085,1,0,0:0:0:0:
448,192,149085,1,0,0:0:0:0:
64,192,149325,128,0,150045:0:0:0:70:LR4_KickGBDV.wav
320,192,149325,1,0,0:0:0:0:
448,192,149325,1,0,0:0:0:0:
192,192,149385,1,0,0:0:0:0:
448,192,149445,1,0,0:0:0:0:
320,192,149505,1,0,0:0:0:0:
192,192,149565,1,0,0:0:0:0:
448,192,149625,1,0,0:0:0:0:
320,192,149685,1,0,0:0:0:0:
192,192,149745,1,0,0:0:0:0:
448,192,149805,1,0,0:0:0:0:
320,192,149865,1,0,0:0:0:0:
192,192,149925,1,0,0:0:0:0:
320,192,149985,1,0,0:0:0:0:
448,192,150045,128,0,150645:0:0:0:70:LR4_KickGBDV.wav
64,192,150105,1,0,0:0:0:0:
192,192,150165,1,0,0:0:0:0:
320,192,150225,1,0,0:0:0:0:
64,192,150285,1,0,0:0:0:0:
192,192,150345,1,0,0:0:0:0:
320,192,150405,1,0,0:0:0:0:
64,192,150465,1,0,0:0:0:0:
192,192,150525,1,0,0:0:0:0:
64,192,150585,1,0,0:0:0:0:
320,192,150645,1,0,0:0:0:0:
192,192,150705,1,0,0:0:0:0:
64,192,150765,1,0,0:0:0:50:LR_Tom Drop.wav
448,192,150765,1,0,0:0:0:0:
192,192,150885,1,0,0:0:0:50:LR_Tom Drop.wav
448,192,150885,1,0,0:0:0:0:
64,192,151005,1,0,0:0:0:50:LR_Tom Drop.wav
192,192,151005,1,0,0:0:0:0:
320,192,151125,1,0,0:0:0:50:LR_Tom Drop.wav
448,192,151125,1,0,0:0:0:0:
64,192,151245,1,0,0:0:0:70:LR4_KickGBDV.wav
320,192,151245,1,0,0:0:0:0:
448,192,151245,1,0,0:0:0:0:
192,192,151305,1,0,0:0:0:0:
320,192,151365,1,0,0:0:0:0:
448,192,151425,1,0,0:0:0:0:
192,192,151485,1,0,0:0:0:0:
64,192,151545,1,0,0:0:0:0:
320,192,151605,1,0,0:0:0:0:
448,192,151665,1,0,0:0:0:0:
64,192,151725,1,0,0:0:0:0:
192,192,151785,1,0,0:0:0:0:
64,192,151845,1,0,0:0:0:0:
320,192,151845,1,0,0:0:0:0:
448,192,151905,1,0,0:0:0:0:
64,192,151965,1,0,0:0:0:80:LR5_HiHat NSynth.wav
192,192,151965,1,0,0:0:0:0:
320,192,152045,1,0,0:0:0:80:LR5_HiHat NSynth.wav
448,192,152045,1,0,0:0:0:0:
320,192,152125,1,0,0:0:0:80:LR5_HiHat NSynth.wav
448,192,152125,1,0,0:0:0:0:
64,192,152205,1,0,0:0:0:60:LR_CymbalSSD.wav
192,192,152205,1,0,0:0:0:80:LR5_HiHat NSynth.wav
448,192,152205,1,0,0:0:0:0:
192,192,152325,1,0,0:0:0:0:
320,192,152445,1,0,0:0:0:70:LR4_KickGBDV.wav
448,192,152445,1,0,0:0:0:0:
64,192,152565,1,0,0:0:0:0:
320,192,152565,1,0,0:0:0:0:
192,192,152685,1,0,0:0:0:0:
448,192,152685,1,0,0:0:0:0:
448,192,152925,1,0,0:0:0:0:
320,192,152985,1,0,0:0:0:0:
64,192,153045,1,0,0:0:0:0:
192,192,153105,1,0,0:0:0:0:
320,192,153165,1,0,0:0:0:70:LR4_KickGBDV.wav
448,192,153165,128,0,153525:0:0:0:0:
64,192,153225,1,0,0:0:0:0:
192,192,153285,1,0,0:0:0:0:
320,192,153345,1,0,0:0:0:0:
64,192,153405,1,0,0:0:0:0:
192,192,153465,1,0,0:0:0:0:
320,192,153525,128,0,153885:0:0:0:0:
448,192,153585,1,0,0:0:0:0:
64,192,153645,1,0,0:0:0:0:
192,192,153705,1,0,0:0:0:0:
448,192,153765,1,0,0:0:0:0:
64,192,153825,1,0,0:0:0:0:
192,192,153885,128,0,154125:0:0:0:70:LR4_KickGBDV.wav
448,192,153945,1,0,0:0:0:0:
320,192,154005,1,0,0:0:0:0:
64,192,154065,1,0,0:0:0:0:
448,192,154125,128,0,154485:0:0:0:60:LR_CymbalSSD.wav
320,192,154185,1,0,0:0:0:0:
192,192,154245,1,0,0:0:0:0:
64,192,154305,1,0,0:0:0:0:
320,192,154365,1,0,0:0:0:0:
192,192,154425,1,0,0:0:0:0:
64,192,154485,128,0,154845:0:0:0:0:
320,192,154545,1,0,0:0:0:0:
448,192,154605,1,0,0:0:0:0:
192,192,154665,1,0,0:0:0:0:
320,192,154725,1,0,0:0:0:0:
448,192,154785,1,0,0:0:0:0:
192,192,154845,1,0,0:0:0:70:LR4_KickGBDV.wav
320,192,154845,128,0,155085:0:0:0:0:
64,192,155085,1,0,0:0:0:70:LR4_KickGBDV.wav
192,192,155085,1,0,0:0:0:0:
320,192,155145,1,0,0:0:0:0:
448,192,155205,1,0,0:0:0:0:
192,192,155265,1,0,0:0:0:0:
64,192,155325,1,0,0:0:0:0:
320,192,155385,1,0,0:0:0:0:
192,192,155445,1,0,0:0:0:0:
64,192,155505,1,0,0:0:0:0:
448,192,155565,1,0,0:0:0:0:
320,192,155625,1,0,0:0:0:0:
192,192,155685,1,0,0:0:0:0:
448,192,155745,1,0,0:0:0:0:
64,192,155805,1,0,0:0:0:0:
192,192,155865,1,0,0:0:0:0:
320,192,155925,1,0,0:0:0:0:
192,192,155985,1,0,0:0:0:0:
64,192,156045,1,0,0:0:0:60:LR_CymbalSSD.wav
320,192,156045,1,0,0:0:0:70:LR4_KickGBDV.wav
448,192,156045,1,0,0:0:0:0:
192,192,156165,1,0,0:0:0:0:
320,192,156165,1,0,0:0:0:0:
64,192,156285,1,0,0:0:0:0:
192,192,156405,1,0,0:0:0:0:
448,192,156405,1,0,0:0:0:0:
192,192,156525,1,0,0:0:0:0:
448,192,156525,1,0,0:0:0:0:
64,192,156765,1,0,0:0:0:50:LR_Tom Drop.wav
192,192,156765,1,0,0:0:0:0:
320,192,156845,1,0,0:0:0:50:LR_Tom Drop.wav
448,192,156845,1,0,0:0:0:0:
64,192,156925,1,0,0:0:0:50:LR_Tom Drop.wav
192,192,156925,1,0,0:0:0:0:
320,192,157005,1,0,0:0:0:70:LR4_KickGBDV.wav
448,192,157005,128,0,157725:0:0:0:0:
64,192,157065,1,0,0:0:0:0:
192,192,157125,1,0,0:0:0:0:
320,192,157185,1,0,0:0:0:0:
64,192,157245,1,0,0:0:0:0:
192,192,157305,1,0,0:0:0:0:
320,192,157365,1,0,0:0:0:0:
64,192,157425,1,0,0:0:0:0:
320,192,157485,1,0,0:0:0:0:
192,192,157545,1,0,0:0:0:0:
64,192,157605,1,0,0:0:0:0:
320,192,157665,1,0,0:0:0:0:
64,192,157725,128,0,158805:0:0:0:70:LR4_KickGBDV.wav
448,192,157785,1,0,0:0:0:0:
320,192,157845,1,0,0:0:0:0:
192,192,157905,1,0,0:0:0:0:
448,192,157965,1,0,0:0:0:0:
320,192,158025,1,0,0:0:0:0:
192,192,158085,1,0,0:0:0:0:
448,192,158145,1,0,0:0:0:0:
320,192,158205,1,0,0:0:0:0:
192,192,158265,1,0,0:0:0:0:
448,192,158325,1,0,0:0:0:0:
320,192,158385,1,0,0:0:0:0:
192,192,158445,1,0,0:0:0:0:
320,192,158505,1,0,0:0:0:0:
448,192,158565,1,0,0:0:0:0:
192,192,158625,1,0,0:0:0:0:
320,192,158685,1,0,0:0:0:0:
448,192,158745,1,0,0:0:0:0:
192,192,158805,1,0,0:0:0:0:
320,192,158865,1,0,0:0:0:0:
64,192,158925,1,0,0:0:0:70:LR2_KickBassFast2.wav
448,192,158925,1,0,0:0:0:0:
192,192,158985,1,0,0:0:0:0:
320,192,159045,1,0,0:0:0:0:
192,192,159105,1,0,0:0:0:0:
64,192,159165,1,0,0:0:0:0:
448,192,159225,1,0,0:0:0:0:
320,192,159285,1,0,0:0:0:0:
192,192,159345,1,0,0:0:0:0:
64,192,159405,1,0,0:0:0:0:
320,192,159465,1,0,0:0:0:0:
192,192,159525,1,0,0:0:0:0:
448,192,159585,1,0,0:0:0:0:
320,192,159645,1,0,0:0:0:0:
64,192,159705,1,0,0:0:0:0:
192,192,159765,1,0,0:0:0:0:
320,192,159825,1,0,0:0:0:0:
64,192,159885,1,0,0:0:0:60:LR_CymbalSSD.wav
192,192,159885,1,0,0:0:0:70:LR2_KickBassFast2.wav
448,192,159885,1,0,0:0:0:0:
64,192,160005,1,0,0:0:0:0:
192,192,160005,1,0,0:0:0:0:
64,192,160245,1,0,0:0:0:0:
192,192,160245,1,0,0:0:0:0:
320,192,160365,1,0,0:0:0:0:
448,192,160365,1,0,0:0:0:0:
64,192,160605,1,0,0:0:0:0:
192,192,160605,1,0,0:0:0:0:
64,192,160845,1,0,0:0:0:0:
192,192,160845,1,0,0:0:0:0:
64,192,160965,1,0,0:0:0:0:
192,192,160965,1,0,0:0:0:0:
64,192,161085,1,0,0:0:0:0:
192,192,161085,1,0,0:0:0:0:
64,192,161205,1,0,0:0:0:0:
192,192,161205,1,0,0:0:0:0:
64,192,161325,1,0,0:0:0:70:LR2_KickBassFast2.wav
192,192,161325,1,0,0:0:0:0:
448,192,161325,1,0,0:0:0:0:
320,192,161385,1,0,0:0:0:0:
448,192,161445,1,0,0:0:0:0:
64,192,161505,1,0,0:0:0:0:
192,192,161565,1,0,0:0:0:0:
320,192,161625,1,0,0:0:0:0:
448,192,161685,1,0,0:0:0:0:
64,192,161745,1,0,0:0:0:0:
192,192,161805,1,0,0:0:0:60:LR_CymbalSSD.wav
320,192,161805,1,0,0:0:0:70:LR2_KickBassFast2.wav
448,192,161805,1,0,0:0:0:0:
64,192,161925,1,0,0:0:0:0:
192,192,161925,1,0,0:0:0:0:
64,192,162045,1,0,0:0:0:70:LR2_KickBassFast2.wav
320,192,162045,1,0,0:0:0:0:
448,192,162045,1,0,0:0:0:0:
192,192,162105,1,0,0:0:0:0:
320,192,162165,1,0,0:0:0:0:
448,192,162225,1,0,0:0:0:0:
192,192,162285,1,0,0:0:0:0:
64,192,162345,1,0,0:0:0:0:
448,192,162405,1,0,0:0:0:0:
320,192,162465,1,0,0:0:0:0:
64,192,162525,1,0,0:0:0:0:
192,192,162525,1,0,0:0:0:0:
64,192,162765,1,0,0:0:0:70:LR2_KickBassFast2.wav
192,192,162765,1,0,0:0:0:0:
320,192,162765,1,0,0:0:0:0:
448,192,162825,1,0,0:0:0:0:
192,192,162885,1,0,0:0:0:0:
320,192,162945,1,0,0:0:0:0:
448,192,163005,1,0,0:0:0:0:
192,192,163065,1,0,0:0:0:0:
64,192,163125,1,0,0:0:0:0:
320,192,163185,1,0,0:0:0:0:
192,192,163245,1,0,0:0:0:0:
320,192,163305,1,0,0:0:0:0:
448,192,163365,1,0,0:0:0:0:
64,192,163425,1,0,0:0:0:0:
192,192,163485,1,0,0:0:0:0:
448,192,163545,1,0,0:0:0:0:
320,192,163605,1,0,0:0:0:0:
192,192,163665,1,0,0:0:0:0:
64,192,163725,1,0,0:0:0:60:LR_CymbalSSD.wav
320,192,163725,1,0,0:0:0:70:LR2_KickBassFast2.wav
448,192,163725,1,0,0:0:0:0:
320,192,163845,1,0,0:0:0:0:
448,192,163845,1,0,0:0:0:0:
320,192,164085,1,0,0:0:0:0:
448,192,164085,1,0,0:0:0:0:
64,192,164205,1,0,0:0:0:0:
192,192,164205,1,0,0:0:0:0:
320,192,164445,1,0,0:0:0:0:
448,192,164445,1,0,0:0:0:0:
320,192,164685,1,0,0:0:0:0:
448,192,164685,1,0,0:0:0:0:
320,192,164805,1,0,0:0:0:0:
448,192,164805,1,0,0:0:0:0:
320,192,164925,1,0,0:0:0:0:
448,192,164925,1,0,0:0:0:0:
320,192,165045,1,0,0:0:0:0:
448,192,165045,1,0,0:0:0:0:
64,192,165165,1,0,0:0:0:70:LR2_KickBassFast2.wav
192,192,165165,1,0,0:0:0:0:
448,192,165165,1,0,0:0:0:0:
320,192,165225,1,0,0:0:0:0:
192,192,165285,1,0,0:0:0:0:
64,192,165345,1,0,0:0:0:0:
320,192,165405,1,0,0:0:0:0:
448,192,165465,1,0,0:0:0:0:
64,192,165525,1,0,0:0:0:0:
192,192,165585,1,0,0:0:0:0:
64,192,165645,1,0,0:0:0:60:LR_CymbalSSD.wav
320,192,165645,1,0,0:0:0:70:LR2_KickBassFast2.wav
448,192,165645,1,0,0:0:0:0:
192,192,165765,1,0,0:0:0:0:
320,192,165765,1,0,0:0:0:0:
64,192,165885,1,0,0:0:0:70:LR2_KickBassFast2.wav
192,192,165885,1,0,0:0:0:0:
448,192,165885,1,0,0:0:0:0:
320,192,165945,1,0,0:0:0:0:
64,192,166005,1,0,0:0:0:0:
192,192,166065,1,0,0:0:0:0:
320,192,166125,1,0,0:0:0:0:
448,192,166125,1,0,0:0:0:0:
64,192,166365,1,0,0:0:0:0:
192,192,166365,1,0,0:0:0:0:
64,192,166605,1,0,0:0:0:70:LR2_KickBassFast2.wav
192,192,166605,1,0,0:0:0:0:
320,192,166605,1,0,0:0:0:0:
448,192,166665,1,0,0:0:0:0:
192,192,166725,1,0,0:0:0:0:
64,192,166785,1,0,0:0:0:0:
448,192,166845,1,0,0:0:0:0:
320,192,166905,1,0,0:0:0:0:
192,192,166965,1,0,0:0:0:0:
320,192,167025,1,0,0:0:0:0:
448,192,167085,1,0,0:0:0:0:
64,192,167145,1,0,0:0:0:0:
192,192,167205,1,0,0:0:0:0:
320,192,167265,1,0,0:0:0:0:
64,192,167325,1,0,0:0:0:0:
192,192,167385,1,0,0:0:0:0:
448,192,167445,1,0,0:0:0:0:
320,192,167505,1,0,0:0:0:0:
64,192,167565,1,0,0:0:0:60:LR_CymbalSSD.wav
192,192,167565,1,0,0:0:0:70:LR2_KickBassFast2.wav
448,192,167565,1,0,0:0:0:0:
64,192,167685,1,0,0:0:0:0:
192,192,167685,1,0,0:0:0:0:
64,192,167925,1,0,0:0:0:0:
192,192,167925,1,0,0:0:0:0:
320,192,168045,1,0,0:0:0:0:
448,192,168045,1,0,0:0:0:0:
64,192,168285,1,0,0:0:0:0:
192,192,168285,1,0,0:0:0:0:
64,192,168525,1,0,0:0:0:0:
192,192,168525,1,0,0:0:0:0:
64,192,168645,1,0,0:0:0:0:
192,192,168645,1,0,0:0:0:0:
64,192,168765,1,0,0:0:0:0:
192,192,168765,1,0,0:0:0:0:
64,192,168885,1,0,0:0:0:0:
192,192,168885,1,0,0:0:0:0:
64,192,169005,1,0,0:0:0:70:LR2_KickBassFast2.wav
192,192,169005,1,0,0:0:0:0:
320,192,169005,1,0,0:0:0:0:
448,192,169065,1,0,0:0:0:0:
64,192,169125,1,0,0:0:0:0:
192,192,169185,1,0,0:0:0:0:
320,192,169245,1,0,0:0:0:0:
448,192,169305,1,0,0:0:0:0:
64,192,169365,1,0,0:0:0:0:
192,192,169425,1,0,0:0:0:0:
64,192,169485,1,0,0:0:0:60:LR_CymbalSSD.wav
320,192,169485,1,0,0:0:0:70:LR2_KickBassFast2.wav
448,192,169485,1,0,0:0:0:0:
64,192,169605,1,0,0:0:0:0:
192,192,169605,1,0,0:0:0:0:
192,192,169725,1,0,0:0:0:70:LR2_KickBassFast2.wav
320,192,169725,1,0,0:0:0:0:
448,192,169725,1,0,0:0:0:0:
64,192,169785,1,0,0:0:0:0:
448,192,169845,1,0,0:0:0:0:
320,192,169905,1,0,0:0:0:0:
64,192,169965,1,0,0:0:0:0:
192,192,170025,1,0,0:0:0:0:
320,192,170085,1,0,0:0:0:0:
448,192,170145,1,0,0:0:0:0:
64,192,170205,1,0,0:0:0:0:
192,192,170205,1,0,0:0:0:0:
64,192,170445,1,0,0:0:0:70:LR2_KickBassFast2.wav
320,192,170445,1,0,0:0:0:0:
448,192,170445,1,0,0:0:0:0:
192,192,170505,1,0,0:0:0:0:
320,192,170565,1,0,0:0:0:0:
64,192,170625,1,0,0:0:0:0:
192,192,170685,1,0,0:0:0:0:
448,192,170745,1,0,0:0:0:0:
320,192,170805,1,0,0:0:0:0:
192,192,170865,1,0,0:0:0:0:
320,192,170925,1,0,0:0:0:0:
448,192,170985,1,0,0:0:0:0:
192,192,171045,1,0,0:0:0:0:
64,192,171105,1,0,0:0:0:0:
320,192,171165,1,0,0:0:0:0:
448,192,171225,1,0,0:0:0:0:
64,192,171285,1,0,0:0:0:0:
192,192,171345,1,0,0:0:0:0:
64,192,171405,1,0,0:0:0:60:LR_CymbalSSD.wav
320,192,171405,1,0,0:0:0:70:LR2_KickBassFast2.wav
448,192,171405,1,0,0:0:0:0:
320,192,171525,1,0,0:0:0:0:
448,192,171525,1,0,0:0:0:0:
320,192,171765,1,0,0:0:0:0:
448,192,171765,1,0,0:0:0:0:
64,192,171885,1,0,0:0:0:0:
192,192,171885,1,0,0:0:0:0:
320,192,172125,1,0,0:0:0:0:
448,192,172125,1,0,0:0:0:0:
320,192,172365,1,0,0:0:0:0:
448,192,172365,1,0,0:0:0:0:
320,192,172485,1,0,0:0:0:0:
448,192,172485,1,0,0:0:0:0:
320,192,172605,1,0,0:0:0:0:
448,192,172605,1,0,0:0:0:0:
320,192,172725,1,0,0:0:0:0:
448,192,172725,1,0,0:0:0:0:
64,192,172845,1,0,0:0:0:70:LR2_KickBassFast2.wav
192,192,172845,1,0,0:0:0:0:
448,192,172845,1,0,0:0:0:0:
320,192,172905,1,0,0:0:0:0:
192,192,172965,1,0,0:0:0:0:
64,192,173025,1,0,0:0:0:0:
320,192,173085,1,0,0:0:0:0:
192,192,173145,1,0,0:0:0:0:
448,192,173205,1,0,0:0:0:0:
320,192,173265,1,0,0:0:0:0:
64,192,173325,1,0,0:0:0:60:LR_CymbalSSD.wav
192,192,173325,1,0,0:0:0:70:LR2_KickBassFast2.wav
448,192,173325,1,0,0:0:0:0:
320,192,173445,1,0,0:0:0:0:
448,192,173445,1,0,0:0:0:0:
64,192,173565,1,0,0:0:0:70:LR2_KickBassFast2.wav
192,192,173565,1,0,0:0:0:0:
320,192,173565,1,0,0:0:0:0:
448,192,173625,1,0,0:0:0:0:
192,192,173685,1,0,0:0:0:0:
320,192,173745,1,0,0:0:0:0:
64,192,173805,1,0,0:0:0:0:
448,192,173805,1,0,0:0:0:0:
64,192,174045,1,0,0:0:0:0:
192,192,174045,1,0,0:0:0:0:
448,192,174045,1,0,0:0:0:0:
64,192,174285,128,0,174345:0:0:0:70:LR_CymbalG.wav
192,192,174285,128,0,174345:0:0:0:70:LR2_KickBassFast2.wav
320,192,174285,128,0,174345:0:0:0:60:LR_CymbalSSD.wav
448,192,174285,128,0,174345:0:0:0:0:
