osu file format v14

[General]
AudioFilename: audio.mp3
AudioLeadIn: 0
PreviewTime: 54194
Countdown: 1
SampleSet: Normal
StackLeniency: 0.7
Mode: 1
LetterboxInBreaks: 0
WidescreenStoryboard: 1

[Editor]
DistanceSpacing: 0.6
BeatDivisor: 4
GridSize: 4
TimelineZoom: 1.5

[Metadata]
Title:This game(TV-Size)
TitleUnicode:This game(TV-Size)
Artist:Konomi Suzuki
ArtistUnicode:鈴木このみ
Creator:Chromoxx
Version:Oni
Source:ノーゲーム・ノーライフ
Tags:No Game No Life opening Shiro Sora Ai Kayano Matsuoka Yoshitsugu
BeatmapID:1302301
BeatmapSetID:617670

[Difficulty]
HPDrainRate:5
CircleSize:5
OverallDifficulty:5
ApproachRate:5
SliderMultiplier:1.4
SliderTickRate:1

[Events]
//Background and Video events
0,0,"no game more life.jpg",0,0
//Break Periods
//Storyboard Layer 0 (Background)
//Storyboard Layer 1 (Fail)
//Storyboard Layer 2 (Pass)
//Storyboard Layer 3 (Foreground)
//Storyboard Sound Samples

[TimingPoints]
317,408.163265306122,4,1,0,50,1,0
6847,-100,4,1,0,80,0,0
13378,-100,4,1,0,50,0,0
13888,-100,4,1,0,60,0,0
24704,-100,4,1,0,70,0,0
39398,-100,4,1,0,60,0,0
52459,-100,4,1,0,70,0,0
54194,-100,4,1,0,80,0,1
83582,-100,4,1,0,80,0,0
86847,-100,4,1,0,30,0,0

[HitObjects]
328,216,317,5,8,0:0:0:0:
328,216,623,1,8,0:0:0:0:
328,216,929,1,0,0:0:0:0:
296,176,1337,1,0,0:0:0:0:
296,176,1541,1,0,0:0:0:0:
296,176,1745,1,8,0:0:0:0:
296,176,1949,1,8,0:0:0:0:
296,176,2255,1,8,0:0:0:0:
296,176,2561,1,0,0:0:0:0:
296,176,2970,1,0,0:0:0:0:
296,176,3174,1,8,0:0:0:0:
296,176,3378,1,8,0:0:0:0:
296,176,3582,1,0,0:0:0:0:
260,184,3888,1,8,0:0:0:0:
188,96,4194,1,0,0:0:0:0:
264,176,4602,1,0,0:0:0:0:
208,200,4806,1,0,0:0:0:0:
264,176,5010,1,8,0:0:0:0:
312,56,5214,1,8,0:0:0:0:
272,200,5521,1,8,0:0:0:0:
272,200,5827,1,0,0:0:0:0:
308,124,6235,1,0,0:0:0:0:
308,124,6439,1,8,0:0:0:0:
308,124,6643,1,8,0:0:0:0:
296,104,6847,1,4,0:0:0:0:
296,104,7051,1,8,0:0:0:0:
296,104,7153,1,8,0:0:0:0:
292,92,7255,1,8,0:0:0:0:
228,72,7459,1,4,0:0:0:0:
284,64,7868,1,0,0:0:0:0:
284,64,8072,1,8,0:0:0:0:
164,72,8276,1,0,0:0:0:0:
212,80,8480,1,12,0:0:0:0:
260,140,8684,1,0,0:0:0:0:
260,140,8786,1,0,0:0:0:0:
204,104,8888,1,0,0:0:0:0:
204,104,9092,1,12,0:0:0:0:
212,100,9500,1,0,0:0:0:0:
212,100,9704,1,8,0:0:0:0:
212,100,9908,1,8,0:0:0:0:
212,96,10112,1,4,0:0:0:0:
212,100,10316,1,8,0:0:0:0:
212,100,10419,1,8,0:0:0:0:
196,88,10521,1,8,0:0:0:0:
188,84,10725,1,4,0:0:0:0:
208,72,11133,1,0,0:0:0:0:
184,64,11337,1,8,0:0:0:0:
208,72,11541,1,8,0:0:0:0:
192,56,11745,1,4,0:0:0:0:
192,56,12051,1,12,0:0:0:0:
192,56,12357,1,4,0:0:0:0:
192,56,12765,1,0,0:0:0:0:
140,96,12970,1,8,0:0:0:0:
288,164,13378,1,0,0:0:0:0:
244,52,13990,1,12,0:0:0:0:
356,112,14398,1,0,0:0:0:0:
356,112,14602,1,8,0:0:0:0:
300,132,15010,1,0,0:0:0:0:
244,232,15214,1,0,0:0:0:0:
176,240,15316,1,0,0:0:0:0:
244,232,15419,1,8,0:0:0:0:
176,240,15623,1,8,0:0:0:0:
168,228,15827,1,0,0:0:0:0:
168,228,16031,1,0,0:0:0:0:
168,228,16235,1,8,0:0:0:0:
248,216,16439,1,8,0:0:0:0:
236,208,16541,1,8,0:0:0:0:
264,240,16643,1,0,0:0:0:0:
280,160,17051,1,8,0:0:0:0:
348,200,17255,1,0,0:0:0:0:
348,200,17357,1,0,0:0:0:0:
292,172,17459,1,8,0:0:0:0:
292,172,17663,1,0,0:0:0:0:
292,172,17868,1,8,0:0:0:0:
292,172,18072,1,8,0:0:0:0:
292,172,18276,1,0,0:0:0:0:
292,172,18480,1,8,0:0:0:0:
292,172,18582,1,0,0:0:0:0:
264,260,18786,1,0,0:0:0:0:
192,196,18888,1,8,0:0:0:0:
348,164,19092,1,0,0:0:0:0:
348,164,19194,1,0,0:0:0:0:
264,144,19296,1,8,0:0:0:0:
264,144,19398,1,8,0:0:0:0:
276,176,19500,1,0,0:0:0:0:
264,124,19908,1,4,0:0:0:0:
312,128,20316,1,8,0:0:0:0:
312,128,20521,1,0,0:0:0:0:
328,272,20623,1,0,0:0:0:0:
320,196,20725,1,0,0:0:0:0:
312,128,20929,1,0,0:0:0:0:
272,96,21133,1,8,0:0:0:0:
312,120,21541,1,0,0:0:0:0:
312,120,21745,1,0,0:0:0:0:
312,120,21949,1,8,0:0:0:0:
272,176,22153,1,0,0:0:0:0:
272,176,22255,1,0,0:0:0:0:
208,160,22357,1,8,0:0:0:0:
208,160,22561,1,0,0:0:0:0:
248,208,22765,1,8,0:0:0:0:
248,208,22970,1,8,0:0:0:0:
248,208,23174,1,0,0:0:0:0:
240,180,23582,1,8,0:0:0:0:
280,136,23786,1,8,0:0:0:0:
280,136,23888,1,8,0:0:0:0:
240,244,23990,1,0,0:0:0:0:
240,244,24194,1,0,0:0:0:0:
240,244,24398,1,8,0:0:0:0:
240,244,24602,1,8,0:0:0:0:
280,152,24806,1,4,0:0:0:0:
280,152,25112,1,4,0:0:0:0:
280,152,25419,1,12,0:0:0:0:
280,152,25725,1,4,0:0:0:0:
280,152,26031,1,12,0:0:0:0:
288,124,26439,1,0,0:0:0:0:
200,216,26643,1,8,0:0:0:0:
232,244,26847,1,0,0:0:0:0:
208,264,27051,1,8,0:0:0:0:
208,268,27153,1,0,0:0:0:0:
228,212,27357,1,8,0:0:0:0:
284,160,27561,1,0,0:0:0:0:
224,268,27663,1,8,0:0:0:0:
184,156,27868,1,8,0:0:0:0:
184,156,28072,1,0,0:0:0:0:
184,156,28276,1,0,0:0:0:0:
296,224,28480,1,8,0:0:0:0:
296,224,28684,1,0,0:0:0:0:
224,216,28786,1,8,0:0:0:0:
240,204,28990,1,0,0:0:0:0:
236,80,29194,1,8,0:0:0:0:
236,80,29296,1,0,0:0:0:0:
240,84,29500,1,8,0:0:0:0:
304,152,29704,1,0,0:0:0:0:
276,136,29908,1,8,0:0:0:0:
276,136,30112,1,8,0:0:0:0:
276,136,30316,1,0,0:0:0:0:
252,124,30419,1,8,0:0:0:0:
252,124,30623,1,8,0:0:0:0:
252,124,30827,1,0,0:0:0:0:
252,124,30929,1,0,0:0:0:0:
248,120,31133,1,8,0:0:0:0:
244,100,31337,1,4,0:0:0:0:
244,100,31643,1,4,0:0:0:0:
328,136,31949,1,12,0:0:0:0:
328,136,32255,1,4,0:0:0:0:
328,136,32561,1,12,0:0:0:0:
292,112,32970,1,0,0:0:0:0:
292,112,33174,1,8,0:0:0:0:
292,112,33378,1,0,0:0:0:0:
284,144,33582,1,8,0:0:0:0:
284,144,33684,1,0,0:0:0:0:
268,152,33888,1,8,0:0:0:0:
268,152,34092,1,0,0:0:0:0:
252,136,34194,1,8,0:0:0:0:
184,128,34398,1,8,0:0:0:0:
280,232,34602,1,0,0:0:0:0:
280,232,34806,1,0,0:0:0:0:
280,232,35010,1,8,0:0:0:0:
272,204,35214,1,0,0:0:0:0:
192,168,35316,1,8,0:0:0:0:
192,168,35521,1,0,0:0:0:0:
192,168,35725,1,8,0:0:0:0:
192,168,35827,1,0,0:0:0:0:
176,156,36031,1,8,0:0:0:0:
216,168,36235,1,0,0:0:0:0:
216,168,36439,1,8,0:0:0:0:
216,168,36643,1,8,0:0:0:0:
208,160,36847,1,0,0:0:0:0:
208,160,36949,1,8,0:0:0:0:
204,160,37153,1,8,0:0:0:0:
204,160,37357,1,0,0:0:0:0:
204,160,37459,1,0,0:0:0:0:
208,148,37663,1,8,0:0:0:0:
280,136,37868,1,4,0:0:0:0:
312,144,38480,1,0,0:0:0:0:
312,144,38684,1,8,0:0:0:0:
288,116,38888,1,0,0:0:0:0:
200,116,39500,1,12,0:0:0:0:
276,152,40112,1,0,0:0:0:0:
120,136,40316,1,8,0:0:0:0:
120,136,40725,1,8,0:0:0:0:
120,136,41133,1,0,0:0:0:0:
280,108,41745,1,0,0:0:0:0:
280,108,41949,1,8,0:0:0:0:
304,176,42765,1,0,0:0:0:0:
180,208,43174,1,0,0:0:0:0:
304,152,43378,1,0,0:0:0:0:
304,152,43582,1,8,0:0:0:0:
304,152,43990,1,0,0:0:0:0:
132,172,44398,2,0,L|172:168,6,35
232,132,45214,1,8,0:0:0:0:
232,132,45419,1,0,0:0:0:0:
232,132,45521,1,0,0:0:0:0:
232,132,45827,1,8,0:0:0:0:
296,96,46031,1,4,0:0:0:0:
296,96,46337,1,4,0:0:0:0:
296,96,46643,1,4,0:0:0:0:
280,108,47663,1,12,0:0:0:0:
280,108,47970,1,12,0:0:0:0:
264,100,48276,1,12,0:0:0:0:
336,208,48480,1,0,0:0:0:0:
284,148,49092,1,0,0:0:0:0:
284,148,49296,1,8,0:0:0:0:
288,100,49500,1,0,0:0:0:0:
288,100,49602,1,0,0:0:0:0:
244,92,49704,1,0,0:0:0:0:
244,92,49908,1,8,0:0:0:0:
244,92,50112,1,0,0:0:0:0:
244,92,50316,1,0,0:0:0:0:
244,92,50521,1,8,0:0:0:0:
240,100,50929,1,0,0:0:0:0:
240,100,51133,1,8,0:0:0:0:
240,100,51235,1,8,0:0:0:0:
228,96,51337,1,8,0:0:0:0:
228,96,51541,1,0,0:0:0:0:
248,128,51745,1,8,0:0:0:0:
248,128,51847,1,8,0:0:0:0:
200,108,51949,1,0,0:0:0:0:
200,108,52051,1,0,0:0:0:0:
168,96,52153,1,8,0:0:0:0:
188,124,52357,1,0,0:0:0:0:
196,116,52561,1,12,0:0:0:0:
196,116,52868,1,12,0:0:0:0:
196,116,53174,1,12,0:0:0:0:
204,116,53582,1,0,0:0:0:0:
204,116,53684,1,0,0:0:0:0:
168,104,53786,1,8,0:0:0:0:
232,104,54194,1,4,0:0:0:0:
216,72,54602,1,8,0:0:0:0:
216,72,54806,1,8,0:0:0:0:
216,72,55010,1,0,0:0:0:0:
216,72,55214,1,0,0:0:0:0:
220,72,55316,1,0,0:0:0:0:
220,72,55419,1,8,0:0:0:0:
220,72,55623,1,8,0:0:0:0:
220,76,55827,1,0,0:0:0:0:
272,132,56235,1,8,0:0:0:0:
280,108,56439,1,0,0:0:0:0:
204,96,56643,1,0,0:0:0:0:
204,96,56847,1,8,0:0:0:0:
204,96,56949,1,8,0:0:0:0:
204,96,57051,1,8,0:0:0:0:
204,96,57255,1,8,0:0:0:0:
204,96,57459,1,0,0:0:0:0:
284,144,57868,1,8,0:0:0:0:
284,144,58072,1,0,0:0:0:0:
212,72,58276,1,0,0:0:0:0:
212,72,58480,1,8,0:0:0:0:
212,72,58582,1,8,0:0:0:0:
212,72,58684,1,8,0:0:0:0:
212,72,58888,1,0,0:0:0:0:
212,72,59092,1,8,0:0:0:0:
232,128,59296,1,0,0:0:0:0:
216,112,59398,1,0,0:0:0:0:
232,128,59500,1,0,0:0:0:0:
216,112,59704,1,8,0:0:0:0:
224,108,60112,1,0,0:0:0:0:
224,108,60316,1,8,0:0:0:0:
224,108,60521,1,8,0:0:0:0:
224,108,60623,1,8,0:0:0:0:
212,136,60725,1,0,0:0:0:0:
212,136,61133,1,8,0:0:0:0:
212,136,61337,1,0,0:0:0:0:
212,136,61439,1,0,0:0:0:0:
200,124,61541,1,0,0:0:0:0:
176,112,61745,1,0,0:0:0:0:
176,112,61949,1,8,0:0:0:0:
196,124,62153,1,0,0:0:0:0:
196,124,62255,1,0,0:0:0:0:
176,100,62357,1,8,0:0:0:0:
176,100,62765,1,0,0:0:0:0:
256,156,62970,1,8,0:0:0:0:
256,156,63072,1,8,0:0:0:0:
224,136,63174,1,8,0:0:0:0:
224,136,63378,1,0,0:0:0:0:
224,136,63582,1,8,0:0:0:0:
224,136,63786,1,8,0:0:0:0:
240,100,63990,1,4,0:0:0:0:
320,88,64398,1,8,0:0:0:0:
332,88,64602,1,0,0:0:0:0:
248,204,64704,1,0,0:0:0:0:
332,88,64806,1,0,0:0:0:0:
248,204,65010,1,0,0:0:0:0:
248,204,65214,1,8,0:0:0:0:
252,196,65419,1,0,0:0:0:0:
252,196,65623,1,0,0:0:0:0:
256,156,66031,1,8,0:0:0:0:
256,156,66235,1,0,0:0:0:0:
256,156,66337,1,0,0:0:0:0:
236,144,66439,1,8,0:0:0:0:
236,144,66643,1,0,0:0:0:0:
236,144,66847,1,8,0:0:0:0:
224,148,66949,1,8,0:0:0:0:
224,148,67051,1,8,0:0:0:0:
204,96,67255,1,4,0:0:0:0:
216,72,67663,1,8,0:0:0:0:
216,72,67867,1,8,0:0:0:0:
216,72,68071,1,0,0:0:0:0:
216,72,68275,1,0,0:0:0:0:
220,72,68377,1,0,0:0:0:0:
220,72,68480,1,8,0:0:0:0:
220,72,68684,1,8,0:0:0:0:
220,76,68888,1,0,0:0:0:0:
272,132,69296,1,8,0:0:0:0:
280,108,69500,1,0,0:0:0:0:
204,96,69704,1,0,0:0:0:0:
204,96,69908,1,8,0:0:0:0:
204,96,70010,1,8,0:0:0:0:
204,96,70112,1,8,0:0:0:0:
204,96,70316,1,8,0:0:0:0:
204,96,70520,1,0,0:0:0:0:
284,144,70929,1,8,0:0:0:0:
284,144,71133,1,0,0:0:0:0:
212,72,71337,1,0,0:0:0:0:
212,72,71541,1,8,0:0:0:0:
212,72,71643,1,8,0:0:0:0:
212,72,71745,1,8,0:0:0:0:
212,72,71949,1,0,0:0:0:0:
212,72,72153,1,8,0:0:0:0:
232,128,72357,1,0,0:0:0:0:
216,112,72459,1,0,0:0:0:0:
232,128,72561,1,0,0:0:0:0:
216,112,72765,1,8,0:0:0:0:
224,108,73173,1,0,0:0:0:0:
224,108,73377,1,8,0:0:0:0:
224,108,73582,1,8,0:0:0:0:
224,108,73684,1,8,0:0:0:0:
212,136,73786,1,0,0:0:0:0:
212,136,74194,1,8,0:0:0:0:
212,136,74398,1,0,0:0:0:0:
212,136,74500,1,0,0:0:0:0:
200,124,74602,1,0,0:0:0:0:
176,112,74806,1,0,0:0:0:0:
176,112,75010,1,8,0:0:0:0:
196,124,75214,1,0,0:0:0:0:
196,124,75316,1,0,0:0:0:0:
176,100,75418,1,8,0:0:0:0:
176,100,75826,1,0,0:0:0:0:
256,156,76031,1,8,0:0:0:0:
256,156,76133,1,8,0:0:0:0:
224,136,76235,1,8,0:0:0:0:
224,136,76439,1,0,0:0:0:0:
224,136,76643,1,8,0:0:0:0:
224,136,76847,1,8,0:0:0:0:
240,100,77051,1,0,0:0:0:0:
328,228,77255,1,0,0:0:0:0:
328,228,77459,1,8,0:0:0:0:
284,80,77663,1,0,0:0:0:0:
284,80,77765,1,0,0:0:0:0:
284,80,77868,1,8,0:0:0:0:
284,80,78072,1,0,0:0:0:0:
284,80,78276,1,8,0:0:0:0:
284,80,78480,1,8,0:0:0:0:
284,80,78582,1,8,0:0:0:0:
284,80,78684,1,0,0:0:0:0:
312,156,79092,1,8,0:0:0:0:
292,248,79296,1,0,0:0:0:0:
292,248,79398,1,0,0:0:0:0:
284,232,79500,1,0,0:0:0:0:
292,248,79704,1,0,0:0:0:0:
288,192,79908,1,8,0:0:0:0:
288,192,80112,1,8,0:0:0:0:
288,192,80214,1,8,0:0:0:0:
244,184,80316,1,0,0:0:0:0:
292,148,80725,1,8,0:0:0:0:
292,148,80929,1,0,0:0:0:0:
292,148,81031,1,0,0:0:0:0:
280,136,81133,1,8,0:0:0:0:
280,136,81337,1,0,0:0:0:0:
280,136,81541,1,8,0:0:0:0:
280,136,81745,1,8,0:0:0:0:
268,128,81949,1,0,0:0:0:0:
256,112,82765,1,8,0:0:0:0:
256,112,83072,1,0,0:0:0:0:
256,112,83378,1,8,0:0:0:0:
248,100,83582,1,4,0:0:0:0:
248,100,83888,1,4,0:0:0:0:
248,100,84194,1,12,0:0:0:0:
248,100,84500,1,4,0:0:0:0:
248,100,84806,1,12,0:0:0:0:
248,100,85214,1,4,0:0:0:0:
256,192,86847,12,8,87663,0:0:0:0:
