osu file format v14

[General]
AudioFilename: audio.mp3
AudioLeadIn: 0
PreviewTime: 54194
Countdown: 1
SampleSet: Normal
StackLeniency: 0.7
Mode: 1
LetterboxInBreaks: 0
WidescreenStoryboard: 1

[Editor]
DistanceSpacing: 0.6
BeatDivisor: 4
GridSize: 4
TimelineZoom: 1.5

[Metadata]
Title:This game(TV-Size)
TitleUnicode:This game(TV-Size)
Artist:Konomi Suzuki
ArtistUnicode:鈴木このみ
Creator:Chromoxx
Version:Muzukashii
Source:ノーゲーム・ノーライフ
Tags:No Game No Life opening Shiro Sora Ai Kayano Matsuoka Yoshitsugu
BeatmapID:1310282
BeatmapSetID:617670

[Difficulty]
HPDrainRate:6
CircleSize:5
OverallDifficulty:4.5
ApproachRate:5
SliderMultiplier:1.4
SliderTickRate:1

[Events]
//Background and Video events
0,0,"no game more life.jpg",0,0
//Break Periods
//Storyboard Layer 0 (Background)
//Storyboard Layer 1 (Fail)
//Storyboard Layer 2 (Pass)
//Storyboard Layer 3 (Foreground)
//Storyboard Sound Samples

[TimingPoints]
317,408.163265306122,4,1,0,50,1,0
6847,-100,4,1,0,80,0,0
13378,-100,4,1,0,50,0,0
13888,-100,4,1,0,60,0,0
24704,-100,4,1,0,70,0,0
39398,-100,4,1,0,60,0,0
52459,-100,4,1,0,70,0,0
54194,-100,4,1,0,80,0,1
83582,-100,4,1,0,80,0,0
86847,-100,4,1,0,30,0,0

[HitObjects]
328,200,317,5,8,0:0:0:0:
316,184,623,1,8,0:0:0:0:
316,184,929,1,0,0:0:0:0:
240,120,1541,1,0,0:0:0:0:
204,284,1745,1,8,0:0:0:0:
240,120,1949,1,8,0:0:0:0:
240,120,2255,1,8,0:0:0:0:
240,120,2561,1,0,0:0:0:0:
176,124,3174,1,0,0:0:0:0:
264,296,3378,1,0,0:0:0:0:
176,124,3582,1,8,0:0:0:0:
176,124,3888,1,8,0:0:0:0:
176,124,4194,1,0,0:0:0:0:
152,180,4806,1,0,0:0:0:0:
208,240,5010,1,8,0:0:0:0:
152,180,5214,1,8,0:0:0:0:
176,300,5521,1,8,0:0:0:0:
176,300,5827,1,0,0:0:0:0:
280,204,6439,1,0,0:0:0:0:
228,240,6643,1,0,0:0:0:0:
216,140,6847,1,12,0:0:0:0:
280,152,7153,1,4,0:0:0:0:
280,152,7459,1,12,0:0:0:0:
252,112,7868,1,0,0:0:0:0:
252,112,8072,1,8,0:0:0:0:
252,112,8276,1,8,0:0:0:0:
304,208,8480,1,4,0:0:0:0:
304,208,8786,1,4,0:0:0:0:
304,208,9092,1,12,0:0:0:0:
180,84,9500,1,0,0:0:0:0:
168,172,9704,1,0,0:0:0:0:
180,84,9908,1,8,0:0:0:0:
92,112,10112,1,12,0:0:0:0:
148,112,10419,1,4,0:0:0:0:
148,112,10725,1,12,0:0:0:0:
120,112,11133,1,0,0:0:0:0:
120,112,11337,1,8,0:0:0:0:
240,72,11541,1,8,0:0:0:0:
284,212,11745,1,4,0:0:0:0:
284,212,12051,1,12,0:0:0:0:
284,212,12357,1,4,0:0:0:0:
240,248,12765,1,8,0:0:0:0:
240,248,12970,1,8,0:0:0:0:
272,128,13990,1,12,0:0:0:0:
272,92,14398,1,0,0:0:0:0:
272,92,14602,1,8,0:0:0:0:
248,220,15010,1,0,0:0:0:0:
236,164,15419,1,8,0:0:0:0:
248,192,15623,1,8,0:0:0:0:
248,192,15827,1,0,0:0:0:0:
248,192,16031,1,0,0:0:0:0:
248,192,16235,1,8,0:0:0:0:
248,192,16643,1,0,0:0:0:0:
236,196,17051,1,8,0:0:0:0:
236,196,17255,1,0,0:0:0:0:
236,196,17663,1,0,0:0:0:0:
236,196,17868,1,8,0:0:0:0:
236,196,18072,1,8,0:0:0:0:
236,196,18276,1,0,0:0:0:0:
260,144,18582,1,0,0:0:0:0:
260,144,18888,1,8,0:0:0:0:
164,184,19092,2,0,L|212:176,6,35
232,64,19908,1,4,0:0:0:0:
256,124,20316,1,8,0:0:0:0:
256,124,20521,1,8,0:0:0:0:
152,108,20725,1,0,0:0:0:0:
256,124,20929,1,0,0:0:0:0:
144,88,21133,1,8,0:0:0:0:
144,88,21541,1,0,0:0:0:0:
252,96,21949,1,8,0:0:0:0:
252,96,22153,1,0,0:0:0:0:
260,96,22357,1,0,0:0:0:0:
324,144,22663,1,8,0:0:0:0:
324,144,22970,1,8,0:0:0:0:
324,144,23174,1,0,0:0:0:0:
220,84,23582,1,0,0:0:0:0:
220,84,23786,1,8,0:0:0:0:
220,84,24194,1,0,0:0:0:0:
220,84,24398,1,8,0:0:0:0:
220,84,24602,1,8,0:0:0:0:
220,84,24806,1,4,0:0:0:0:
220,84,25112,1,4,0:0:0:0:
220,84,25419,1,12,0:0:0:0:
220,84,25725,1,4,0:0:0:0:
220,84,26031,1,12,0:0:0:0:
196,80,26439,1,0,0:0:0:0:
196,80,26643,1,0,0:0:0:0:
196,80,26847,1,8,0:0:0:0:
196,80,27051,1,0,0:0:0:0:
196,80,27153,1,0,0:0:0:0:
252,76,27255,1,0,0:0:0:0:
232,136,27459,1,8,0:0:0:0:
252,76,27663,1,0,0:0:0:0:
368,112,28072,1,8,0:0:0:0:
368,112,28276,1,8,0:0:0:0:
368,112,28480,1,0,0:0:0:0:
368,112,28684,1,8,0:0:0:0:
368,112,28786,1,8,0:0:0:0:
336,204,28888,1,8,0:0:0:0:
272,200,29092,1,0,0:0:0:0:
272,200,29296,1,8,0:0:0:0:
336,120,29704,1,0,0:0:0:0:
336,120,29908,1,0,0:0:0:0:
336,120,30112,1,8,0:0:0:0:
224,80,30316,1,0,0:0:0:0:
224,80,30419,1,0,0:0:0:0:
224,80,30521,1,0,0:0:0:0:
244,88,30725,1,8,0:0:0:0:
208,80,30929,1,0,0:0:0:0:
208,56,31337,1,12,0:0:0:0:
208,56,31643,1,12,0:0:0:0:
208,56,31949,1,12,0:0:0:0:
208,56,32255,1,12,0:0:0:0:
208,56,32561,1,12,0:0:0:0:
264,160,32970,1,0,0:0:0:0:
244,128,33174,1,0,0:0:0:0:
244,128,33378,1,8,0:0:0:0:
244,128,33582,1,0,0:0:0:0:
244,128,33684,1,0,0:0:0:0:
272,280,33786,1,0,0:0:0:0:
252,76,33990,1,8,0:0:0:0:
252,76,34194,1,0,0:0:0:0:
244,188,34602,1,8,0:0:0:0:
296,156,34806,1,8,0:0:0:0:
244,188,35010,1,0,0:0:0:0:
264,96,35214,1,8,0:0:0:0:
264,96,35316,1,8,0:0:0:0:
252,64,35419,1,8,0:0:0:0:
264,96,35623,1,0,0:0:0:0:
264,96,35827,1,8,0:0:0:0:
256,128,36235,1,0,0:0:0:0:
256,128,36439,1,0,0:0:0:0:
256,128,36643,1,8,0:0:0:0:
256,128,36847,1,0,0:0:0:0:
256,128,36949,1,0,0:0:0:0:
184,148,37051,1,0,0:0:0:0:
260,124,37255,1,8,0:0:0:0:
260,124,37459,1,0,0:0:0:0:
240,100,37663,1,0,0:0:0:0:
240,100,37868,1,8,0:0:0:0:
272,132,38684,1,0,0:0:0:0:
284,104,39500,1,4,0:0:0:0:
272,192,40112,1,0,0:0:0:0:
272,192,40316,1,8,0:0:0:0:
272,192,41133,1,0,0:0:0:0:
268,184,41949,1,8,0:0:0:0:
268,184,42765,1,0,0:0:0:0:
268,184,43174,1,0,0:0:0:0:
208,204,43378,1,0,0:0:0:0:
268,184,43582,1,8,0:0:0:0:
176,140,43990,1,0,0:0:0:0:
160,180,44398,2,0,L|204:176,6,35
228,164,45214,1,0,0:0:0:0:
228,164,45521,1,0,0:0:0:0:
216,136,46031,1,12,0:0:0:0:
216,136,46337,1,12,0:0:0:0:
216,136,46643,1,12,0:0:0:0:
272,136,47663,1,4,0:0:0:0:
272,136,47970,1,4,0:0:0:0:
272,136,48276,1,4,0:0:0:0:
280,204,49296,1,8,0:0:0:0:
192,192,49602,1,0,0:0:0:0:
356,128,49908,1,8,0:0:0:0:
356,128,50112,1,0,0:0:0:0:
356,128,50316,1,0,0:0:0:0:
244,224,50521,1,8,0:0:0:0:
244,224,50929,1,0,0:0:0:0:
244,224,51235,1,0,0:0:0:0:
244,224,51541,1,0,0:0:0:0:
256,192,51745,1,8,0:0:0:0:
256,192,52051,1,8,0:0:0:0:
256,192,52357,1,8,0:0:0:0:
256,192,52561,1,4,0:0:0:0:
256,192,52868,1,4,0:0:0:0:
256,192,53174,1,4,0:0:0:0:
220,208,54194,1,4,0:0:0:0:
240,176,54602,1,8,0:0:0:0:
184,220,54806,1,0,0:0:0:0:
112,200,55010,1,8,0:0:0:0:
224,280,55214,1,0,0:0:0:0:
224,280,55316,1,0,0:0:0:0:
224,280,55419,1,0,0:0:0:0:
192,204,55623,1,0,0:0:0:0:
192,204,55827,1,8,0:0:0:0:
64,204,56235,1,8,0:0:0:0:
132,204,56439,1,8,0:0:0:0:
224,204,56643,1,0,0:0:0:0:
236,220,56847,1,8,0:0:0:0:
232,216,56949,1,8,0:0:0:0:
176,184,57051,1,8,0:0:0:0:
176,184,57255,1,0,0:0:0:0:
176,184,57459,1,8,0:0:0:0:
176,184,57868,1,0,0:0:0:0:
176,184,58072,1,0,0:0:0:0:
176,184,58276,1,8,0:0:0:0:
152,188,58582,1,0,0:0:0:0:
312,192,58888,1,8,0:0:0:0:
312,192,59092,1,8,0:0:0:0:
312,192,59398,1,8,0:0:0:0:
312,192,59704,1,0,0:0:0:0:
136,108,60112,1,0,0:0:0:0:
268,144,60316,1,8,0:0:0:0:
268,144,60521,1,0,0:0:0:0:
268,144,60623,1,0,0:0:0:0:
268,144,60725,1,0,0:0:0:0:
296,160,61133,1,8,0:0:0:0:
296,160,61337,1,0,0:0:0:0:
296,160,61541,1,0,0:0:0:0:
296,160,61949,1,8,0:0:0:0:
352,160,62153,1,0,0:0:0:0:
352,160,62255,1,0,0:0:0:0:
352,160,62357,1,0,0:0:0:0:
240,200,62765,1,0,0:0:0:0:
240,200,62970,1,8,0:0:0:0:
240,200,63072,1,8,0:0:0:0:
224,184,63174,1,8,0:0:0:0:
328,180,63582,1,0,0:0:0:0:
200,172,63786,1,0,0:0:0:0:
220,120,63990,1,12,0:0:0:0:
276,124,64296,1,0,0:0:0:0:
260,212,64602,1,8,0:0:0:0:
168,172,64806,1,0,0:0:0:0:
168,172,65010,1,0,0:0:0:0:
168,172,65214,1,8,0:0:0:0:
200,136,65623,1,0,0:0:0:0:
200,120,66031,1,8,0:0:0:0:
200,120,66235,1,0,0:0:0:0:
200,120,66439,1,8,0:0:0:0:
200,120,66643,1,8,0:0:0:0:
200,120,66847,1,8,0:0:0:0:
280,120,66949,1,8,0:0:0:0:
280,120,67051,1,8,0:0:0:0:
220,208,67255,1,4,0:0:0:0:
240,176,67663,1,8,0:0:0:0:
184,220,67867,1,0,0:0:0:0:
112,200,68071,1,8,0:0:0:0:
224,280,68275,1,0,0:0:0:0:
224,280,68377,1,0,0:0:0:0:
224,280,68480,1,0,0:0:0:0:
192,204,68684,1,0,0:0:0:0:
192,204,68888,1,8,0:0:0:0:
64,204,69296,1,8,0:0:0:0:
132,204,69500,1,8,0:0:0:0:
224,204,69704,1,0,0:0:0:0:
236,220,69908,1,8,0:0:0:0:
232,216,70010,1,8,0:0:0:0:
176,184,70112,1,8,0:0:0:0:
176,184,70316,1,0,0:0:0:0:
176,184,70520,1,8,0:0:0:0:
176,184,70929,1,0,0:0:0:0:
176,184,71133,1,0,0:0:0:0:
176,184,71337,1,8,0:0:0:0:
152,188,71643,1,0,0:0:0:0:
312,192,71949,1,8,0:0:0:0:
312,192,72153,1,8,0:0:0:0:
312,192,72459,1,8,0:0:0:0:
312,192,72765,1,0,0:0:0:0:
316,136,73174,1,0,0:0:0:0:
316,136,73378,1,8,0:0:0:0:
204,128,73582,1,0,0:0:0:0:
316,136,73786,1,0,0:0:0:0:
300,148,74194,1,8,0:0:0:0:
300,148,74398,1,0,0:0:0:0:
300,148,74602,1,0,0:0:0:0:
300,148,74806,1,0,0:0:0:0:
300,148,75010,1,8,0:0:0:0:
284,192,75419,1,0,0:0:0:0:
284,192,75623,1,0,0:0:0:0:
284,192,75827,1,8,0:0:0:0:
284,192,76031,1,0,0:0:0:0:
284,192,76235,1,0,0:0:0:0:
284,192,76439,1,8,0:0:0:0:
284,192,76643,1,8,0:0:0:0:
284,192,77051,1,0,0:0:0:0:
300,196,77255,1,0,0:0:0:0:
300,196,77459,1,8,0:0:0:0:
300,196,77663,1,0,0:0:0:0:
300,196,77868,1,0,0:0:0:0:
300,196,78072,1,0,0:0:0:0:
300,196,78276,1,8,0:0:0:0:
208,104,78480,1,0,0:0:0:0:
208,104,78684,1,0,0:0:0:0:
264,172,79092,1,8,0:0:0:0:
268,160,79296,1,0,0:0:0:0:
248,172,79398,1,0,0:0:0:0:
248,172,79500,1,0,0:0:0:0:
224,256,79704,1,0,0:0:0:0:
224,256,79908,1,8,0:0:0:0:
200,172,80112,1,8,0:0:0:0:
232,204,80316,1,0,0:0:0:0:
232,204,80725,1,8,0:0:0:0:
168,136,80929,1,0,0:0:0:0:
228,176,81133,1,8,0:0:0:0:
228,176,81337,1,8,0:0:0:0:
228,176,81541,1,0,0:0:0:0:
228,176,81745,1,8,0:0:0:0:
228,176,81949,1,0,0:0:0:0:
156,80,82765,1,8,0:0:0:0:
156,80,83072,1,0,0:0:0:0:
156,80,83378,1,8,0:0:0:0:
188,60,83582,1,4,0:0:0:0:
188,60,83888,1,4,0:0:0:0:
188,60,84194,1,12,0:0:0:0:
188,60,84500,1,4,0:0:0:0:
188,60,84806,1,12,0:0:0:0:
188,60,85214,1,4,0:0:0:0:
256,192,86847,12,8,87663,0:0:0:0:
