osu file format v14

[General]
AudioFilename: audio.mp3
AudioLeadIn: 0
PreviewTime: 54194
Countdown: 1
SampleSet: Normal
StackLeniency: 0.7
Mode: 1
LetterboxInBreaks: 0
WidescreenStoryboard: 1

[Editor]
DistanceSpacing: 0.6
BeatDivisor: 4
GridSize: 4
TimelineZoom: 1.5

[Metadata]
Title:This game(TV-Size)
TitleUnicode:This game(TV-Size)
Artist:Konomi Suzuki
ArtistUnicode:鈴木このみ
Creator:Chromoxx
Version:Kantan
Source:ノーゲーム・ノーライフ
Tags:No Game No Life opening Shiro Sora Ai Kayano Matsuoka Yoshitsugu
BeatmapID:1310281
BeatmapSetID:617670

[Difficulty]
HPDrainRate:8
CircleSize:5
OverallDifficulty:3
ApproachRate:5
SliderMultiplier:1.4
SliderTickRate:1

[Events]
//Background and Video events
0,0,"no game more life.jpg",0,0
//Break Periods
//Storyboard Layer 0 (Background)
//Storyboard Layer 1 (Fail)
//Storyboard Layer 2 (Pass)
//Storyboard Layer 3 (Foreground)
//Storyboard Sound Samples

[TimingPoints]
317,408.163265306122,4,1,0,50,1,0
6847,-100,4,1,0,80,0,0
13378,-100,4,1,0,50,0,0
13888,-100,4,1,0,60,0,0
24704,-100,4,1,0,70,0,0
39398,-100,4,1,0,60,0,0
52459,-100,4,1,0,70,0,0
54194,-100,4,1,0,80,0,1
83582,-100,4,1,0,80,0,0
86847,-100,4,1,0,30,0,0

[HitObjects]
268,235,317,5,0,0:0:0:0:
268,235,929,1,0,0:0:0:0:
266,133,1949,1,8,0:0:0:0:
266,133,2561,1,0,0:0:0:0:
251,258,3582,1,0,0:0:0:0:
251,258,4194,1,0,0:0:0:0:
212,210,5214,1,8,0:0:0:0:
212,210,5827,1,0,0:0:0:0:
212,210,6847,1,12,0:0:0:0:
212,210,7459,1,12,0:0:0:0:
212,210,8480,1,4,0:0:0:0:
212,210,9092,1,12,0:0:0:0:
212,210,10112,1,12,0:0:0:0:
339,152,10725,1,12,0:0:0:0:
339,152,11745,1,4,0:0:0:0:
185,231,12357,1,4,0:0:0:0:
182,214,13990,1,12,0:0:0:0:
182,214,15010,1,0,0:0:0:0:
182,214,15827,1,8,0:0:0:0:
146,201,16235,1,8,0:0:0:0:
182,214,16643,1,0,0:0:0:0:
182,214,17459,1,8,0:0:0:0:
213,131,18276,1,0,0:0:0:0:
223,242,19908,1,0,0:0:0:0:
225,221,20725,1,8,0:0:0:0:
225,221,21541,1,0,0:0:0:0:
225,221,21949,1,0,0:0:0:0:
225,221,22357,1,8,0:0:0:0:
225,221,23174,1,0,0:0:0:0:
225,221,23990,1,8,0:0:0:0:
225,212,24806,1,4,0:0:0:0:
224,211,26439,1,0,0:0:0:0:
206,234,26847,1,0,0:0:0:0:
224,211,27255,1,8,0:0:0:0:
224,211,28072,1,0,0:0:0:0:
224,211,28480,1,8,0:0:0:0:
224,211,28888,1,0,0:0:0:0:
224,211,29704,1,8,0:0:0:0:
240,198,30112,1,0,0:0:0:0:
368,269,30521,1,8,0:0:0:0:
108,194,31337,1,4,0:0:0:0:
233,246,32970,1,0,0:0:0:0:
291,208,33378,1,0,0:0:0:0:
205,237,33786,1,8,0:0:0:0:
291,208,34602,1,0,0:0:0:0:
321,200,35010,1,8,0:0:0:0:
284,197,35419,1,0,0:0:0:0:
284,197,36235,1,8,0:0:0:0:
295,273,36643,1,0,0:0:0:0:
295,273,37051,1,8,0:0:0:0:
208,250,37868,1,4,0:0:0:0:
202,245,39500,1,4,0:0:0:0:
202,245,41133,1,8,0:0:0:0:
202,245,42765,1,0,0:0:0:0:
195,226,43582,1,8,0:0:0:0:
195,226,44398,1,0,0:0:0:0:
194,226,46031,1,4,0:0:0:0:
194,226,47663,1,12,0:0:0:0:
194,226,49296,1,0,0:0:0:0:
194,226,50112,1,8,0:0:0:0:
194,226,50929,1,0,0:0:0:0:
194,226,51337,1,0,0:0:0:0:
194,226,51745,1,8,0:0:0:0:
207,226,52153,1,8,0:0:0:0:
207,226,52561,1,4,0:0:0:0:
172,229,54194,1,4,0:0:0:0:
257,173,55010,1,8,0:0:0:0:
257,173,55419,1,0,0:0:0:0:
257,173,55827,1,8,0:0:0:0:
244,258,56643,1,0,0:0:0:0:
244,258,57051,1,0,0:0:0:0:
244,258,57459,1,8,0:0:0:0:
244,258,58276,1,0,0:0:0:0:
244,258,59092,1,8,0:0:0:0:
229,254,60725,1,0,0:0:0:0:
236,256,61541,1,8,0:0:0:0:
236,256,62357,1,0,0:0:0:0:
236,256,62765,1,0,0:0:0:0:
236,256,63174,1,8,0:0:0:0:
236,256,63990,1,0,0:0:0:0:
214,186,64806,1,8,0:0:0:0:
214,186,65623,1,0,0:0:0:0:
212,185,67255,1,4,0:0:0:0:
212,185,68072,1,8,0:0:0:0:
212,185,68480,1,8,0:0:0:0:
212,185,68888,1,0,0:0:0:0:
212,185,69704,1,8,0:0:0:0:
212,185,70112,1,0,0:0:0:0:
212,185,70521,1,8,0:0:0:0:
212,185,71337,1,0,0:0:0:0:
212,185,72153,1,8,0:0:0:0:
203,269,73786,1,0,0:0:0:0:
203,269,74602,1,8,0:0:0:0:
203,269,75419,1,0,0:0:0:0:
203,269,75827,1,0,0:0:0:0:
203,269,76235,1,8,0:0:0:0:
203,269,77051,1,0,0:0:0:0:
203,269,77868,1,8,0:0:0:0:
203,269,78276,1,8,0:0:0:0:
203,269,78684,1,0,0:0:0:0:
206,264,79500,1,8,0:0:0:0:
206,264,80316,1,0,0:0:0:0:
215,229,80725,1,0,0:0:0:0:
223,268,81133,1,8,0:0:0:0:
215,229,81541,1,8,0:0:0:0:
223,268,81949,1,0,0:0:0:0:
215,229,83582,1,12,0:0:0:0:
215,229,84194,1,12,0:0:0:0:
215,229,85214,1,4,0:0:0:0:
256,192,86847,12,0,87663,0:0:0:0:
