osu file format v14

[General]
AudioFilename: audio.mp3
AudioLeadIn: 0
PreviewTime: 54194
Countdown: 1
SampleSet: Normal
StackLeniency: 0.7
Mode: 1
LetterboxInBreaks: 0
WidescreenStoryboard: 0

[Editor]
DistanceSpacing: 0.6
BeatDivisor: 4
GridSize: 4
TimelineZoom: 1.5

[Metadata]
Title:This game(TV-Size)
TitleUnicode:This game(TV-Size)
Artist:Konomi Suzuki
ArtistUnicode:鈴木このみ
Creator:Chromoxx
Version:Inner Oni
Source:ノーゲーム・ノーライフ
Tags:No Game No Life opening Shiro Sora Ai Kayano Matsuoka Yoshitsugu
BeatmapID:1302300
BeatmapSetID:617670

[Difficulty]
HPDrainRate:6
CircleSize:5
OverallDifficulty:6
ApproachRate:5
SliderMultiplier:1.4
SliderTickRate:1

[Events]
//Background and Video events
0,0,"no game more life.jpg",0,0
//Break Periods
//Storyboard Layer 0 (Background)
//Storyboard Layer 1 (Fail)
//Storyboard Layer 2 (Pass)
//Storyboard Layer 3 (Foreground)
//Storyboard Sound Samples

[TimingPoints]
317,408.163265306122,4,1,0,50,1,0
6847,-100,4,1,0,80,0,0
13378,-100,4,1,0,50,0,0
13888,-100,4,1,0,60,0,0
24704,-100,4,1,0,70,0,0
39398,-100,4,1,0,60,0,0
52459,-100,4,1,0,70,0,0
54194,-100,4,1,0,80,0,1
83582,-100,4,1,0,80,0,0
86847,-100,4,1,0,30,0,0

[HitObjects]
304,180,317,5,8,0:0:0:0:
304,180,623,1,8,0:0:0:0:
208,148,929,1,0,0:0:0:0:
208,148,1337,1,0,0:0:0:0:
248,184,1541,1,0,0:0:0:0:
208,148,1745,1,8,0:0:0:0:
208,148,1949,1,8,0:0:0:0:
248,184,2153,1,0,0:0:0:0:
212,168,2255,1,8,0:0:0:0:
212,168,2561,1,0,0:0:0:0:
216,168,2970,1,0,0:0:0:0:
216,168,3174,1,8,0:0:0:0:
216,168,3378,1,8,0:0:0:0:
216,164,3582,1,0,0:0:0:0:
216,168,3786,1,8,0:0:0:0:
216,168,3888,1,8,0:0:0:0:
304,188,4194,1,0,0:0:0:0:
320,176,4602,1,0,0:0:0:0:
320,176,4806,1,0,0:0:0:0:
320,176,5010,1,8,0:0:0:0:
320,176,5214,1,8,0:0:0:0:
288,164,5419,1,0,0:0:0:0:
288,164,5521,1,8,0:0:0:0:
284,120,5827,1,0,0:0:0:0:
276,164,6235,1,0,0:0:0:0:
276,164,6439,1,8,0:0:0:0:
276,164,6643,1,8,0:0:0:0:
244,88,6847,1,4,0:0:0:0:
320,100,7051,1,8,0:0:0:0:
320,100,7153,1,8,0:0:0:0:
304,152,7255,1,8,0:0:0:0:
304,152,7459,1,0,0:0:0:0:
320,136,7663,1,8,0:0:0:0:
288,128,7868,1,0,0:0:0:0:
184,168,7970,1,0,0:0:0:0:
252,220,8072,1,8,0:0:0:0:
212,248,8174,1,8,0:0:0:0:
156,224,8276,1,0,0:0:0:0:
252,236,8480,1,8,0:0:0:0:
252,236,8684,1,0,0:0:0:0:
252,236,8786,1,0,0:0:0:0:
240,224,8888,1,0,0:0:0:0:
312,88,9092,1,8,0:0:0:0:
312,88,9296,1,0,0:0:0:0:
312,88,9500,1,8,0:0:0:0:
204,88,9602,1,8,0:0:0:0:
204,88,9704,1,0,0:0:0:0:
204,88,9806,1,0,0:0:0:0:
204,88,9908,1,8,0:0:0:0:
304,220,10112,1,0,0:0:0:0:
296,192,10316,1,8,0:0:0:0:
264,188,10419,1,8,0:0:0:0:
264,188,10521,1,8,0:0:0:0:
296,192,10725,1,0,0:0:0:0:
320,56,10929,1,8,0:0:0:0:
320,56,11133,1,0,0:0:0:0:
320,56,11235,1,0,0:0:0:0:
320,56,11337,1,8,0:0:0:0:
320,56,11439,1,8,0:0:0:0:
320,56,11541,1,0,0:0:0:0:
328,264,11745,1,8,0:0:0:0:
276,240,11949,1,0,0:0:0:0:
216,272,12051,1,8,0:0:0:0:
216,248,12255,1,0,0:0:0:0:
252,172,12357,1,8,0:0:0:0:
240,184,12561,1,0,0:0:0:0:
248,184,12765,1,8,0:0:0:0:
248,184,12868,1,8,0:0:0:0:
192,248,12970,1,0,0:0:0:0:
184,244,13072,1,0,0:0:0:0:
244,184,13174,1,8,0:0:0:0:
248,184,13582,1,0,0:0:0:0:
248,184,13684,1,0,0:0:0:0:
248,184,13990,1,12,0:0:0:0:
340,112,14398,1,0,0:0:0:0:
340,112,14602,1,8,0:0:0:0:
340,112,14806,1,0,0:0:0:0:
272,116,14908,1,8,0:0:0:0:
272,120,15010,1,0,0:0:0:0:
328,96,15214,1,0,0:0:0:0:
328,96,15316,1,0,0:0:0:0:
284,92,15419,1,8,0:0:0:0:
284,92,15623,1,0,0:0:0:0:
280,164,15725,1,0,0:0:0:0:
280,164,15827,1,0,0:0:0:0:
280,164,15929,1,0,0:0:0:0:
264,164,16031,1,8,0:0:0:0:
264,164,16235,1,0,0:0:0:0:
264,168,16439,1,8,0:0:0:0:
264,168,16541,1,8,0:0:0:0:
264,164,16643,1,0,0:0:0:0:
264,164,16847,1,0,0:0:0:0:
252,160,16949,1,8,0:0:0:0:
256,160,17153,1,0,0:0:0:0:
252,160,17255,1,0,0:0:0:0:
244,152,17459,1,8,0:0:0:0:
244,152,17663,1,0,0:0:0:0:
244,152,17765,1,0,0:0:0:0:
212,132,17868,1,8,0:0:0:0:
192,124,17970,1,8,0:0:0:0:
212,116,18072,1,0,0:0:0:0:
212,116,18276,1,8,0:0:0:0:
224,168,18378,1,0,0:0:0:0:
224,168,18480,1,0,0:0:0:0:
220,164,18582,1,8,0:0:0:0:
220,164,18786,1,0,0:0:0:0:
224,160,18888,1,8,0:0:0:0:
220,156,19092,1,0,0:0:0:0:
220,144,19194,1,8,0:0:0:0:
220,144,19296,1,8,0:0:0:0:
216,140,19398,1,0,0:0:0:0:
184,160,19500,1,0,0:0:0:0:
184,160,19602,1,8,0:0:0:0:
184,152,19704,1,0,0:0:0:0:
224,136,19908,1,12,0:0:0:0:
352,160,20214,1,0,0:0:0:0:
256,152,20316,1,8,0:0:0:0:
288,136,20521,1,0,0:0:0:0:
248,124,20623,1,0,0:0:0:0:
288,136,20725,1,0,0:0:0:0:
200,120,20929,1,0,0:0:0:0:
200,120,21133,1,8,0:0:0:0:
144,212,21337,1,0,0:0:0:0:
128,224,21439,1,8,0:0:0:0:
92,224,21541,1,0,0:0:0:0:
116,220,21949,1,8,0:0:0:0:
336,200,22153,1,0,0:0:0:0:
336,200,22255,1,0,0:0:0:0:
304,192,22357,1,8,0:0:0:0:
304,192,22561,1,0,0:0:0:0:
304,192,22663,1,8,0:0:0:0:
304,192,22765,1,0,0:0:0:0:
216,180,22868,1,0,0:0:0:0:
216,180,22970,1,8,0:0:0:0:
216,180,23174,1,0,0:0:0:0:
220,180,23378,1,8,0:0:0:0:
220,180,23480,1,8,0:0:0:0:
208,184,23582,1,8,0:0:0:0:
208,184,23786,1,0,0:0:0:0:
208,184,23888,1,0,0:0:0:0:
208,184,23990,1,8,0:0:0:0:
208,180,24092,1,8,0:0:0:0:
200,208,24194,1,0,0:0:0:0:
200,208,24398,1,8,0:0:0:0:
200,208,24602,1,8,0:0:0:0:
204,208,24806,1,4,0:0:0:0:
200,208,25112,1,4,0:0:0:0:
200,208,25419,1,12,0:0:0:0:
260,208,25725,1,4,0:0:0:0:
200,208,26031,1,12,0:0:0:0:
268,144,26439,1,0,0:0:0:0:
268,144,26643,1,8,0:0:0:0:
288,144,26847,1,0,0:0:0:0:
288,144,26949,1,0,0:0:0:0:
260,136,27051,1,8,0:0:0:0:
252,144,27153,1,0,0:0:0:0:
260,136,27357,1,8,0:0:0:0:
288,184,27561,1,0,0:0:0:0:
256,96,27663,1,8,0:0:0:0:
256,96,27765,1,8,0:0:0:0:
256,96,27868,1,0,0:0:0:0:
288,120,28072,1,8,0:0:0:0:
288,120,28276,1,0,0:0:0:0:
296,128,28480,1,8,0:0:0:0:
232,120,28582,1,8,0:0:0:0:
200,112,28684,1,0,0:0:0:0:
200,112,28786,1,8,0:0:0:0:
200,112,28990,1,0,0:0:0:0:
256,176,29194,1,8,0:0:0:0:
264,212,29296,1,0,0:0:0:0:
236,196,29398,1,0,0:0:0:0:
224,184,29500,1,8,0:0:0:0:
188,156,29704,1,0,0:0:0:0:
188,156,29908,1,8,0:0:0:0:
188,156,30112,1,0,0:0:0:0:
180,208,30214,1,0,0:0:0:0:
164,152,30316,1,8,0:0:0:0:
152,172,30419,1,0,0:0:0:0:
152,168,30623,1,8,0:0:0:0:
232,112,30827,1,0,0:0:0:0:
232,112,30929,1,8,0:0:0:0:
224,224,31031,1,8,0:0:0:0:
232,112,31133,1,0,0:0:0:0:
204,240,31337,1,8,0:0:0:0:
280,232,31439,1,0,0:0:0:0:
280,232,31541,1,0,0:0:0:0:
224,196,31643,1,8,0:0:0:0:
300,260,31745,1,0,0:0:0:0:
300,260,31847,1,0,0:0:0:0:
284,248,31949,1,8,0:0:0:0:
284,248,32153,1,0,0:0:0:0:
264,216,32255,1,8,0:0:0:0:
264,208,32357,1,8,0:0:0:0:
240,196,32459,1,0,0:0:0:0:
228,192,32561,1,8,0:0:0:0:
220,188,32663,1,0,0:0:0:0:
228,192,32765,1,8,0:0:0:0:
316,156,32970,1,0,0:0:0:0:
320,172,33174,1,8,0:0:0:0:
320,172,33378,1,0,0:0:0:0:
320,172,33480,1,0,0:0:0:0:
240,136,33582,1,8,0:0:0:0:
240,136,33684,1,0,0:0:0:0:
240,136,33888,1,8,0:0:0:0:
244,196,34092,1,0,0:0:0:0:
208,236,34194,1,8,0:0:0:0:
208,236,34296,1,8,0:0:0:0:
176,208,34398,1,0,0:0:0:0:
176,208,34602,1,8,0:0:0:0:
164,200,34806,1,0,0:0:0:0:
176,208,35010,1,8,0:0:0:0:
192,92,35112,1,8,0:0:0:0:
192,92,35214,1,0,0:0:0:0:
192,92,35316,1,8,0:0:0:0:
192,92,35521,1,0,0:0:0:0:
192,92,35725,1,8,0:0:0:0:
192,92,35827,1,0,0:0:0:0:
192,92,35929,1,0,0:0:0:0:
192,92,36031,1,8,0:0:0:0:
260,112,36235,1,0,0:0:0:0:
260,112,36439,1,8,0:0:0:0:
260,112,36643,1,0,0:0:0:0:
232,100,36745,1,0,0:0:0:0:
180,104,36847,1,8,0:0:0:0:
176,104,36949,1,0,0:0:0:0:
180,104,37153,1,8,0:0:0:0:
188,112,37357,1,0,0:0:0:0:
180,104,37459,1,8,0:0:0:0:
180,104,37561,1,8,0:0:0:0:
128,96,37663,1,0,0:0:0:0:
232,196,37868,1,12,0:0:0:0:
288,192,38174,1,0,0:0:0:0:
288,192,38480,1,0,0:0:0:0:
168,128,38684,1,8,0:0:0:0:
180,132,38888,1,8,0:0:0:0:
176,168,39092,1,0,0:0:0:0:
340,144,39296,1,0,0:0:0:0:
324,116,39500,1,12,0:0:0:0:
308,128,40112,1,0,0:0:0:0:
308,128,40214,1,0,0:0:0:0:
256,160,40316,1,8,0:0:0:0:
256,160,40521,1,0,0:0:0:0:
256,160,40725,1,8,0:0:0:0:
256,160,40929,1,8,0:0:0:0:
256,160,41133,1,0,0:0:0:0:
232,140,41541,1,8,0:0:0:0:
264,136,41745,1,0,0:0:0:0:
264,136,41847,1,0,0:0:0:0:
176,236,41949,1,0,0:0:0:0:
244,128,42357,1,8,0:0:0:0:
244,128,42561,1,8,0:0:0:0:
368,144,42765,1,4,0:0:0:0:
324,120,43174,1,8,0:0:0:0:
324,120,43378,1,0,0:0:0:0:
324,120,43480,1,0,0:0:0:0:
272,220,43582,1,8,0:0:0:0:
316,116,43990,1,8,0:0:0:0:
264,96,44194,1,0,0:0:0:0:
268,308,44296,1,0,0:0:0:0:
192,116,44398,1,8,0:0:0:0:
192,116,44500,1,8,0:0:0:0:
192,116,44602,1,0,0:0:0:0:
192,116,44704,1,8,0:0:0:0:
192,116,44806,1,8,0:0:0:0:
192,116,44908,1,0,0:0:0:0:
192,116,45010,1,0,0:0:0:0:
192,116,45112,1,8,0:0:0:0:
192,116,45214,1,0,0:0:0:0:
328,164,45419,1,0,0:0:0:0:
240,132,45521,1,8,0:0:0:0:
244,152,45725,1,0,0:0:0:0:
244,152,45827,1,0,0:0:0:0:
340,168,46031,1,12,0:0:0:0:
340,168,46337,1,12,0:0:0:0:
340,168,46643,1,12,0:0:0:0:
304,188,47663,1,4,0:0:0:0:
304,188,47970,1,4,0:0:0:0:
304,188,48276,1,4,0:0:0:0:
264,144,48480,1,8,0:0:0:0:
324,136,48684,1,0,0:0:0:0:
176,116,48786,1,8,0:0:0:0:
148,128,48888,1,0,0:0:0:0:
148,128,49092,1,0,0:0:0:0:
148,128,49194,1,0,0:0:0:0:
168,132,49296,1,8,0:0:0:0:
152,120,49500,1,0,0:0:0:0:
208,156,49602,1,8,0:0:0:0:
304,148,49806,1,0,0:0:0:0:
244,136,49908,1,8,0:0:0:0:
328,164,50112,1,0,0:0:0:0:
328,164,50316,1,8,0:0:0:0:
328,164,50419,1,8,0:0:0:0:
316,156,50521,1,0,0:0:0:0:
316,156,50623,1,0,0:0:0:0:
256,152,50725,1,8,0:0:0:0:
300,140,50929,1,0,0:0:0:0:
408,164,51133,1,8,0:0:0:0:
408,164,51235,1,0,0:0:0:0:
316,144,51439,1,0,0:0:0:0:
316,144,51541,1,8,0:0:0:0:
308,160,51745,1,0,0:0:0:0:
272,140,51847,1,8,0:0:0:0:
272,140,51949,1,8,0:0:0:0:
184,120,52051,1,0,0:0:0:0:
272,120,52255,1,0,0:0:0:0:
272,108,52357,1,8,0:0:0:0:
264,88,52561,1,4,0:0:0:0:
272,88,52868,1,4,0:0:0:0:
268,88,53174,1,4,0:0:0:0:
384,252,53582,1,0,0:0:0:0:
384,252,53684,1,0,0:0:0:0:
268,156,53786,1,8,0:0:0:0:
272,192,54194,1,4,0:0:0:0:
152,200,54398,1,0,0:0:0:0:
296,192,54500,1,0,0:0:0:0:
344,156,54602,1,8,0:0:0:0:
200,268,54806,1,8,0:0:0:0:
148,308,55010,1,0,0:0:0:0:
352,204,55214,1,0,0:0:0:0:
352,204,55316,1,8,0:0:0:0:
316,224,55521,1,0,0:0:0:0:
316,224,55623,1,8,0:0:0:0:
304,224,55827,1,0,0:0:0:0:
276,208,56031,1,8,0:0:0:0:
276,208,56133,1,8,0:0:0:0:
260,196,56235,1,0,0:0:0:0:
260,196,56337,1,0,0:0:0:0:
260,196,56439,1,8,0:0:0:0:
304,204,56643,1,0,0:0:0:0:
304,204,56847,1,8,0:0:0:0:
304,196,56949,1,0,0:0:0:0:
304,196,57153,1,0,0:0:0:0:
316,220,57255,1,8,0:0:0:0:
316,220,57459,1,0,0:0:0:0:
344,224,57663,1,0,0:0:0:0:
232,304,57765,1,0,0:0:0:0:
192,264,57868,1,8,0:0:0:0:
192,264,58072,1,8,0:0:0:0:
200,188,58276,1,0,0:0:0:0:
304,184,58480,1,8,0:0:0:0:
304,184,58582,1,8,0:0:0:0:
296,164,58684,1,0,0:0:0:0:
296,164,58786,1,0,0:0:0:0:
264,148,58888,1,8,0:0:0:0:
356,156,59092,1,0,0:0:0:0:
356,156,59296,1,8,0:0:0:0:
348,152,59398,1,0,0:0:0:0:
336,260,59602,1,0,0:0:0:0:
308,252,59704,1,8,0:0:0:0:
308,252,59908,1,0,0:0:0:0:
320,232,60112,1,0,0:0:0:0:
252,216,60214,1,0,0:0:0:0:
232,208,60316,1,8,0:0:0:0:
316,232,60521,1,0,0:0:0:0:
200,176,60623,1,8,0:0:0:0:
208,168,60725,1,0,0:0:0:0:
208,168,61133,1,8,0:0:0:0:
208,168,61337,1,0,0:0:0:0:
208,168,61439,1,0,0:0:0:0:
212,168,61541,1,0,0:0:0:0:
212,168,61745,1,0,0:0:0:0:
216,168,61949,1,8,0:0:0:0:
276,168,62153,1,0,0:0:0:0:
276,168,62255,1,0,0:0:0:0:
272,192,62357,1,8,0:0:0:0:
264,200,62561,1,0,0:0:0:0:
192,200,62765,1,8,0:0:0:0:
192,200,62970,1,8,0:0:0:0:
192,200,63072,1,8,0:0:0:0:
192,236,63174,1,0,0:0:0:0:
232,244,63378,1,0,0:0:0:0:
200,264,63480,1,0,0:0:0:0:
192,252,63582,1,8,0:0:0:0:
216,232,63684,1,8,0:0:0:0:
192,252,63786,1,0,0:0:0:0:
176,264,63990,1,12,0:0:0:0:
288,192,64194,1,0,0:0:0:0:
288,184,64296,1,8,0:0:0:0:
288,184,64500,1,0,0:0:0:0:
292,188,64602,1,8,0:0:0:0:
312,180,64806,1,0,0:0:0:0:
288,172,65010,1,8,0:0:0:0:
288,172,65112,1,8,0:0:0:0:
272,192,65214,1,0,0:0:0:0:
272,192,65316,1,0,0:0:0:0:
268,196,65419,1,8,0:0:0:0:
268,196,65623,1,0,0:0:0:0:
272,220,65827,1,0,0:0:0:0:
272,220,65929,1,0,0:0:0:0:
252,228,66031,1,8,0:0:0:0:
252,228,66235,1,0,0:0:0:0:
320,316,66337,1,8,0:0:0:0:
232,216,66439,1,8,0:0:0:0:
312,312,66643,1,0,0:0:0:0:
248,268,66745,1,0,0:0:0:0:
236,260,66847,1,8,0:0:0:0:
312,252,66949,1,0,0:0:0:0:
348,220,67051,1,8,0:0:0:0:
320,172,67255,1,4,0:0:0:0:
272,188,67459,1,0,0:0:0:0:
272,188,67561,1,0,0:0:0:0:
304,164,67663,1,8,0:0:0:0:
172,224,67868,1,8,0:0:0:0:
368,220,68072,1,0,0:0:0:0:
316,228,68276,1,0,0:0:0:0:
316,228,68378,1,8,0:0:0:0:
204,256,68582,1,8,0:0:0:0:
188,236,68684,1,0,0:0:0:0:
172,224,68888,1,8,0:0:0:0:
196,320,69092,1,0,0:0:0:0:
196,320,69194,1,0,0:0:0:0:
172,312,69296,1,8,0:0:0:0:
172,312,69398,1,8,0:0:0:0:
180,280,69500,1,0,0:0:0:0:
180,280,69704,1,8,0:0:0:0:
196,272,69908,1,0,0:0:0:0:
232,252,70010,1,8,0:0:0:0:
232,252,70214,1,0,0:0:0:0:
232,252,70316,1,8,0:0:0:0:
280,188,70521,1,0,0:0:0:0:
288,180,70725,1,0,0:0:0:0:
288,180,70827,1,0,0:0:0:0:
288,180,70929,1,8,0:0:0:0:
264,168,71133,1,8,0:0:0:0:
264,168,71337,1,0,0:0:0:0:
332,172,71541,1,0,0:0:0:0:
268,140,71643,1,8,0:0:0:0:
268,140,71847,1,8,0:0:0:0:
268,140,71949,1,0,0:0:0:0:
268,140,72153,1,8,0:0:0:0:
324,144,72357,1,0,0:0:0:0:
324,144,72459,1,0,0:0:0:0:
324,144,72663,1,0,0:0:0:0:
324,144,72765,1,8,0:0:0:0:
380,168,72970,1,0,0:0:0:0:
380,168,73072,1,0,0:0:0:0:
368,164,73174,1,0,0:0:0:0:
392,104,73276,1,0,0:0:0:0:
352,92,73378,1,8,0:0:0:0:
320,120,73582,1,0,0:0:0:0:
236,180,73684,1,8,0:0:0:0:
284,140,73786,1,0,0:0:0:0:
308,152,74194,1,8,0:0:0:0:
308,152,74398,1,0,0:0:0:0:
308,152,74500,1,0,0:0:0:0:
304,152,74602,1,0,0:0:0:0:
228,288,74806,1,0,0:0:0:0:
308,152,75010,1,8,0:0:0:0:
224,236,75214,1,8,0:0:0:0:
224,236,75419,1,0,0:0:0:0:
248,196,75725,1,0,0:0:0:0:
248,196,75827,1,8,0:0:0:0:
316,212,76031,1,8,0:0:0:0:
316,212,76235,1,0,0:0:0:0:
336,180,76439,1,0,0:0:0:0:
336,180,76541,1,0,0:0:0:0:
276,196,76643,1,8,0:0:0:0:
276,196,76847,1,8,0:0:0:0:
276,196,77051,1,0,0:0:0:0:
232,272,77255,1,0,0:0:0:0:
232,272,77459,1,8,0:0:0:0:
224,228,77663,1,0,0:0:0:0:
224,228,77765,1,0,0:0:0:0:
224,228,77868,1,0,0:0:0:0:
224,228,78072,1,0,0:0:0:0:
224,228,78276,1,8,0:0:0:0:
224,228,78480,1,8,0:0:0:0:
224,228,78582,1,8,0:0:0:0:
224,228,78684,1,0,0:0:0:0:
232,252,78990,1,0,0:0:0:0:
220,240,79092,1,8,0:0:0:0:
292,200,79296,1,0,0:0:0:0:
292,200,79398,1,0,0:0:0:0:
292,200,79500,1,8,0:0:0:0:
288,192,79704,1,8,0:0:0:0:
288,192,79806,1,8,0:0:0:0:
288,192,79908,1,0,0:0:0:0:
288,192,80010,1,0,0:0:0:0:
292,192,80112,1,8,0:0:0:0:
264,176,80214,1,8,0:0:0:0:
280,188,80316,1,0,0:0:0:0:
264,148,80725,1,8,0:0:0:0:
264,148,80929,1,0,0:0:0:0:
264,148,81031,1,0,0:0:0:0:
264,148,81133,1,8,0:0:0:0:
264,148,81337,1,0,0:0:0:0:
264,148,81541,1,8,0:0:0:0:
264,148,81745,1,8,0:0:0:0:
264,148,81847,1,8,0:0:0:0:
264,148,81949,1,0,0:0:0:0:
288,164,82255,1,0,0:0:0:0:
176,244,82357,1,8,0:0:0:0:
288,164,82459,1,8,0:0:0:0:
280,160,82663,1,0,0:0:0:0:
256,260,82765,1,8,0:0:0:0:
280,160,82868,1,8,0:0:0:0:
280,160,83072,1,0,0:0:0:0:
280,160,83276,1,0,0:0:0:0:
288,164,83378,1,8,0:0:0:0:
276,164,83582,1,4,0:0:0:0:
276,164,83888,1,4,0:0:0:0:
276,164,84194,1,12,0:0:0:0:
276,164,84500,1,4,0:0:0:0:
276,164,84806,1,12,0:0:0:0:
276,164,85214,1,4,0:0:0:0:
256,192,86847,12,0,87663,0:0:0:0:
