osu file format v14

[General]
AudioFilename: audio.mp3
AudioLeadIn: 0
PreviewTime: 63131
Countdown: 0
SampleSet: Soft
StackLeniency: 0.7
Mode: 0
LetterboxInBreaks: 0
WidescreenStoryboard: 0

[Editor]
Bookmarks: 92320
DistanceSpacing: 1.8
BeatDivisor: 4
GridSize: 8
TimelineZoom: 2.4

[Metadata]
Title:One Day Sky
TitleUnicode:One Day Sky
Artist:Konomi Suzuki
ArtistUnicode:Konomi Suzuki
Creator:Deception2011
Version:Insane
Source:
Tags:No Game No Life Zero Movie
BeatmapID:1253835
BeatmapSetID:592598

[Difficulty]
HPDrainRate:6
CircleSize:4
OverallDifficulty:7
ApproachRate:9
SliderMultiplier:1.6
SliderTickRate:1

[Events]
//Background and Video events
0,0,"No Game No Life Zero (Waifu2x).png",0,0
//Break Periods
2,100304,109882
//Storyboard Layer 0 (Background)
//Storyboard Layer 1 (Fail)
//Storyboard Layer 2 (Pass)
//Storyboard Layer 3 (Foreground)
//Storyboard Sound Samples

[TimingPoints]
8969,324.324324324324,4,2,1,80,1,0
19996,-125,4,2,1,80,0,0
28104,-100,4,2,1,80,0,0
28428,-100,4,2,1,100,0,0
30050,-142.857142857143,4,2,1,80,0,0
33293,-142.857142857143,4,2,1,100,0,0
35401,-100,4,2,1,80,0,0
40752,-125,4,2,1,80,0,0
45293,-100,4,2,1,80,0,0
45617,-125,4,2,1,80,0,0
50482,-100,4,2,1,80,0,0
50806,-125,4,2,1,80,0,0
52752,-100,4,2,1,80,0,0
53077,-125,4,2,1,80,0,0
63455,-100,4,2,1,80,0,0
63779,-83.3333333333333,4,2,1,80,0,1
72536,-83.3333333333333,4,2,1,100,0,1
74158,-83.3333333333333,4,2,1,80,0,1
84374,-83.3333333333333,4,2,1,80,0,0
89725,-100,4,2,1,80,0,0
110482,-125,4,2,1,80,0,0
115671,-100,4,2,1,80,0,0
120860,-125,4,2,1,80,0,0
125725,-100,4,2,1,80,0,0
126050,-125,4,2,1,80,0,0
130914,-100,4,2,1,80,0,0
131239,-125,4,2,1,80,0,0
140320,-100,4,2,1,80,0,0
143887,-83.3333333333333,4,2,1,80,0,0
144212,-83.3333333333333,4,2,1,80,0,1
164401,-83.3333333333333,4,2,1,80,0,0
164968,-100,4,2,1,80,0,1
170158,-100,4,2,1,100,0,1
171779,-125,4,2,1,100,0,1
172752,-83.3333333333333,4,2,1,100,0,0
179563,-125,4,2,1,100,0,0
181833,-83.3333333333333,4,2,1,100,0,0
183293,-83.3333333333333,4,2,1,100,0,1
190914,-83.3333333333333,4,2,1,80,0,0
193104,-125,4,2,1,80,0,0
199833,-100,4,2,1,80,0,0
206158,-83.3333333333333,4,2,1,80,0,0
206482,-100,4,2,1,80,0,0
211023,-83.3333333333333,4,2,1,80,0,0
211347,-100,4,2,1,80,0,0
216860,-125,4,2,1,80,0,0
229833,-83.3333333333333,4,2,1,80,0,1
245077,-83.3333333333333,4,2,1,80,0,0
245401,-71.4285714285714,4,2,1,80,0,1
251887,-83.3333333333333,4,2,1,80,0,1
265671,-83.3333333333333,4,2,1,80,0,0
270050,-166.666666666667,4,2,1,80,0,0

[HitObjects]
160,112,8969,5,0,0:0:0:0:
160,112,9293,2,0,P|240:88|336:112,1,160,0|8,0:0|0:0,0:0:0:0:
424,160,9779,1,0,0:0:0:0:
344,264,9941,2,0,L|352:144,1,120
384,96,10266,1,8,0:0:0:0:
456,232,10428,5,0,0:0:0:0:
288,168,10590,1,0,0:0:0:0:
392,312,10752,1,0,0:0:0:0:
408,336,10833,1,0,0:0:0:0:
424,360,10914,2,0,P|376:352|264:360,1,160,8|0,0:0|0:0,0:0:0:0:
152,352,11401,2,0,L|176:320,1,40
192,224,11563,2,0,L|344:240,1,120,8|0,0:0|0:0,0:0:0:0:
360,272,11887,5,0,0:0:0:0:
432,128,12050,1,0,0:0:0:0:
304,152,12212,2,0,L|160:160,1,120,8|0,0:0|0:0,0:0:0:0:
136,192,12536,1,0,0:0:0:0:
248,304,12698,1,0,0:0:0:0:
96,256,12860,1,8,0:0:0:0:
240,176,13023,2,0,L|328:168,1,80
440,200,13347,5,0,0:0:0:0:
464,224,13428,1,0,0:0:0:0:
488,248,13509,2,0,P|416:272|328:272,1,160,8|0,0:0|0:0,0:0:0:0:
200,224,13996,2,0,L|240:184,1,40
256,104,14158,2,0,L|408:112,1,120,8|0,0:0|0:0,0:0:0:0:
432,152,14482,5,0,0:0:0:0:
280,232,14644,1,0,0:0:0:0:
168,112,14806,2,0,L|160:232,1,120,8|0,0:0|0:0,0:0:0:0:
120,296,15131,1,0,0:0:0:0:
272,344,15293,1,0,0:0:0:0:
232,184,15455,1,8,0:0:0:0:
336,256,15617,2,0,P|352:208|352:160,1,80
296,80,15941,5,0,0:0:0:0:
280,56,16023,1,0,0:0:0:0:
264,32,16104,2,0,P|328:24|424:40,1,160,8|0,0:0|0:0,0:0:0:0:
480,128,16590,2,0,L|448:160,1,40
408,240,16752,2,0,L|256:232,1,120,8|0,0:0|0:0,0:0:0:0:
232,272,17077,1,0,0:0:0:0:
80,344,17239,1,0,0:0:0:0:
64,184,17401,6,0,L|80:24,1,160,8|0,0:0|0:0,0:0:0:0:
232,80,17887,1,0,0:0:0:0:
144,168,18050,2,0,P|176:192|224:200,1,80,8|0,0:0|0:0,0:0:0:0:
376,184,18374,1,8,0:0:0:0:
304,40,18536,1,0,0:0:0:0:
456,96,18698,2,0,L|456:184,1,80,8|0,0:0|0:0,0:0:0:0:
400,280,19023,6,0,L|416:312,2,26.6666666666667,2|0|0,0:0|0:0|0:0,0:0:0:0:
312,336,19185,2,0,L|256:320,1,40,2|0,0:0|0:0,0:0:0:0:
208,232,19347,2,0,L|176:264,1,40
80,304,19509,2,0,L|120:320,1,40,2|0,0:0|0:0,0:0:0:0:
280,256,19671,2,0,P|304:224|312:96,1,160,10|0,0:0|0:0,0:0:0:0:
184,152,20158,1,0,0:0:0:0:
272,40,20320,6,0,L|352:32,1,64,2|0,0:0|0:0,0:0:0:0:
456,104,20644,1,0,0:0:0:0:
376,224,20806,1,0,0:0:0:0:
384,80,20968,2,0,L|376:144,1,64,10|0,0:0|0:0,0:0:0:0:
440,272,21293,1,0,0:0:0:0:
288,192,21455,1,0,0:0:0:0:
352,344,21617,2,0,L|312:304,1,32,2|0,0:0|0:0,0:0:0:0:
232,312,21779,2,0,L|192:280,1,32
96,280,21941,5,0,0:0:0:0:
104,280,22266,6,0,P|80:224|104:144,1,128,10|0,0:0|0:0,0:0:0:0:
216,216,22752,1,0,0:0:0:0:
168,88,22914,2,0,L|96:80,2,64,2|0|0,0:0|0:0|0:0,0:0:0:0:
304,128,23401,1,0,0:0:0:0:
216,216,23563,2,0,L|304:224,1,64,10|0,0:0|0:0,0:0:0:0:
424,208,23887,6,0,P|400:248|344:280,1,96
304,312,24212,2,0,L|432:320,1,128,2|0,0:0|0:0,0:0:0:0:
456,328,24617,1,0,0:0:0:0:
456,328,24698,1,2,0:0:0:0:
360,208,24860,2,0,L|336:144,1,64,10|0,0:0|0:0,0:0:0:0:
304,96,25185,2,0,L|304:232,1,128,0|2,0:0|0:0,0:0:0:0:
272,312,25671,5,0,0:0:0:0:
200,192,25833,1,0,0:0:0:0:
184,168,25914,1,0,0:0:0:0:
168,144,25996,1,0,0:0:0:0:
72,240,26158,2,0,P|104:272|136:280,2,64,10|0|10,0:0|0:0|0:0,0:0:0:0:
56,104,26644,1,0,0:0:0:0:
56,104,26806,6,0,L|144:96,1,64,2|0,0:0|0:0,0:0:0:0:
152,64,27131,2,0,L|296:64,1,128,0|10,0:0|0:0,0:0:0:0:
416,104,27617,1,0,0:0:0:0:
336,224,27779,1,0,0:0:0:0:
336,224,27860,1,0,0:0:0:0:
336,224,27941,1,0,0:0:0:0:
336,88,28104,6,0,L|360:8,2,80,2|0|0,0:0|0:0|0:0,0:0:0:0:
248,200,28590,1,0,0:0:0:0:
248,200,28671,1,0,0:0:0:0:
456,176,28914,1,0,0:0:0:0:
296,312,29239,1,0,0:0:0:0:
296,152,29401,2,0,L|328:184,1,40
392,248,29563,5,0,0:0:0:0:
368,256,29644,1,0,0:0:0:0:
336,264,29725,1,0,0:0:0:0:
224,288,29887,1,0,0:0:0:0:
96,232,30050,2,0,P|128:256|184:216,1,111.999996582031,8|0,0:0|0:0,0:0:0:0:
208,104,30536,2,0,B|152:80|152:80|128:88|128:88|120:72|120:72|104:80|104:80|96:64|96:64|80:72|80:72|72:56,1,167.999994873047,2|4,0:0|0:0,0:0:0:0:
136,168,31185,5,0,0:0:0:0:
288,72,31347,2,0,P|336:64|352:128,1,111.999996582031,8|0,0:0|0:0,0:0:0:0:
336,232,31833,2,0,B|352:256|352:256|336:272|336:272|352:288|352:288|336:304|336:304|352:312|352:312|352:368,1,167.999994873047,2|4,0:0|0:0,0:0:0:0:
248,304,32482,1,0,0:0:0:0:
288,192,32644,1,8,0:0:0:0:
168,216,32806,1,0,0:0:0:0:
256,88,32968,6,0,L|328:96,1,55.9999982910157,2|0,0:0|0:0,0:0:0:0:
424,144,33455,1,0,0:0:0:0:
360,216,33617,2,0,L|352:152,1,55.9999982910157
440,56,34104,5,0,0:0:0:0:
432,56,34266,2,0,P|384:56|352:56,1,55.9999982910157,2|0,0:0|0:0,0:0:0:0:
256,160,34590,5,2,0:0:0:0:
88,168,34752,1,0,0:0:0:0:
80,200,34833,1,0,0:0:0:0:
80,240,34914,1,0,0:0:0:0:
96,272,34996,1,0,0:0:0:0:
120,296,35077,1,0,0:0:0:0:
152,312,35158,1,0,0:0:0:0:
184,320,35239,1,0,0:0:0:0:
240,224,35401,5,0,0:0:0:0:
296,312,35563,2,0,P|328:272|344:224,1,80,8|0,0:0|0:0,0:0:0:0:
376,184,35887,2,0,L|384:344,1,160,0|8,0:0|0:0,0:0:0:0:
480,256,36374,1,0,0:0:0:0:
432,144,36536,2,0,P|400:120|328:128,1,80
240,160,36860,5,8,0:0:0:0:
304,64,37023,1,0,0:0:0:0:
168,104,37185,1,0,0:0:0:0:
168,104,37266,1,0,0:0:0:0:
168,104,37347,1,0,0:0:0:0:
120,240,37509,6,0,P|128:272|208:256,1,120,8|0,0:0|0:0,0:0:0:0:
200,240,37833,2,0,L|360:248,1,160,0|10,0:0|0:0,0:0:0:0:
448,288,38320,1,0,0:0:0:0:
360,176,38482,1,0,0:0:0:0:
296,312,38644,1,0,0:0:0:0:
424,224,38806,6,0,P|448:184|416:112,1,120,10|0,0:0|0:0,0:0:0:0:
432,96,39131,2,0,L|272:88,1,160,0|10,0:0|0:0,0:0:0:0:
176,128,39617,1,0,0:0:0:0:
256,24,39779,1,0,0:0:0:0:
136,56,39941,5,0,0:0:0:0:
112,80,40023,1,0,0:0:0:0:
96,112,40104,1,2,0:0:0:0:
88,144,40185,1,0,0:0:0:0:
96,184,40266,1,0,0:0:0:0:
112,216,40347,1,0,0:0:0:0:
136,240,40428,2,0,P|184:272|208:280,1,80,6|0,0:0|0:0,0:0:0:0:
328,256,40752,6,0,L|320:120,1,128
184,144,41401,1,0,0:0:0:0:
240,40,41563,1,0,0:0:0:0:
240,40,41725,2,0,L|320:48,1,64
376,104,42050,2,0,L|448:112,1,64
464,120,42293,1,0,0:0:0:0:
464,120,42374,1,0,0:0:0:0:
360,192,42536,5,0,0:0:0:0:
360,192,42698,2,0,P|328:224|280:208,1,96
280,184,43023,2,0,L|152:192,1,128,6|0,0:0|0:0,0:0:0:0:
72,256,43509,1,0,0:0:0:0:
176,288,43671,1,0,0:0:0:0:
112,352,43833,1,0,0:0:0:0:
272,280,43996,2,0,P|344:256|416:288,1,128
472,336,44482,5,0,0:0:0:0:
368,200,44644,1,0,0:0:0:0:
464,232,44806,1,0,0:0:0:0:
464,232,44887,1,0,0:0:0:0:
464,232,44968,1,0,0:0:0:0:
288,128,45131,1,0,0:0:0:0:
448,128,45293,2,0,P|480:104|432:64,1,120
400,80,45617,6,0,P|336:56|272:48,1,128,2|0,0:0|0:0,0:0:0:0:
160,48,46266,1,0,0:0:0:0:
160,48,46590,2,0,P|192:96|200:120,1,64
232,200,46914,1,0,0:0:0:0:
232,200,47401,5,0,0:0:0:0:
232,200,47482,1,0,0:0:0:0:
232,200,47563,2,0,P|272:192|312:144,1,96
296,120,47887,2,0,L|416:128,1,96,2|0,0:0|0:0,0:0:0:0:
456,176,48212,1,0,0:0:0:0:
328,208,48374,5,0,0:0:0:0:
432,280,48536,2,0,L|440:344,2,64
312,312,49023,1,0,0:0:0:0:
400,216,49185,1,0,0:0:0:0:
232,248,49347,1,0,0:0:0:0:
320,160,49509,2,0,P|272:128|200:128,1,128
96,176,49996,5,0,0:0:0:0:
96,176,50077,1,0,0:0:0:0:
96,176,50158,1,0,0:0:0:0:
184,56,50320,1,0,0:0:0:0:
56,96,50482,2,0,L|136:104,1,80,6|0,0:0|0:0,0:0:0:0:
264,56,50806,6,0,P|328:72|432:160,1,192,2|0,0:0|0:0,0:0:0:0:
464,224,51455,1,0,0:0:0:0:
352,184,51617,1,0,0:0:0:0:
248,256,51779,2,0,L|328:256,1,64
424,304,52104,1,0,0:0:0:0:
424,304,52266,1,0,0:0:0:0:
304,336,52428,6,0,P|264:344|216:336,1,64
208,336,52671,1,0,0:0:0:0:
176,328,52752,2,0,L|168:216,1,80,2|0,0:0|0:0,0:0:0:0:
120,136,53077,6,0,P|160:120|192:128,2,64
48,216,53563,1,0,0:0:0:0:
207,183,53725,2,0,L|335:175,1,128
440,128,54212,1,0,0:0:0:0:
346,50,54374,2,0,P|330:114|338:186,1,128
376,288,54860,5,0,0:0:0:0:
240,248,55023,1,0,0:0:0:0:
304,344,55185,1,0,0:0:0:0:
304,344,55266,1,0,0:0:0:0:
304,344,55347,1,2,0:0:0:0:
392,216,55509,1,0,0:0:0:0:
272,80,55996,6,0,B|248:16|248:16|248:216,1,256
248,344,56968,1,0,0:0:0:0:
144,256,57131,2,0,B|168:216|224:320|328:248,1,192
256,184,57779,1,0,0:0:0:0:
256,184,57860,1,0,0:0:0:0:
256,184,57941,2,0,L|320:160,1,64
424,168,58266,2,0,L|488:136,2,64
344,64,58752,5,0,0:0:0:0:
264,112,58914,2,0,L|192:128,1,64
144,88,59239,2,0,L|88:144,1,64
32,144,59563,2,0,L|32:216,1,64
48,296,59887,6,0,B|120:328|168:264|168:264|232:264,1,192
240,264,60455,1,0,0:0:0:0:
240,264,60536,1,0,0:0:0:0:
368,240,60698,1,0,0:0:0:0:
264,168,60860,2,0,L|328:168,1,64
448,112,61185,5,8,0:0:0:0:
328,64,61347,2,0,L|264:64,1,64
144,112,61671,1,8,0:0:0:0:
72,216,61833,2,0,L|72:280,1,64
184,328,62158,2,0,L|208:320,3,21.3333333333333,10|0|0|2,0:0|0:0|0:0|0:0,0:0:0:0:
288,296,62482,5,0,0:0:0:0:
424,216,62644,2,0,L|440:176,1,32
416,88,62887,2,0,L|384:104,1,32
384,128,63050,2,0,L|344:152,1,32
256,272,63455,6,0,L|256:304,6,26.6666666666667,2|0|0|0|0|0|6,0:0|0:0|0:0|0:0|0:0|0:0|0:0,0:0:0:0:
256,360,63941,1,0,0:0:0:0:
56,232,64104,2,0,L|128:160,1,95.9999970703126,8|0,0:0|0:0,0:0:0:0:
80,88,64428,2,0,L|208:88,1,95.9999970703126
344,120,64752,2,0,P|376:168|376:224,1,95.9999970703126,8|0,0:0|0:0,0:0:0:0:
280,272,65077,2,0,P|224:304|160:296,1,95.9999970703126
48,208,65401,2,0,L|152:136,1,95.9999970703126,8|0,0:0|0:0,0:0:0:0:
104,56,65725,2,0,L|232:56,1,95.9999970703126
368,112,66050,5,8,0:0:0:0:
216,176,66212,1,0,0:0:0:0:
328,176,66374,1,0,0:0:0:0:
184,256,66536,1,0,0:0:0:0:
432,232,66698,2,0,B|400:272|400:272|352:224,1,95.9999970703126,8|0,0:0|0:0,0:0:0:0:
280,136,67023,2,0,L|176:136,1,95.9999970703126
112,216,67347,2,0,P|88:120|120:32,1,191.999994140625,8|0,0:0|0:0,0:0:0:0:
240,32,67833,5,0,0:0:0:0:
264,48,67914,1,0,0:0:0:0:
296,72,67996,2,0,L|392:72,1,95.9999970703126,8|0,0:0|0:0,0:0:0:0:
472,144,68320,1,0,0:0:0:0:
312,256,68482,1,0,0:0:0:0:
480,232,68644,2,0,L|376:224,1,95.9999970703126,8|0,0:0|0:0,0:0:0:0:
344,144,68968,2,0,B|272:144|272:144|232:176|184:192|136:128,1,191.999994140625,0|8,0:0|0:0,0:0:0:0:
64,152,69455,5,0,0:0:0:0:
136,256,69617,2,0,P|192:264|232:256,1,95.9999970703126
320,168,69941,2,0,L|416:168,1,95.9999970703126,8|0,0:0|0:0,0:0:0:0:
496,256,70266,1,0,0:0:0:0:
328,288,70428,1,0,0:0:0:0:
488,352,70590,2,0,L|416:272,1,95.9999970703126,8|0,0:0|0:0,0:0:0:0:
264,208,70914,5,0,0:0:0:0:
408,104,71077,1,0,0:0:0:0:
248,40,71239,2,0,P|208:72|176:120,1,95.9999970703126,8|0,0:0|0:0,0:0:0:0:
104,200,71563,2,0,L|104:304,1,95.9999970703126
216,360,71887,1,8,0:0:0:0:
264,192,72050,1,0,0:0:0:0:
312,328,72212,2,0,P|360:304|392:256,1,95.9999970703126
432,160,72536,1,8,0:0:0:0:
296,88,72698,5,0,0:0:0:0:
296,88,72779,1,0,0:0:0:0:
296,88,72860,1,10,0:0:0:0:
336,208,73023,1,0,0:0:0:0:
336,208,73185,1,0,0:0:0:0:
400,48,73347,1,10,0:0:0:0:
232,144,73509,1,0,0:0:0:0:
232,144,73671,1,0,0:0:0:0:
160,32,73833,6,8,P|144:80|152:128,1,95.9999970703126,14|0,0:0|0:0,0:0:0:0:
240,216,74158,1,0,0:0:0:0:
40,64,74320,1,0,0:0:0:0:
40,64,74401,1,0,0:0:0:0:
40,64,74482,2,0,P|32:168|96:240,1,191.999994140625,8|0,0:0|0:0,0:0:0:0:
208,280,74968,1,0,0:0:0:0:
120,168,75131,6,0,L|224:168,1,95.9999970703126,8|0,0:0|0:0,0:0:0:0:
312,240,75455,2,0,L|416:240,1,95.9999970703126
496,304,75779,1,8,0:0:0:0:
400,160,75941,1,0,0:0:0:0:
376,320,76104,2,0,P|328:328|272:312,1,95.9999970703126
224,224,76428,2,0,P|184:192|160:144,1,95.9999970703126,8|0,0:0|0:0,0:0:0:0:
80,40,76752,6,0,L|96:144,1,95.9999970703126
40,232,77077,2,0,B|80:272|80:272|112:240,1,95.9999970703126,8|0,0:0|0:0,0:0:0:0:
208,144,77401,2,0,L|304:144,1,95.9999970703126
416,48,77725,2,0,P|448:144|424:240,1,191.999994140625,8|0,0:0|0:0,0:0:0:0:
328,312,78212,1,0,0:0:0:0:
304,328,78293,1,0,0:0:0:0:
272,344,78374,2,0,L|176:344,1,95.9999970703126,8|0,0:0|0:0,0:0:0:0:
72,296,78698,5,0,0:0:0:0:
224,224,78860,1,0,0:0:0:0:
88,112,79023,2,0,B|144:160|200:112|200:112|280:112,1,191.999994140625,8|0,0:0|0:0,0:0:0:0:
384,120,79509,1,0,0:0:0:0:
296,208,79671,2,0,L|392:248,1,95.9999970703126,8|0,0:0|0:0,0:0:0:0:
488,336,79996,2,0,L|288:336,1,191.999994140625,0|8,0:0|0:0,0:0:0:0:
168,344,80482,5,0,0:0:0:0:
232,184,80644,1,0,0:0:0:0:
80,256,80806,1,0,0:0:0:0:
184,264,80968,2,0,P|176:208|152:176,1,95.9999970703126,8|0,0:0|0:0,0:0:0:0:
40,48,81293,2,0,L|48:152,1,95.9999970703126
56,320,81617,5,8,0:0:0:0:
264,248,81779,1,0,0:0:0:0:
264,248,81860,1,0,0:0:0:0:
264,248,81941,1,0,0:0:0:0:
120,120,82104,1,0,0:0:0:0:
232,40,82266,2,0,P|256:128|208:224,1,191.999994140625,8|0,0:0|0:0,0:0:0:0:
120,296,82752,1,0,0:0:0:0:
248,344,82914,6,0,L|344:336,1,95.9999970703126,8|0,0:0|0:0,0:0:0:0:
440,288,83239,1,2,0:0:0:0:
440,288,83401,1,8,0:0:0:0:
296,192,83563,2,0,L|392:184,1,95.9999970703126
472,96,83887,1,10,0:0:0:0:
472,96,83968,1,0,0:0:0:0:
472,96,84050,1,10,0:0:0:0:
296,104,84212,5,8,0:0:0:0:
408,240,84374,1,6,0:0:0:0:
256,168,84536,6,0,L|152:168,1,95.9999970703126,2|0,0:0|0:0,0:0:0:0:
64,216,84860,1,2,0:0:0:0:
64,216,85023,2,0,L|176:272,1,95.9999970703126,2|0,0:0|0:0,0:0:0:0:
288,280,85347,2,0,P|344:272|392:240,1,95.9999970703126
176,56,85833,6,0,L|176:152,1,95.9999970703126,2|0,0:0|0:0,0:0:0:0:
216,224,86158,2,0,L|288:144,1,95.9999970703126,2|0,0:0|0:0,0:0:0:0:
376,56,86482,1,0,0:0:0:0:
376,56,86644,2,0,P|432:48|440:96,1,95.9999970703126
456,208,87131,6,0,P|432:256|392:288,1,95.9999970703126,2|0,0:0|0:0,0:0:0:0:
296,320,87455,1,2,0:0:0:0:
296,320,87617,2,0,L|336:216,1,95.9999970703126,2|0,0:0|0:0,0:0:0:0:
368,128,87941,1,2,0:0:0:0:
368,128,88104,2,0,P|312:112|256:120,1,95.9999970703126,2|0,0:0|0:0,0:0:0:0:
256,192,88428,12,0,89563,0:0:0:0:
160,112,89725,6,0,P|240:88|336:112,1,160,0|8,0:0|0:0,0:0:0:0:
424,160,90211,1,0,0:0:0:0:
344,264,90373,2,0,L|352:144,1,120
384,96,90698,1,8,0:0:0:0:
456,232,90860,5,0,0:0:0:0:
288,168,91022,1,0,0:0:0:0:
392,312,91184,1,0,0:0:0:0:
408,336,91265,1,0,0:0:0:0:
424,360,91346,2,0,P|344:344|264:360,1,160,8|0,0:0|0:0,0:0:0:0:
152,352,91833,2,0,L|176:320,1,40
192,224,91995,2,0,L|344:240,1,120,8|0,0:0|0:0,0:0:0:0:
368,280,92320,5,0,0:0:0:0:
440,152,92482,1,0,0:0:0:0:
296,152,92644,2,0,L|176:160,1,120,8|0,0:0|0:0,0:0:0:0:
136,216,92968,1,0,0:0:0:0:
56,112,93131,1,0,0:0:0:0:
64,272,93293,1,8,0:0:0:0:
152,88,93455,2,0,L|248:88,1,80
392,152,93779,5,0,0:0:0:0:
416,168,93860,1,0,0:0:0:0:
440,184,93941,2,0,P|368:208|272:184,1,160,8|0,0:0|0:0,0:0:0:0:
136,152,94428,2,0,L|152:192,1,40
192,288,94590,2,0,L|336:280,1,120,8|0,0:0|0:0,0:0:0:0:
368,240,94914,5,0,0:0:0:0:
272,96,95077,1,0,0:0:0:0:
88,128,95239,2,0,L|80:248,1,120,8|0,0:0|0:0,0:0:0:0:
40,312,95564,1,0,0:0:0:0:
192,360,95726,1,0,0:0:0:0:
152,200,95888,1,8,0:0:0:0:
256,272,96050,2,0,P|272:224|272:176,1,80
216,96,96374,5,0,0:0:0:0:
200,72,96456,1,0,0:0:0:0:
184,48,96537,2,0,P|248:40|344:56,1,160,8|0,0:0|0:0,0:0:0:0:
400,144,97023,2,0,L|368:176,1,40
328,256,97185,2,0,L|176:248,1,120,8|0,0:0|0:0,0:0:0:0:
152,288,97509,5,0,0:0:0:0:
240,168,97671,1,0,0:0:0:0:
104,224,97833,2,0,L|112:104,1,120,8|0,0:0|0:0,0:0:0:0:
168,56,98158,1,0,0:0:0:0:
296,128,98320,1,0,0:0:0:0:
176,136,98482,1,8,0:0:0:0:
304,48,98644,1,0,0:0:0:0:
272,184,98806,6,0,P|344:184|368:168,1,80
440,64,99131,2,0,L|432:152,1,80
392,240,99455,2,0,P|376:264|320:288,1,80,0|0,0:0|0:0,0:0:0:0:
320,320,99671,2,0,L|240:312,1,80,0|0,0:0|0:0,0:0:0:0:
216,280,99887,2,0,P|176:288|144:312,1,80,0|0,0:0|0:0,0:0:0:0:
136,352,100104,1,0,0:0:0:0:
320,296,110482,6,0,P|288:264|248:248,1,64,2|0,0:0|0:0,0:0:0:0:
184,296,110806,2,0,P|144:272|128:248,1,64
128,168,111131,1,0,0:0:0:0:
128,168,111617,5,2,0:0:0:0:
200,96,111941,1,0,0:0:0:0:
240,224,112104,2,0,L|320:216,1,64
360,128,112428,2,0,L|448:120,1,64
424,256,113077,6,0,B|392:280|392:280|360:256,1,64,2|0,0:0|0:0,0:0:0:0:
280,224,113401,2,0,B|248:208|248:208|216:240,1,64
168,288,113725,1,0,0:0:0:0:
168,288,114212,5,2,0:0:0:0:
168,288,114698,1,0,0:0:0:0:
168,288,115023,1,0,0:0:0:0:
264,312,115185,5,0,0:0:0:0:
296,320,115266,1,0,0:0:0:0:
328,320,115347,1,0,0:0:0:0:
352,312,115428,1,0,0:0:0:0:
376,296,115509,1,0,0:0:0:0:
392,272,115590,1,0,0:0:0:0:
400,232,115671,2,0,P|408:184|400:144,1,80,6|0,0:0|0:0,0:0:0:0:
328,48,115996,6,0,L|176:56,1,120,10|0,0:0|0:0,0:0:0:0:
176,80,116320,2,0,P|200:120|192:160,1,80
88,248,116644,2,0,P|152:264|184:264,1,80,10|0,0:0|0:0,0:0:0:0:
312,248,116968,1,0,0:0:0:0:
176,192,117131,1,0,0:0:0:0:
248,312,117293,1,10,0:0:0:0:
248,312,117374,1,0,0:0:0:0:
248,312,117455,1,0,0:0:0:0:
400,224,117617,6,0,L|472:312,1,80
464,320,117941,2,0,P|376:296|296:320,1,160,10|0,0:0|0:0,0:0:0:0:
192,352,118428,1,0,0:0:0:0:
104,264,118590,2,0,P|160:232|224:240,1,120,10|0,0:0|0:0,0:0:0:0:
224,264,118914,2,0,L|232:104,1,160,0|10,0:0|0:0,0:0:0:0:
280,56,119401,1,0,0:0:0:0:
312,200,119563,5,0,0:0:0:0:
160,112,119725,1,0,0:0:0:0:
240,264,119887,2,0,L|336:272,1,80,10|0,0:0|0:0,0:0:0:0:
384,304,120212,1,0,0:0:0:0:
224,200,120374,1,0,0:0:0:0:
424,240,120536,2,0,L|384:224,1,40,8|0,0:0|0:0,0:0:0:0:
296,144,120698,2,0,L|240:144,1,40,8|0,0:0|0:0,0:0:0:0:
144,80,120860,6,0,P|120:128|144:216,1,128,2|0,0:0|0:0,0:0:0:0:
240,280,121509,1,0,0:0:0:0:
240,280,121671,2,0,L|320:288,1,64
376,344,121996,2,0,L|448:352,1,64
496,312,122482,1,0,0:0:0:0:
456,200,122806,2,0,P|408:224|392:264,1,96
408,288,123131,2,0,L|272:280,1,128,0|6,0:0|0:0,0:0:0:0:
168,232,123617,5,0,0:0:0:0:
304,176,123779,1,0,0:0:0:0:
216,304,123941,1,0,0:0:0:0:
232,128,124104,2,0,P|208:72|168:112,1,128
96,192,124590,1,0,0:0:0:0:
248,240,124752,2,0,L|328:232,1,64
384,176,125077,5,0,0:0:0:0:
304,72,125239,1,0,0:0:0:0:
304,72,125320,1,0,0:0:0:0:
304,72,125401,1,0,0:0:0:0:
200,192,125563,1,0,0:0:0:0:
376,80,125725,2,0,P|432:72|408:136,1,120
448,160,126050,6,0,L|312:168,1,128,2|0,0:0|0:0,0:0:0:0:
232,216,126536,1,0,0:0:0:0:
232,216,126698,2,0,L|96:224,1,128
48,272,127185,1,0,0:0:0:0:
136,152,127347,2,0,L|144:80,2,64
168,288,127833,1,0,0:0:0:0:
288,208,127996,6,0,L|384:224,1,96
400,256,128320,2,0,P|416:208|400:120,1,128,0|6,0:0|0:0,0:0:0:0:
344,48,128806,1,0,0:0:0:0:
216,112,128968,1,0,0:0:0:0:
336,192,129131,1,0,0:0:0:0:
232,280,129293,2,0,P|280:320|352:328,1,128
448,264,129779,5,0,0:0:0:0:
264,208,129941,1,0,0:0:0:0:
392,104,130104,1,0,0:0:0:0:
344,240,130266,1,0,0:0:0:0:
296,112,130428,5,0,0:0:0:0:
296,112,130509,1,0,0:0:0:0:
296,112,130590,1,0,0:0:0:0:
408,200,130752,1,0,0:0:0:0:
248,168,130914,2,0,B|224:128|224:128|224:208,1,120
200,232,131239,6,0,P|280:256|336:232,1,128,2|0,0:0|0:0,0:0:0:0:
440,128,131887,2,0,L|352:136,1,64
272,96,132212,1,0,0:0:0:0:
192,216,132374,1,0,0:0:0:0:
144,96,132536,2,0,P|88:136|72:200,1,128
88,296,133023,1,0,0:0:0:0:
88,296,133185,2,0,L|152:296,1,64
264,296,133671,5,0,0:0:0:0:
264,296,133833,2,0,P|336:240|360:144,1,192,2|0,0:0|0:0,0:0:0:0:
240,32,134482,2,0,L|240:104,1,64
208,200,134806,2,0,L|152:144,2,64
200,312,135293,1,0,0:0:0:0:
280,176,135455,5,0,0:0:0:0:
136,224,135617,1,0,0:0:0:0:
136,224,135698,1,0,0:0:0:0:
136,224,135779,2,0,L|264:232,1,128,0|2,0:0|0:0,0:0:0:0:
376,272,136428,6,0,B|416:336|416:336|408:128,1,256,2|0,0:0|0:0,0:0:0:0:
400,48,137401,1,0,0:0:0:0:
272,168,137563,2,0,B|216:216|136:128|72:184,1,192
56,272,138212,1,0,0:0:0:0:
56,272,138293,1,0,0:0:0:0:
56,272,138374,2,0,P|104:296|160:272,1,96
152,256,138698,2,0,P|192:248|224:256,1,64
304,312,139023,5,8,0:0:0:0:
304,312,139185,1,0,0:0:0:0:
416,224,139347,1,8,0:0:0:0:
416,224,139509,1,0,0:0:0:0:
272,168,139671,1,8,0:0:0:0:
272,168,139833,1,0,0:0:0:0:
392,304,139996,5,8,0:0:0:0:
392,304,140158,1,0,0:0:0:0:
232,240,140320,1,8,0:0:0:0:
352,112,140482,1,0,0:0:0:0:
336,232,140644,2,0,P|304:192|192:136,1,160,10|8,0:0|0:0,0:0:0:0:
80,112,141131,5,0,0:0:0:0:
152,224,141293,1,0,0:0:0:0:
160,64,141455,1,0,0:0:0:0:
64,216,141617,6,8,P|72:264|96:296,1,80,10|8,0:0|0:0,0:0:0:0:
168,352,141941,1,0,0:0:0:0:
168,352,142104,2,8,L|248:344,1,80,10|8,0:0|0:0,0:0:0:0:
376,328,142428,1,0,0:0:0:0:
376,328,142590,2,8,P|336:288|296:272,1,80,10|12,0:0|0:0,0:0:0:0:
312,280,143887,6,0,L|312:248,4,31.9999990234375
328,144,144212,2,0,L|248:88,1,95.9999970703126,8|0,0:0|0:0,0:0:0:0:
168,144,144536,2,0,L|64:112,1,95.9999970703126,0|0,0:0|0:0,0:0:0:0:
16,232,144860,2,0,L|120:232,1,95.9999970703126,8|0,0:0|0:0,0:0:0:0:
192,288,145185,2,0,L|296:248,1,95.9999970703126,0|0,0:0|0:0,0:0:0:0:
384,112,145509,2,0,P|400:160|392:208,1,95.9999970703126,8|0,0:0|0:0,0:0:0:0:
416,288,145833,2,0,P|392:336|352:368,1,95.9999970703126,0|0,0:0|0:0,0:0:0:0:
248,328,146158,6,0,L|152:320,1,95.9999970703126,8|0,0:0|0:0,0:0:0:0:
104,232,146482,2,0,L|32:168,1,95.9999970703126,0|0,0:0|0:0,0:0:0:0:
24,64,146806,2,0,L|128:64,1,95.9999970703126,8|0,0:0|0:0,0:0:0:0:
280,24,147131,2,0,B|328:48|328:48|280:88,1,95.9999970703126
192,160,147455,2,0,L|192:256,1,95.9999970703126,8|0,0:0|0:0,0:0:0:0:
96,328,147779,2,0,P|200:360|288:320,1,191.999994140625,0|8,0:0|0:0,0:0:0:0:
368,240,148266,5,0,0:0:0:0:
384,216,148347,1,0,0:0:0:0:
400,192,148428,2,0,P|352:200|288:184,1,95.9999970703126,0|0,0:0|0:0,0:0:0:0:
160,152,148752,1,8,0:0:0:0:
280,88,148914,1,0,0:0:0:0:
224,256,149077,2,0,B|280:256|280:256|360:304|416:256,1,191.999994140625,0|8,0:0|0:0,0:0:0:0:
480,192,149563,5,0,0:0:0:0:
360,96,149725,2,0,L|352:192,1,95.9999970703126
384,312,150050,2,0,P|336:320|288:304,1,95.9999970703126,8|0,0:0|0:0,0:0:0:0:
152,248,150374,1,0,0:0:0:0:
288,168,150536,1,0,0:0:0:0:
112,168,150698,2,0,L|208:176,1,95.9999970703126,8|0,0:0|0:0,0:0:0:0:
280,256,151023,6,0,L|400:264,1,95.9999970703126
456,312,151347,1,8,0:0:0:0:
360,192,151509,1,0,0:0:0:0:
464,192,151671,2,0,P|448:136|424:104,1,95.9999970703126
304,40,151996,2,0,L|208:48,1,95.9999970703126,8|0,0:0|0:0,0:0:0:0:
104,104,152320,5,0,0:0:0:0:
256,128,152482,1,0,0:0:0:0:
120,200,152644,2,0,L|224:208,1,95.9999970703126,8|0,0:0|0:0,0:0:0:0:
360,160,152968,1,0,0:0:0:0:
208,288,153131,5,0,0:0:0:0:
208,288,153212,1,0,0:0:0:0:
208,288,153293,2,0,P|256:312|304:288,1,95.9999970703126,8|0,0:0|0:0,0:0:0:0:
400,224,153617,1,0,0:0:0:0:
400,224,153779,1,8,0:0:0:0:
360,344,153941,1,0,0:0:0:0:
264,192,154104,5,0,0:0:0:0:
264,192,154266,1,8,0:0:0:0:
400,120,154428,2,0,P|408:72|368:64,1,95.9999970703126
264,72,154752,1,0,0:0:0:0:
264,72,154833,1,0,0:0:0:0:
264,72,154914,2,0,P|208:112|152:232,1,191.999994140625,14|0,0:0|0:0,0:0:0:0:
136,328,155401,5,0,0:0:0:0:
248,256,155563,2,0,P|296:240|352:264,1,95.9999970703126,8|0,0:0|0:0,0:0:0:0:
464,328,155887,2,0,L|456:216,1,95.9999970703126
408,88,156212,2,0,P|360:72|304:88,1,95.9999970703126,8|0,0:0|0:0,0:0:0:0:
224,160,156536,2,0,L|120:160,1,95.9999970703126
64,208,156860,5,8,0:0:0:0:
208,256,157023,1,0,0:0:0:0:
128,88,157185,2,0,P|184:72|232:88,1,95.9999970703126
291,189,157509,6,8,B|320:224|320:224|352:184,1,95.9999970703126,8|0,0:0|0:0,0:0:0:0:
440,32,157833,2,0,L|440:128,1,95.9999970703126
464,248,158158,2,0,B|400:336|336:256|336:256|272:256,1,191.999994140625,8|0,0:0|0:0,0:0:0:0:
168,288,158644,1,0,0:0:0:0:
144,304,158725,1,0,0:0:0:0:
112,328,158806,2,0,P|160:336|224:328,1,95.9999970703126,8|0,0:0|0:0,0:0:0:0:
312,320,159131,5,0,0:0:0:0:
200,216,159293,1,0,0:0:0:0:
344,192,159455,2,0,P|288:104|192:72,1,191.999994140625,8|0,0:0|0:0,0:0:0:0:
96,72,159941,1,0,0:0:0:0:
224,160,160104,1,8,0:0:0:0:
272,24,160266,1,0,0:0:0:0:
392,112,160428,6,0,P|408:160|392:208,1,95.9999970703126
392,296,160752,2,0,P|352:344|312:360,1,95.9999970703126,8|0,0:0|0:0,0:0:0:0:
208,288,161077,2,0,L|112:280,1,95.9999970703126
56,184,161401,2,0,L|16:96,1,95.9999970703126,8|0,0:0|0:0,0:0:0:0:
112,56,161725,1,0,0:0:0:0:
144,208,161887,1,0,0:0:0:0:
224,72,162050,5,8,0:0:0:0:
224,72,162131,1,0,0:0:0:0:
224,72,162212,1,0,0:0:0:0:
240,208,162374,2,0,B|320:288|384:216|384:216|440:216,1,191.999994140625,0|8,0:0|0:0,0:0:0:0:
488,256,162860,5,0,0:0:0:0:
488,256,163023,1,0,0:0:0:0:
408,128,163185,1,8,0:0:0:0:
408,128,163266,1,0,0:0:0:0:
408,128,163347,1,0,0:0:0:0:
384,288,163509,1,0,0:0:0:0:
472,168,163671,5,8,0:0:0:0:
472,168,163833,1,0,0:0:0:0:
328,232,163996,1,0,0:0:0:0:
456,320,164158,1,8,0:0:0:0:
456,320,164320,1,0,0:0:0:0:
368,168,164482,1,0,0:0:0:0:
328,304,164644,2,0,P|272:280|240:240,1,95.9999970703126,14|0,0:0|0:0,0:0:0:0:
192,128,164968,6,0,L|296:128,1,80,2|0,0:0|0:0,0:0:0:0:
384,128,165293,1,0,0:0:0:0:
384,128,165455,2,0,P|400:184|384:224,1,80,2|0,0:0|0:0,0:0:0:0:
280,320,165941,2,0,L|288:232,1,80
272,128,166266,1,2,0:0:0:0:
272,128,166428,2,0,P|216:152|184:184,1,80
112,248,166752,1,2,0:0:0:0:
112,248,166914,2,0,L|112:160,1,80
112,72,167563,5,2,0:0:0:0:
200,168,167725,1,0,0:0:0:0:
184,48,167887,2,0,P|232:48|264:64,1,80,0|2,0:0|0:0,0:0:0:0:
320,168,168212,2,0,L|408:168,1,80
488,240,168536,2,0,P|448:288|416:304,1,80
320,328,168860,5,2,0:0:0:0:
320,328,169023,2,0,L|224:328,1,80
144,328,169347,1,2,0:0:0:0:
144,328,169509,2,0,P|96:208|216:120,1,280
232,120,170158,1,0,0:0:0:0:
272,120,170239,1,0,0:0:0:0:
312,128,170320,1,0,0:0:0:0:
344,152,170401,1,0,0:0:0:0:
368,184,170482,6,0,L|392:224,1,40,2|0,0:0|0:0,0:0:0:0:
432,312,170644,2,0,L|384:296,1,40
304,232,170806,2,0,L|320:272,1,40
336,352,170968,2,0,L|296:344,1,40,2|0,0:0|0:0,0:0:0:0:
240,280,171131,1,0,0:0:0:0:
216,296,171212,1,0,0:0:0:0:
176,304,171293,1,0,0:0:0:0:
144,304,171374,1,0,0:0:0:0:
112,296,171455,6,0,P|96:248|120:208,1,80,6|0,0:0|0:0,0:0:0:0:
192,128,171779,2,0,L|264:136,1,64
344,168,172104,2,0,L|424:160,1,64
304,64,172428,1,0,0:0:0:0:
104,144,172590,1,0,0:0:0:0:
224,32,172752,1,0,0:0:0:0:
88,48,172914,1,0,0:0:0:0:
88,48,172996,1,0,0:0:0:0:
88,48,173077,2,0,P|136:64|168:96,1,95.9999970703126,2|0,0:0|0:0,0:0:0:0:
232,208,173401,6,0,L|296:216,1,47.9999985351563
384,272,173563,2,0,L|480:272,1,95.9999970703126
344,344,173887,2,0,P|288:352|224:336,1,95.9999970703126
120,280,174212,1,0,0:0:0:0:
120,280,174293,1,0,0:0:0:0:
120,280,174374,2,0,L|224:272,1,95.9999970703126
352,208,174698,6,0,P|408:200|464:208,2,95.9999970703126,0|0|2,0:0|0:0|0:0,0:0:0:0:
216,208,175185,1,0,0:0:0:0:
352,144,175347,2,0,L|208:96,1,143.999995605469
176,72,175671,2,0,L|376:64,1,191.999994140625,0|6,0:0|0:0,0:0:0:0:
448,104,176158,1,0,0:0:0:0:
448,104,176239,1,0,0:0:0:0:
448,104,176320,1,0,0:0:0:0:
320,192,176482,5,0,0:0:0:0:
368,48,176644,1,0,0:0:0:0:
432,184,176806,1,0,0:0:0:0:
288,88,176968,2,0,P|216:88|272:152,1,191.999994140625
384,128,177455,1,0,0:0:0:0:
264,224,177617,1,0,0:0:0:0:
424,264,177779,1,0,0:0:0:0:
424,264,177860,1,0,0:0:0:0:
424,264,177941,6,0,P|368:288|312:288,1,95.9999970703126,2|0,0:0|0:0,0:0:0:0:
192,288,178266,5,0,0:0:0:0:
192,288,178347,1,0,0:0:0:0:
192,288,178428,2,0,L|184:192,1,95.9999970703126,2|0,0:0|0:0,0:0:0:0:
176,72,178752,1,0,0:0:0:0:
176,72,178914,2,0,L|320:80,1,143.999995605469,2|0,0:0|0:0,0:0:0:0:
368,128,179239,1,0,0:0:0:0:
368,128,179320,1,0,0:0:0:0:
368,128,179401,1,2,0:0:0:0:
288,224,179563,6,0,L|184:232,1,96
184,216,179887,2,0,P|152:144|168:80,2,128,0|0|6,0:0|0:0|0:0,0:0:0:0:
288,288,180860,6,0,L|368:280,1,64
464,248,181185,2,0,L|384:224,1,64
304,200,181509,2,0,P|336:176|376:168,1,64
456,136,181833,1,0,0:0:0:0:
304,88,181996,1,0,0:0:0:0:
480,32,182158,1,0,0:0:0:0:
321,166,182320,6,0,L|344:144,2,31.9999990234375
296,192,182482,2,0,P|208:168|88:192,1,191.999994140625
112,176,183293,5,0,0:0:0:0:
112,176,183455,2,0,P|184:160|256:176,1,143.999995605469,2|0,0:0|0:0,0:0:0:0:
256,200,183779,2,0,L|360:200,1,95.9999970703126,0|2,0:0|0:0,0:0:0:0:
440,264,184104,1,0,0:0:0:0:
440,264,184185,1,0,0:0:0:0:
440,264,184266,1,0,0:0:0:0:
288,280,184428,5,2,0:0:0:0:
432,176,184590,1,0,0:0:0:0:
352,320,184752,2,0,L|360:224,1,95.9999970703126,0|2,0:0|0:0,0:0:0:0:
416,80,185077,1,0,0:0:0:0:
288,160,185239,1,0,0:0:0:0:
352,48,185401,2,0,P|256:16|160:48,1,191.999994140625,2|0,0:0|0:0,0:0:0:0:
80,112,185887,5,0,0:0:0:0:
80,112,185968,1,0,0:0:0:0:
80,112,186050,2,0,L|176:120,1,95.9999970703126,2|0,0:0|0:0,0:0:0:0:
304,176,186374,2,0,L|184:184,1,95.9999970703126
96,224,186698,1,2,0:0:0:0:
248,248,186860,1,0,0:0:0:0:
112,328,187023,6,0,L|16:344,2,95.9999970703126,0|0|2,0:0|0:0|0:0,0:0:0:0:
240,336,187509,1,0,0:0:0:0:
96,224,187671,2,0,P|176:200|248:224,1,143.999995605469
248,240,187996,2,0,L|352:240,1,95.9999970703126,2|0,0:0|0:0,0:0:0:0:
432,288,188320,5,2,0:0:0:0:
432,288,188482,1,2,0:0:0:0:
320,176,188644,1,0,0:0:0:0:
472,152,188806,1,2,0:0:0:0:
472,152,188968,1,2,0:0:0:0:
344,72,189131,1,0,0:0:0:0:
408,216,189293,5,2,0:0:0:0:
408,216,189455,1,2,0:0:0:0:
280,128,189617,2,4,L|184:136,1,95.9999970703126,0|4,0:0|0:0,0:0:0:0:
112,224,189941,5,2,0:0:0:0:
296,208,190104,1,0,0:0:0:0:
224,344,190266,1,2,0:0:0:0:
176,200,190428,1,0,0:0:0:0:
352,304,190590,1,4,0:0:0:0:
168,280,190752,1,0,0:0:0:0:
360,216,190914,1,6,0:0:0:0:
360,216,193185,5,0,0:0:0:0:
360,216,193510,1,0,0:0:0:0:
356,211,193833,2,0,P|383:157|344:112,1,128,2|0,0:0|0:0,0:0:0:0:
208,120,194483,5,0,0:0:0:0:
208,120,194807,1,0,0:0:0:0:
208,120,195131,2,0,P|168:168|208:224,1,128,2|0,0:0|0:0,0:0:0:0:
360,216,195779,5,0,0:0:0:0:
360,216,196104,1,0,0:0:0:0:
360,216,196428,2,0,P|387:162|344:120,1,128,2|0,0:0|0:0,0:0:0:0:
208,120,197077,5,0,0:0:0:0:
208,120,197401,1,0,0:0:0:0:
208,120,197725,2,0,P|168:168|208:224,1,128,2|0,0:0|0:0,0:0:0:0:
336,264,198374,5,0,0:0:0:0:
336,264,198698,1,0,0:0:0:0:
336,264,199023,2,0,P|280:288|216:264,1,128,2|0,0:0|0:0,0:0:0:0:
112,192,199671,5,0,0:0:0:0:
112,192,199833,2,0,L|176:184,1,40
280,136,199996,2,0,L|224:128,1,40
152,64,200158,2,0,L|192:64,1,40
224,64,200320,5,0,0:0:0:0:
256,64,200401,1,0,0:0:0:0:
288,64,200482,1,0,0:0:0:0:
320,72,200563,1,0,0:0:0:0:
352,88,200644,1,0,0:0:0:0:
376,104,200725,1,0,0:0:0:0:
400,128,200806,2,0,L|432:160,4,40
312,216,201293,6,0,P|288:272|248:288,1,80,10|0,0:0|0:0,0:0:0:0:
176,344,201617,2,0,L|88:336,1,80
24,232,201941,2,0,L|128:224,1,80,8|0,0:0|0:0,0:0:0:0:
208,152,202266,2,0,L|288:152,1,80
424,192,202590,6,0,P|384:240|336:256,1,80,8|0,0:0|0:0,0:0:0:0:
272,320,202914,2,0,L|176:320,1,80
64,272,203239,2,0,L|168:240,1,80,8|0,0:0|0:0,0:0:0:0:
240,160,203563,2,0,L|336:160,1,80
384,192,203887,1,14,0:0:0:0:
248,88,204050,1,0,0:0:0:0:
400,88,204212,5,0,0:0:0:0:
288,224,204374,1,0,0:0:0:0:
424,144,204536,2,0,P|496:184|456:208,1,160,8|0,0:0|0:0,0:0:0:0:
368,264,205023,1,0,0:0:0:0:
272,144,205185,2,0,L|176:152,1,80,8|0,0:0|0:0,0:0:0:0:
88,216,205509,5,0,0:0:0:0:
208,256,205671,1,0,0:0:0:0:
208,256,205752,1,0,0:0:0:0:
208,256,205833,1,8,0:0:0:0:
88,144,205996,1,0,0:0:0:0:
88,288,206158,2,0,P|144:352|208:320,1,143.999995605469
192,320,206482,6,0,L|288:320,1,80,10|0,0:0|0:0,0:0:0:0:
376,280,206806,2,0,P|416:256|440:224,1,80
352,96,207131,2,0,L|344:192,1,80,8|0,0:0|0:0,0:0:0:0:
280,272,207455,2,0,L|184:280,1,80
80,256,207779,6,0,L|168:208,1,80,8|0,0:0|0:0,0:0:0:0:
240,144,208104,2,0,L|352:144,1,80
432,192,208428,2,0,P|384:224|328:232,1,80,8|0,0:0|0:0,0:0:0:0:
248,272,208752,2,0,L|368:320,1,120
416,352,209077,2,0,L|248:352,1,160,14|0,0:0|0:0,0:0:0:0:
136,328,209563,5,0,0:0:0:0:
240,296,209725,1,8,0:0:0:0:
128,184,209887,1,0,0:0:0:0:
280,216,210050,2,0,P|280:168|264:128,1,80
176,48,210374,1,8,0:0:0:0:
176,48,210455,1,0,0:0:0:0:
176,48,210536,1,0,0:0:0:0:
208,184,210698,5,0,0:0:0:0:
312,72,210860,1,0,0:0:0:0:
368,192,211023,2,0,P|376:240|296:232,1,143.999995605469,8|0,0:0|0:0,0:0:0:0:
304,224,211347,2,0,L|144:232,1,160,0|10,0:0|0:0,0:0:0:0:
48,208,211833,5,0,0:0:0:0:
144,96,211996,2,0,L|232:104,1,80,2|0,0:0|0:0,0:0:0:0:
304,176,212320,2,0,L|400:176,1,80,0|0,0:0|0:0,0:0:0:0:
464,224,212644,1,0,0:0:0:0:
336,104,212806,1,0,0:0:0:0:
384,256,212968,2,0,P|352:288|304:304,1,80,2|0,0:0|0:0,0:0:0:0:
200,336,213293,5,0,0:0:0:0:
296,224,213455,1,0,0:0:0:0:
152,272,213617,2,0,P|104:248|80:216,1,80,2|0,0:0|0:0,0:0:0:0:
40,128,213941,1,0,0:0:0:0:
192,192,214104,1,0,0:0:0:0:
120,80,214266,2,0,P|152:40|192:24,1,80,6|0,0:0|0:0,0:0:0:0:
320,32,214590,6,0,P|352:88|304:120,1,120
296,104,214914,2,0,L|296:264,1,160
336,320,215401,1,0,0:0:0:0:
224,224,215563,2,0,B|160:280|104:224|104:224|48:224,1,160
16,280,216050,5,0,0:0:0:0:
16,280,216131,1,0,0:0:0:0:
16,280,216212,1,0,0:0:0:0:
96,160,216374,1,0,0:0:0:0:
104,296,216536,2,0,L|112:376,1,80
224,328,216860,6,0,B|272:240|168:208|232:128,1,192
264,64,217509,1,0,0:0:0:0:
344,152,217833,1,0,0:0:0:0:
304,272,217996,1,0,0:0:0:0:
304,272,218158,2,0,P|240:296|160:272,1,128
72,216,218644,5,0,0:0:0:0:
72,216,218725,1,0,0:0:0:0:
72,216,218806,2,0,L|184:168,1,96
160,152,219131,2,0,L|240:152,1,64
328,88,219455,6,0,P|352:160|328:216,1,128
248,288,219941,1,0,0:0:0:0:
248,288,220104,2,0,L|248:160,1,128
272,48,220590,1,0,0:0:0:0:
272,48,220752,2,0,P|224:56|192:72,1,64
200,88,220996,2,0,L|152:88,4,32
224,88,221401,5,0,0:0:0:0:
256,96,221482,1,0,0:0:0:0:
280,112,221563,1,0,0:0:0:0:
304,136,221644,1,0,0:0:0:0:
320,160,221725,1,0,0:0:0:0:
328,192,221806,1,0,0:0:0:0:
328,224,221887,1,0,0:0:0:0:
256,192,221968,12,0,224158,0:0:0:0:
200,136,228536,6,0,P|256:152|296:144,1,96
320,136,228860,1,0,0:0:0:0:
352,128,228941,1,0,0:0:0:0:
384,136,229023,1,0,0:0:0:0:
408,152,229104,1,0,0:0:0:0:
432,176,229185,1,4,0:0:0:0:
432,176,229833,6,0,P|376:232|320:192,1,143.999995605469,8|0,0:0|0:0,0:0:0:0:
336,184,230158,2,0,L|224:184,1,95.9999970703126,0|8,0:0|0:0,0:0:0:0:
144,216,230482,1,0,0:0:0:0:
272,96,230644,1,0,0:0:0:0:
112,120,230806,2,0,B|56:144|56:144|208:144,1,191.999994140625,10|0,0:0|0:0,0:0:0:0:
360,112,231293,5,8,0:0:0:0:
224,216,231455,1,0,0:0:0:0:
264,48,231617,1,0,0:0:0:0:
368,184,231779,2,0,L|272:176,1,95.9999970703126,8|0,0:0|0:0,0:0:0:0:
152,80,232104,2,0,B|112:112|112:112|152:144,1,95.9999970703126,8|0,0:0|0:0,0:0:0:0:
232,240,232428,2,0,L|328:240,1,95.9999970703126
456,328,232752,2,0,P|488:224|456:144,1,191.999994140625,8|0,0:0|0:0,0:0:0:0:
352,48,233239,5,0,0:0:0:0:
232,168,233401,1,8,0:0:0:0:
408,104,233563,1,0,0:0:0:0:
408,104,233644,1,0,0:0:0:0:
408,104,233725,1,8,0:0:0:0:
216,96,233887,5,2,0:0:0:0:
216,96,234050,1,0,0:0:0:0:
352,200,234212,1,10,0:0:0:0:
296,40,234374,1,2,0:0:0:0:
296,40,234536,1,0,0:0:0:0:
200,176,234698,2,0,L|296:168,1,95.9999970703126,8|0,0:0|0:0,0:0:0:0:
384,80,235023,1,0,0:0:0:0:
328,248,235185,5,2,0:0:0:0:
328,248,235266,1,0,0:0:0:0:
328,248,235347,2,0,P|408:184|448:96,1,191.999994140625,12|0,0:0|0:0,0:0:0:0:
384,32,235833,1,0,0:0:0:0:
264,152,235996,2,0,L|160:144,1,95.9999970703126,8|0,0:0|0:0,0:0:0:0:
48,224,236320,2,0,P|104:264|152:272,1,95.9999970703126
304,296,236644,2,0,L|408:288,1,95.9999970703126,8|0,0:0|0:0,0:0:0:0:
464,320,236968,5,0,0:0:0:0:
320,224,237131,1,0,0:0:0:0:
480,200,237293,2,0,P|424:176|368:168,1,95.9999970703126,8|0,0:0|0:0,0:0:0:0:
216,152,237617,2,0,L|320:120,1,95.9999970703126
448,80,237941,2,0,B|488:48|488:48|432:32,1,95.9999970703126,8|0,0:0|0:0,0:0:0:0:
272,32,238266,2,0,L|184:88,1,95.9999970703126
56,80,238590,2,0,P|72:184|168:208,1,191.999994140625,8|0,0:0|0:0,0:0:0:0:
304,208,239077,5,0,0:0:0:0:
328,224,239158,1,0,0:0:0:0:
360,248,239239,2,0,L|464:256,1,95.9999970703126,8|0,0:0|0:0,0:0:0:0:
496,312,239563,1,0,0:0:0:0:
408,160,239725,1,0,0:0:0:0:
416,336,239887,2,0,B|352:336|352:336|296:376|224:328,1,191.999994140625,8|0,0:0|0:0,0:0:0:0:
112,256,240374,5,0,0:0:0:0:
296,272,240536,1,8,0:0:0:0:
168,160,240698,1,0,0:0:0:0:
336,136,240860,2,0,P|304:64|280:48,1,95.9999970703126
120,80,241185,2,0,L|232:88,1,95.9999970703126,8|0,0:0|0:0,0:0:0:0:
296,192,241509,2,0,L|416:200,1,95.9999970703126
448,248,241833,5,8,0:0:0:0:
280,272,241996,1,0,0:0:0:0:
464,320,242158,1,0,0:0:0:0:
344,248,242320,1,0,0:0:0:0:
472,128,242482,2,0,L|368:136,1,95.9999970703126,8|0,0:0|0:0,0:0:0:0:
248,192,242806,2,0,L|144:184,1,95.9999970703126
64,88,243131,2,0,B|32:184|32:184|56:280,1,191.999994140625,8|0,0:0|0:0,0:0:0:0:
144,352,243617,5,8,0:0:0:0:
144,352,243698,1,0,0:0:0:0:
144,352,243779,1,0,0:0:0:0:
240,208,243941,1,0,0:0:0:0:
360,328,244104,1,10,0:0:0:0:
360,328,244266,1,0,0:0:0:0:
192,272,244428,2,0,L|304:280,1,95.9999970703126,0|8,0:0|0:0,0:0:0:0:
456,232,244752,1,10,0:0:0:0:
320,128,244914,5,0,0:0:0:0:
296,112,244996,1,0,0:0:0:0:
264,96,245077,1,0,0:0:0:0:
232,88,245158,1,0,0:0:0:0:
200,88,245239,1,0,0:0:0:0:
168,96,245320,1,0,0:0:0:0:
136,112,245401,2,0,P|88:152|64:208,1,111.999996582031,6|0,0:0|0:0,0:0:0:0:
40,336,245725,6,0,L|152:328,1,111.999996582031,10|0,0:0|0:0,0:0:0:0:
328,288,246050,2,0,P|280:232|224:200,1,111.999996582031,8|0,0:0|0:0,0:0:0:0:
88,120,246374,2,0,L|216:128,1,111.999996582031,10|0,0:0|0:0,0:0:0:0:
392,112,246698,2,0,P|344:56|288:24,1,111.999996582031,8|0,0:0|0:0,0:0:0:0:
160,32,247023,5,10,0:0:0:0:
312,168,247185,1,0,0:0:0:0:
112,184,247347,1,8,0:0:0:0:
280,80,247509,1,0,0:0:0:0:
208,264,247671,2,0,P|264:288|320:272,1,111.999996582031,2|0,0:0|0:0,0:0:0:0:
456,176,247996,6,0,L|448:64,1,111.999996582031,8|0,0:0|0:0,0:0:0:0:
328,136,248320,2,0,P|264:120|224:80,1,111.999996582031,10|0,0:0|0:0,0:0:0:0:
96,32,248644,2,0,L|104:144,1,111.999996582031,8|0,0:0|0:0,0:0:0:0:
88,288,248968,2,0,L|208:280,1,111.999996582031,10|0,0:0|0:0,0:0:0:0:
352,304,249293,5,8,0:0:0:0:
192,184,249455,1,0,0:0:0:0:
392,200,249617,1,10,0:0:0:0:
240,328,249779,1,0,0:0:0:0:
336,152,249941,2,0,L|208:144,1,111.999996582031,8|0,0:0|0:0,0:0:0:0:
24,192,250266,2,0,L|152:200,1,111.999996582031,10|0,0:0|0:0,0:0:0:0:
248,264,250590,6,0,P|320:256|368:216,1,111.999996582031,8|0,0:0|0:0,0:0:0:0:
456,120,250914,2,0,L|448:240,1,111.999996582031,10|0,0:0|0:0,0:0:0:0:
400,328,251239,1,8,0:0:0:0:
328,136,251401,2,0,L|304:192,1,55.9999982910157
240,264,251563,2,0,L|216:208,1,55.9999982910157
152,136,251725,2,0,L|216:120,1,55.9999982910157,0|4,0:0|0:0,0:0:0:0:
312,64,251887,5,0,0:0:0:0:
152,64,252104,1,0,0:0:0:0:
304,208,252320,1,0,0:0:0:0:
416,72,252536,1,0,0:0:0:0:
232,152,252752,1,0,0:0:0:0:
344,136,252968,1,0,0:0:0:0:
224,32,253185,1,4,0:0:0:0:
224,32,254482,5,8,0:0:0:0:
112,184,254644,1,2,0:0:0:0:
112,184,254725,1,0,0:0:0:0:
112,184,254806,1,0,0:0:0:0:
264,104,254968,1,8,0:0:0:0:
264,104,255131,1,2,0:0:0:0:
208,264,255293,5,0,0:0:0:0:
208,264,255455,2,0,L|304:256,1,95.9999970703126,8|0,0:0|0:0,0:0:0:0:
408,200,255779,1,8,0:0:0:0:
280,336,255941,1,0,0:0:0:0:
280,336,256023,1,0,0:0:0:0:
280,336,256104,2,0,P|384:304|448:240,1,191.999994140625,14|0,0:0|0:0,0:0:0:0:
488,120,256590,1,0,0:0:0:0:
328,192,256752,6,0,L|224:184,1,95.9999970703126,8|0,0:0|0:0,0:0:0:0:
120,248,257077,2,0,P|64:232|32:208,1,95.9999970703126
112,56,257401,2,0,L|120:168,1,95.9999970703126,8|0,0:0|0:0,0:0:0:0:
200,248,257725,2,0,P|232:288|280:312,1,95.9999970703126
440,264,258050,2,0,L|336:256,1,95.9999970703126,8|0,0:0|0:0,0:0:0:0:
264,200,258374,1,0,0:0:0:0:
400,328,258536,1,0,0:0:0:0:
224,344,258698,6,0,B|184:312|184:312|224:280,1,95.9999970703126,8|0,0:0|0:0,0:0:0:0:
320,192,259023,2,0,L|320:96,1,95.9999970703126
424,48,259347,2,0,B|320:16|320:16|216:40,1,191.999994140625,8|0,0:0|0:0,0:0:0:0:
112,88,259833,1,0,0:0:0:0:
88,104,259914,1,0,0:0:0:0:
64,120,259996,2,0,P|120:112|168:120,1,95.9999970703126,8|0,0:0|0:0,0:0:0:0:
240,160,260320,5,0,0:0:0:0:
80,232,260482,1,0,0:0:0:0:
248,264,260644,2,0,P|304:256|328:216,1,95.9999970703126,8|0,0:0|0:0,0:0:0:0:
392,64,260968,2,0,L|384:176,1,95.9999970703126
400,304,261293,2,0,L|296:312,1,95.9999970703126,8|0,0:0|0:0,0:0:0:0:
136,272,261617,2,0,L|240:248,1,95.9999970703126
336,240,261941,5,8,0:0:0:0:
176,176,262104,1,0,0:0:0:0:
344,144,262266,2,0,L|240:136,1,95.9999970703126
168,72,262590,2,0,L|72:80,1,95.9999970703126,8|0,0:0|0:0,0:0:0:0:
24,144,262914,1,0,0:0:0:0:
168,200,263077,1,0,0:0:0:0:
40,288,263239,6,0,B|72:328|72:328|104:288,1,95.9999970703126,8|0,0:0|0:0,0:0:0:0:
240,192,263563,2,0,L|352:192,1,95.9999970703126
440,280,263887,2,0,P|480:192|440:104,1,191.999994140625,8|0,0:0|0:0,0:0:0:0:
304,48,264374,1,0,0:0:0:0:
272,40,264455,1,0,0:0:0:0:
240,32,264536,2,0,L|144:32,1,95.9999970703126,8|0,0:0|0:0,0:0:0:0:
32,120,264860,6,0,P|88:144|144:144,1,95.9999970703126
296,160,265185,2,0,L|216:216,1,95.9999970703126,8|0,0:0|0:0,0:0:0:0:
104,296,265509,2,0,L|296:304,1,191.999994140625,0|8,0:0|0:0,0:0:0:0:
424,280,266158,5,8,0:0:0:0:
272,192,266320,1,0,0:0:0:0:
272,192,266482,2,0,L|384:184,1,95.9999970703126,0|8,0:0|0:0,0:0:0:0:
480,128,266806,2,0,P|424:96|376:88,1,95.9999970703126
256,72,267131,1,14,0:0:0:0:
256,72,267455,5,8,0:0:0:0:
232,240,267617,1,0,0:0:0:0:
232,240,267779,2,0,L|120:232,1,95.9999970703126,0|8,0:0|0:0,0:0:0:0:
24,168,268104,2,0,P|88:144|136:144,1,95.9999970703126
256,136,268428,1,14,0:0:0:0:
256,136,268752,5,8,0:0:0:0:
376,272,268914,1,0,0:0:0:0:
376,272,269077,2,0,L|376:176,1,95.9999970703126,0|8,0:0|0:0,0:0:0:0:
416,80,269401,2,0,P|376:40|336:24,1,95.9999970703126
200,24,269725,1,14,0:0:0:0:
200,24,270050,2,0,B|160:120|160:120|200:104|272:104|312:120,1,239.999992675781
256,192,271023,12,0,274590,0:0:0:0:
