osu file format v14

[General]
AudioFilename: audio.mp3
AudioLeadIn: 0
PreviewTime: 53121
Countdown: 1
SampleSet: Normal
StackLeniency: 0.7
Mode: 0
LetterboxInBreaks: 0
WidescreenStoryboard: 0

[Editor]
Bookmarks: 7964,9214,10464,15464,20464,22964,32964,37964,44214,49214,54214,64214,74214,79214,84214
DistanceSpacing: 1.5
BeatDivisor: 4
GridSize: 8
TimelineZoom: 1.4

[Metadata]
Title:Blow out ( TV size )
TitleUnicode:Blow out ( TV size )
Artist:Konomi Suzuki
ArtistUnicode:Konomi Suzuki
Creator:[ Same ]
Version:Extra
Source:Rokudenashi Majutsu Koushi to Akashic Records
Tags:
BeatmapID:1278590
BeatmapSetID:605168

[Difficulty]
HPDrainRate:6
CircleSize:4
OverallDifficulty:8
ApproachRate:9.2
SliderMultiplier:1.92
SliderTickRate:1

[Events]
//Background and Video events
0,0,"stretched-1366-768-819674.png",0,0
//Break Periods
//Storyboard Layer 0 (Background)
//Storyboard Layer 1 (Fail)
//Storyboard Layer 2 (Pass)
//Storyboard Layer 3 (Foreground)
//Storyboard Sound Samples

[TimingPoints]
7964.77272248904,312.5,4,1,1,70,1,0
9214,-66.6666666666667,4,1,1,70,0,0
10074,-66.6666666666667,4,2,1,5,0,0
10152,-100,4,2,1,5,0,0
10464,-100,4,2,1,70,0,0
22964,-111.111111111111,4,2,1,100,0,0
30464,-66.6666666666667,4,2,1,100,0,0
30777,-111.111111111111,4,2,1,100,0,0
32964,-66.6666666666667,4,2,1,100,0,0
37808,-111.111111111111,4,2,1,100,0,0
38121,-66.6666666666667,4,2,1,100,0,0
40464,-111.111111111111,4,2,1,100,0,0
40621,-66.6666666666667,4,2,1,100,0,0
43433,-111.111111111111,4,3,1,100,0,0
53121,-111.111111111111,4,2,1,100,0,0
53902,-66.6666666666667,4,2,1,100,0,0
54214,-83.3333333333333,4,2,1,100,0,1
54527,-66.6666666666667,4,2,1,100,0,1
59058,-111.111111111111,4,2,1,100,0,1
59371,-66.6666666666667,4,2,1,100,0,1
62496,-111.111111111111,4,2,1,100,0,1
63589,-83.3333333333333,4,2,1,100,0,0
64214,-142.857142857143,4,2,1,100,0,0
64683,-66.6666666666667,4,2,1,100,0,1
72261,-111.111111111111,4,2,1,100,0,0

[HitObjects]
186,158,7808,5,0,3:0:0:0:
186,158,7964,1,0,3:0:0:0:
198,112,9214,6,0,B|219:89|260:86|315:110|315:110|247:132|230:195,1,216.000008239746
159,272,9527,2,0,B|126:191|122:118|122:118|109:152|82:169,1,216.000008239746
72,301,9839,2,0,B|143:364|143:364|267:348,1,216.000008239746
271,322,10152,2,0,B|305:282|305:282|384:275,1,96
410,162,10464,6,0,P|404:100|321:45,1,144
302,63,10777,1,0,0:0:0:0:
167,116,10933,1,0,0:0:0:0:
282,206,11089,2,0,P|352:225|397:275,2,96
329,138,11558,5,0,0:0:0:0:
275,339,11714,1,0,0:0:0:0:
399,218,11871,1,0,0:0:0:0:
202,269,12027,1,0,0:0:0:0:
398,177,12183,1,0,0:0:0:0:
312,80,12339,2,0,P|243:58|210:63,1,96
87,69,12652,1,0,0:0:0:0:
200,120,12808,1,0,0:0:0:0:
54,194,12964,6,0,B|87:191|87:191|113:207|113:207|146:194|179:181|221:214,1,144
295,283,13277,2,0,L|188:308,1,96
90,284,13589,1,0,0:0:0:0:
259,351,13746,1,0,0:0:0:0:
182,181,13902,2,0,L|205:73,1,96
376,144,14214,5,0,0:0:0:0:
46,246,14527,1,0,0:0:0:0:
223,41,14839,1,0,0:0:0:0:
310,293,15152,1,0,0:0:0:0:
112,147,15464,6,0,L|148:295,1,144
185,285,15777,2,0,P|242:259|305:265,1,96
468,287,16089,2,0,P|411:261|348:267,1,96
248,217,16402,1,0,0:0:0:0:
364,64,16558,1,0,0:0:0:0:
181,38,16714,2,0,B|133:68|133:68|125:192,1,144
140,208,17027,5,0,0:0:0:0:
41,134,17183,1,0,0:0:0:0:
280,216,17339,2,0,L|296:160,1,48
256,104,17496,2,0,P|336:96|368:120,1,96
172,125,17808,1,0,0:0:0:0:
299,280,17964,6,0,B|341:279|361:268|361:268|314:253|263:191,1,144
244,226,18277,2,0,P|181:218|119:232,1,96
149,222,18511,1,0,0:0:0:0:
149,222,18589,1,0,0:0:0:0:
87,106,18746,1,0,0:0:0:0:
87,106,18902,5,0,0:0:0:0:
256,106,19058,1,0,0:0:0:0:
72,200,19214,1,0,0:0:0:0:
186,318,19371,2,0,P|137:306|109:304,2,48
320,240,19683,5,0,0:0:0:0:
158,32,19839,1,0,0:0:0:0:
176,217,19996,1,0,0:0:0:0:
401,137,20152,1,0,0:0:0:0:
106,135,20308,1,0,0:0:0:0:
343,324,20464,1,0,0:0:0:0:
237,163,20933,5,0,0:0:0:0:
237,163,21402,1,0,0:0:0:0:
375,109,21714,5,0,0:0:0:0:
347,234,22027,5,0,0:0:0:0:
347,234,22183,1,0,0:0:0:0:
224,268,22339,5,0,0:0:0:0:
176,262,22417,1,0,0:0:0:0:
128,257,22495,1,0,0:0:0:0:
48,162,22652,1,0,0:0:0:0:
193,178,22808,1,0,0:0:0:0:
126,40,22964,6,0,B|141:59|141:59|132:149,1,86.3999973632813
115,276,23277,2,0,P|179:276|224:280,1,86.3999973632813
201,277,23511,1,0,0:0:0:0:
201,277,23589,1,0,0:0:0:0:
298,182,23746,1,0,0:0:0:0:
146,169,23902,6,0,P|130:140|133:109,1,43.1999986816407
160,28,24058,2,0,P|137:52|131:86,1,43.1999986816407
208,100,24214,2,0,P|263:105|336:106,1,86.3999973632813
402,190,24527,1,0,0:0:0:0:
303,238,24683,1,0,0:0:0:0:
303,238,24761,1,0,0:0:0:0:
303,238,24839,6,0,L|198:224,1,86.3999973632813
127,138,25152,2,0,L|98:198,1,43.1999986816407
55,282,25308,2,0,L|82:229,1,43.1999986816407
178,223,25464,2,0,P|237:208|296:298,1,172.799994726563
350,315,25855,1,0,0:0:0:0:
371,277,25933,1,0,0:0:0:0:
382,236,26011,1,0,0:0:0:0:
381,193,26089,5,0,0:0:0:0:
326,58,26246,1,0,0:0:0:0:
232,173,26402,1,0,0:0:0:0:
232,173,26480,1,0,0:0:0:0:
232,173,26558,1,0,0:0:0:0:
232,173,26636,1,0,0:0:0:0:
232,173,26714,2,0,P|239:225|179:179,1,172.799994726563
251,44,27183,5,0,0:0:0:0:
251,44,27261,1,0,0:0:0:0:
251,44,27339,2,0,B|316:60|316:60|343:93,1,86.3999973632813
226,143,27652,1,0,0:0:0:0:
134,78,27808,5,0,0:0:0:0:
134,78,27964,2,0,P|105:155|101:195,1,86.3999973632813
95,302,28276,2,0,L|163:264,1,43.1999986816407
254,277,28433,2,0,L|186:239,1,43.1999986816407
139,172,28589,2,0,P|212:144|252:143,1,86.3999973632813
361,126,28902,1,0,0:0:0:0:
361,126,29058,1,0,0:0:0:0:
238,40,29214,6,0,L|120:64,1,86.3999973632813
78,126,29527,1,0,0:0:0:0:
74,168,29605,1,0,0:0:0:0:
84,210,29683,1,0,0:0:0:0:
91,252,29761,1,0,0:0:0:0:
75,295,29839,2,0,P|131:282|188:290,1,86.3999973632813
345,288,30152,2,0,P|271:280|230:286,1,86.3999973632813
157,164,30464,6,0,P|235:160|314:168,1,144.000005493164
423,226,30777,1,0,0:0:0:0:
431,184,30855,1,0,0:0:0:0:
420,142,30933,1,0,0:0:0:0:
409,100,31011,1,0,0:0:0:0:
419,59,31089,5,0,0:0:0:0:
383,83,31167,1,0,0:0:0:0:
342,95,31245,1,0,0:0:0:0:
299,93,31323,1,0,0:0:0:0:
252,82,31402,1,0,0:0:0:0:
210,71,31480,1,0,0:0:0:0:
167,59,31558,1,0,0:0:0:0:
122,65,31636,1,0,0:0:0:0:
92,102,31714,1,0,0:0:0:0:
249,203,32652,5,0,0:0:0:0:
249,203,32730,1,0,0:0:0:0:
249,203,32808,1,0,0:0:0:0:
309,240,32964,6,0,B|322:296|374:347|374:347|371:306|375:251,1,216.000008239746
316,77,33277,2,0,B|268:51|268:51|179:79,1,144.000005493164
46,123,33589,1,0,0:0:0:0:
152,246,33746,1,0,0:0:0:0:
203,93,33902,1,0,0:0:0:0:
46,123,34058,2,0,B|28:177|28:177|64:285|111:333,1,216.000008239746
146,317,34371,1,0,0:0:0:0:
361,293,34527,6,0,P|281:264|215:264,1,144.000005493164
100,223,34839,1,0,0:0:0:0:
322,171,34996,1,0,0:0:0:0:
90,164,35152,2,0,P|66:157|128:90,1,144.000005493164
225,86,35464,2,0,B|286:68|343:101|380:126|456:83,1,216.000008239746
466,128,35777,2,0,P|500:200|469:283,1,144.000005493164
390,337,36089,5,0,0:0:0:0:
397,155,36246,1,0,0:0:0:0:
233,238,36402,1,0,0:0:0:0:
410,82,36558,1,0,0:0:0:0:
163,75,36714,2,0,B|103:89|103:89|73:127|61:211,1,144.000005493164
140,339,37027,2,0,P|85:264|79:209,2,144.000005493164
319,318,37496,1,0,0:0:0:0:
388,113,37652,2,0,P|366:193|303:226,1,144.000005493164
280,217,37886,5,0,0:0:0:0:
236,215,37964,1,0,0:0:0:0:
193,214,38042,1,0,0:0:0:0:
150,213,38120,1,0,0:0:0:0:
112,57,38277,6,0,B|79:91|79:91|60:188,1,144.000005493164
58,310,38589,1,0,0:0:0:0:
225,268,38746,1,0,0:0:0:0:
183,105,38902,1,0,0:0:0:0:
58,310,39058,2,0,L|205:277,1,144.000005493164
183,105,39371,5,0,0:0:0:0:
58,310,39527,1,0,0:0:0:0:
225,268,39683,1,0,0:0:0:0:
390,312,39839,2,0,B|414:274|414:274|419:156,1,144.000005493164
271,40,40152,2,0,L|298:194,1,144.000005493164
196,317,40464,1,0,0:0:0:0:
202,274,40542,1,0,0:0:0:0:
207,228,40621,6,0,P|117:245|46:217,1,144.000005493164
81,76,40933,1,0,0:0:0:0:
228,138,41089,1,0,0:0:0:0:
68,233,41246,1,0,0:0:0:0:
148,58,41402,2,0,P|231:48|317:62,1,144.000005493164
366,194,41714,2,0,P|321:118|419:35,1,216.000008239746
438,57,42027,5,0,0:0:0:0:
400,289,42183,1,0,0:0:0:0:
251,93,42339,5,0,0:0:0:0:
357,324,42496,1,0,0:0:0:0:
90,168,42652,5,0,0:0:0:0:
326,372,42808,1,0,0:0:0:0:
37,341,42964,6,0,B|91:313|91:313|132:335|199:339|257:321,1,216.000008239746
264,293,43277,2,0,P|312:279|419:288,1,144.000005493164
447,316,43511,1,0,0:0:0:0:
458,274,43589,1,0,0:0:0:0:
461,231,43667,1,0,0:0:0:0:
456,188,43745,1,0,0:0:0:0:
446,146,43823,1,0,0:0:0:0:
438,104,43901,1,0,0:0:0:0:
438,60,43979,1,0,0:0:0:0:
451,17,44058,1,0,0:0:0:0:
475,52,44136,1,0,0:0:0:0:
485,98,44214,6,0,L|319:81,1,129.599996044922
272,152,44527,2,0,L|375:184,1,86.3999973632813
135,239,44996,1,0,0:0:0:0:
93,50,45308,1,0,0:0:0:0:
135,239,45464,6,0,B|199:261|199:261|235:256,1,86.3999973632813
366,156,45777,1,0,0:0:0:0:
366,156,45933,2,0,P|432:138|360:106,1,172.799994726563
254,93,46402,2,0,P|186:91|145:73,2,86.3999973632813
71,196,47027,5,0,0:0:0:0:
199,256,47183,2,0,B|334:237|334:237|281:222,1,172.799994726563
152,167,47808,1,0,0:0:0:0:
170,342,47964,2,0,P|248:315|284:322,1,86.3999973632813
337,304,48277,1,0,0:0:0:0:
399,222,48433,2,0,P|374:155|389:68,1,129.599996044922
406,72,48746,5,0,0:0:0:0:
163,82,48902,1,0,0:0:0:0:
419,238,49058,1,0,0:0:0:0:
165,246,49214,2,0,P|225:290|299:300,1,129.599996044922
316,272,49527,5,0,0:0:0:0:
161,68,49683,1,0,0:0:0:0:
194,330,49839,5,0,0:0:0:0:
335,53,49996,1,0,0:0:0:0:
320,331,50152,5,0,0:0:0:0:
222,54,50308,1,0,0:0:0:0:
95,282,50464,6,0,B|105:222|105:222|101:174,1,86.3999973632813
97,153,50699,1,0,0:0:0:0:
59,132,50777,1,0,0:0:0:0:
42,94,50855,1,0,0:0:0:0:
53,53,50933,1,0,0:0:0:0:
86,27,51011,1,0,0:0:0:0:
128,31,51089,1,0,0:0:0:0:
160,59,51167,1,0,0:0:0:0:
199,76,51245,1,0,0:0:0:0:
242,82,51323,1,0,0:0:0:0:
284,74,51401,1,0,0:0:0:0:
322,54,51479,1,0,0:0:0:0:
358,25,51558,2,0,P|381:75|385:138,1,86.3999973632813
155,118,52027,5,0,0:0:0:0:
458,246,52183,1,0,0:0:0:0:
284,27,52339,1,0,0:0:0:0:
329,337,52496,1,0,0:0:0:0:
436,92,52652,1,0,0:0:0:0:
177,272,52808,1,0,0:0:0:0:
284,27,52964,1,0,0:0:0:0:
458,246,53121,1,0,0:0:0:0:
358,295,53433,5,0,0:0:0:0:
358,295,53589,2,0,P|297:264|209:271,1,129.599996044922
134,263,53902,2,0,P|99:212|205:133,1,216.000008239746
321,150,54214,6,0,B|395:122|395:122|321:111|244:66,1,230.39999296875
100,51,54683,1,0,0:0:0:0:
58,202,54839,2,4,L|98:272,1,72.0000027465821,0|4,0:0|0:0,0:0:0:0:
110,131,54996,1,0,0:0:0:0:
251,255,55152,1,4,0:0:0:0:
307,121,55308,1,0,0:0:0:0:
113,34,55464,6,4,L|189:27,1,72.0000027465821,0|4,0:0|0:0,0:0:0:0:
238,96,55621,2,0,P|269:50|375:51,1,144.000005493164
328,275,55933,2,0,P|365:197|352:132,1,144.000005493164
99,270,56246,2,0,P|187:260|262:280,1,144.000005493164
262,189,56558,2,0,P|234:150|197:139,1,72.0000027465821
211,20,56714,2,0,P|182:63|185:118,1,72.0000027465821
18,162,56871,2,0,P|99:134|170:148,1,144.000005493164
386,246,57183,2,0,P|309:279|227:258,1,144.000005493164
308,163,57496,6,0,P|338:142|374:132,1,72.0000027465821
230,94,57652,1,0,0:0:0:0:
33,43,57808,1,0,0:0:0:0:
60,217,57965,1,0,0:0:0:0:
130,44,58121,1,0,0:0:0:0:
130,44,58199,1,0,0:0:0:0:
130,44,58277,1,0,0:0:0:0:
348,195,58434,1,0,0:0:0:0:
165,153,58590,1,0,0:0:0:0:
270,31,58746,6,0,P|367:58|407:89,1,144.000005493164
409,256,59058,1,0,0:0:0:0:
373,280,59136,1,0,0:0:0:0:
332,294,59214,1,0,0:0:0:0:
289,297,59292,1,0,0:0:0:0:
244,291,59371,6,0,P|176:273|95:299,1,144.000005493164
239,185,59683,1,0,0:0:0:0:
114,1,59839,1,0,0:0:0:0:
62,199,59996,1,0,0:0:0:0:
290,129,60152,1,0,0:0:0:0:
50,68,60308,1,0,0:0:0:0:
285,55,60464,6,0,P|366:71|461:52,1,144.000005493164
224,180,60777,2,0,P|149:191|68:169,1,144.000005493164
83,176,61011,1,0,0:0:0:0:
83,176,61089,1,0,0:0:0:0:
191,331,61246,1,0,0:0:0:0:
383,265,61402,1,0,0:0:0:0:
189,200,61558,1,0,0:0:0:0:
369,29,61714,6,0,P|388:113|348:236,1,216.000008239746
287,188,62027,2,0,P|197:170|129:200,1,144.000005493164
158,302,62339,5,0,0:0:0:0:
403,166,62496,1,0,0:0:0:0:
362,152,62574,1,0,0:0:0:0:
321,163,62652,1,0,0:0:0:0:
109,166,62808,1,0,0:0:0:0:
149,152,62886,1,0,0:0:0:0:
190,163,62964,1,0,0:0:0:0:
253,322,63121,5,0,0:0:0:0:
288,43,63277,1,0,0:0:0:0:
253,322,63433,1,0,0:0:0:0:
395,91,63589,6,0,L|412:298,1,172.799994726563
288,195,63902,2,0,P|219:131|159:218,1,172.799994726563
232,311,64214,2,0,B|310:300|310:300|378:225,1,167.999994873047
259,198,64683,6,0,P|217:138|294:187,1,216.000008239746
305,306,64996,2,0,P|210:283|132:311,1,144.000005493164
169,62,65308,2,0,P|179:169|144:217,1,144.000005493164
326,133,65621,2,0,P|381:126|427:151,1,72.0000027465821
296,218,65777,1,0,0:0:0:0:
105,218,65933,5,0,0:0:0:0:
239,15,66089,1,0,0:0:0:0:
249,270,66246,1,0,0:0:0:0:
169,29,66402,1,0,0:0:0:0:
139,281,66558,2,0,L|121:198,1,72.0000027465821
246,326,66714,6,0,P|347:322|394:295,1,144.000005493164
241,168,67027,2,0,P|226:86|300:19,1,144.000005493164
446,109,67339,1,0,0:0:0:0:
347,315,67496,1,0,0:0:0:0:
229,83,67652,1,0,0:0:0:0:
96,312,67808,1,0,0:0:0:0:
70,55,67964,6,0,P|51:160|65:219,1,144.000005493164
125,247,68199,1,0,0:0:0:0:
125,247,68277,1,0,0:0:0:0:
290,294,68433,2,0,P|368:280|446:315,1,144.000005493164
375,168,68746,1,0,0:0:0:0:
192,277,68902,1,0,0:0:0:0:
83,58,69058,1,0,0:0:0:0:
78,87,69136,1,0,0:0:0:0:
75,120,69214,2,0,B|160:152|160:152|296:104,1,216.000008239746
344,45,69527,5,0,0:0:0:0:
382,309,69683,1,0,0:0:0:0:
238,48,69839,5,0,0:0:0:0:
195,319,69996,1,0,0:0:0:0:
366,133,70152,5,0,0:0:0:0:
172,114,70308,1,0,0:0:0:0:
47,226,70464,2,0,P|54:137|89:224,1,216.000008239746
120,312,70777,5,0,0:0:0:0:
441,197,70933,1,0,0:0:0:0:
179,57,71089,5,0,0:0:0:0:
336,335,71246,1,0,0:0:0:0:
95,103,71402,5,0,0:0:0:0:
253,213,71558,1,0,0:0:0:0:
397,58,71714,2,0,B|345:101|309:66|272:43|179:70,1,216.000008239746
183,124,72027,2,0,P|200:178|125:168,1,144.000005493164
108,141,72261,5,0,0:0:0:0:
69,123,72339,1,0,0:0:0:0:
51,85,72417,1,0,0:0:0:0:
63,45,72495,1,0,0:0:0:0:
98,22,72573,1,0,0:0:0:0:
139,28,72652,1,0,0:0:0:0:
167,60,72730,1,0,0:0:0:0:
204,82,72808,1,0,0:0:0:0:
433,55,72964,5,0,0:0:0:0:
252,335,73277,1,0,0:0:0:0:
118,46,73589,1,0,0:0:0:0:
390,282,73902,1,0,0:0:0:0:
390,282,74214,6,0,P|313:251|232:266,1,129.599996044922
234,215,74527,1,0,0:0:0:0:
146,282,74683,1,0,0:0:0:0:
47,191,74839,2,0,P|114:169|170:169,1,86.3999973632813
326,151,75152,2,0,P|229:157|206:162,1,86.3999973632813
151,40,75464,6,0,L|141:174,1,129.599996044922
233,234,75777,2,0,L|213:146,1,86.3999973632813
323,67,76089,2,0,B|376:85|376:85|414:144,1,86.3999973632813
403,246,76402,1,0,0:0:0:0:
244,137,76558,1,0,0:0:0:0:
256,322,76714,2,0,L|114:292,1,129.599996044922
119,253,77027,5,0,0:0:0:0:
119,44,77183,1,0,0:0:0:0:
38,215,77339,2,0,P|84:177|145:164,1,86.3999973632813
262,223,77652,2,0,P|221:260|179:278,1,86.3999973632813
101,71,77964,5,0,0:0:0:0:
401,151,78277,1,0,0:0:0:0:
109,282,78589,1,0,0:0:0:0:
296,26,78902,1,0,0:0:0:0:
298,297,79214,6,0,B|319:192|319:192|281:227,1,129.599996044922
219,264,79527,2,0,P|177:305|135:300,1,86.3999973632813
61,109,79996,1,0,0:0:0:0:
199,77,80152,1,0,0:0:0:0:
319,144,80308,1,0,0:0:0:0:
429,60,80464,2,0,P|374:49|315:57,1,86.3999973632813
242,60,80777,5,0,0:0:0:0:
188,175,80933,1,0,0:0:0:0:
261,283,81089,1,0,0:0:0:0:
261,283,81246,2,0,P|194:309|144:306,1,86.3999973632813
60,140,81558,1,0,0:0:0:0:
256,48,81714,6,0,L|109:68,1,129.599996044922
115,109,82027,5,0,0:0:0:0:
161,265,82183,2,0,P|101:273|169:320,2,172.799994726563
266,278,82964,2,0,B|303:298|339:286|370:263|422:295,1,129.599996044922
437,257,83277,1,0,0:0:0:0:
382,147,83433,1,0,0:0:0:0:
281,88,83589,2,0,L|215:73,1,43.1999986816407
349,214,83746,5,0,0:0:0:0:
25,124,83902,1,0,0:0:0:0:
349,214,84058,1,0,0:0:0:0:
25,124,84214,2,0,L|207:106,1,172.799994726563
205,213,84683,2,0,L|383:223,1,172.799994726563
406,66,85152,1,0,0:0:0:0:
441,256,85308,1,0,0:0:0:0:
333,92,85464,6,0,P|269:102|213:82,1,86.3999973632813
86,64,85777,1,0,0:0:0:0:
86,64,85933,2,0,L|72:168,1,86.3999973632813
166,309,86246,2,0,L|151:199,1,86.3999973632813
249,71,86558,1,0,0:0:0:0:
253,283,86714,6,0,B|292:277|305:248|305:248|310:224|310:224|360:209|388:163,1,172.799994726563
434,46,87183,1,0,0:0:0:0:
434,46,87339,2,0,P|360:71|325:70,1,86.3999973632813
192,67,87652,2,0,P|116:66|82:80,1,86.3999973632813
61,197,87964,1,0,0:0:0:0:
61,197,88121,1,0,0:0:0:0:
181,293,88277,6,0,P|123:295|75:308,1,86.3999973632813
356,229,88589,2,0,P|316:260|293:292,2,86.3999973632813
409,67,89058,1,0,0:0:0:0:
237,186,89214,1,0,0:0:0:0:
