osu file format v14

[General]
AudioFilename: audio.mp3
AudioLeadIn: 0
PreviewTime: 85969
Countdown: 0
SampleSet: Soft
StackLeniency: 0.3
Mode: 0
LetterboxInBreaks: 0
WidescreenStoryboard: 1

[Editor]
Bookmarks: 11870,20370,24755,26325,29719,42427,56385,69719,76385,79719,81385,86385,99719,111385,116385,128052,136385
DistanceSpacing: 1.2
BeatDivisor: 4
GridSize: 32
TimelineZoom: 2.6

[Metadata]
Title:ALKATALE (Game Size)
TitleUnicode:アルカテイル (Game Size)
Artist:Konomi Suzuki
ArtistUnicode:鈴木このみ
Creator:Daoski
Version:DeviousPanda's Insane
Source:Summer Pockets
Tags:alka tale short ver visualarts key galgame opening op kai 魁 orito shinji 折戸伸治 nakayama masato 中山真斗 deviouspanda kondou shinichi mohab500 m3gb3g
BeatmapID:1740101
BeatmapSetID:828480

[Difficulty]
HPDrainRate:4
CircleSize:4
OverallDifficulty:6
ApproachRate:8.5
SliderMultiplier:1.44
SliderTickRate:1

[Events]
//Background and Video events
0,0,"bg.jpg",0,0
//Break Periods
2,79919,81260
//Storyboard Layer 0 (Background)
//Storyboard Layer 1 (Fail)
//Storyboard Layer 2 (Pass)
//Storyboard Layer 3 (Foreground)
//Storyboard Sound Samples

[TimingPoints]
10370,500,4,2,1,30,1,0
10370,-81.7,4,2,1,30,0,0
12370,500,4,2,1,30,1,0
12370,-81.7,4,2,1,30,0,0
19370,-99.009900990099,4,2,1,30,0,0
20370,-81.7,4,2,1,30,0,0
22370,-133.333333333333,4,2,1,30,0,0
23620,612.244897959184,4,2,1,30,1,0
23620,-81.7,4,2,1,30,0,0
24538,434.782608695652,4,2,1,30,1,0
24538,-81.7,4,2,1,30,0,0
24755,530.973451327434,4,2,1,30,1,0
24755,-81.7,4,2,1,30,0,0
25020,365.853658536585,4,2,1,30,1,0
25020,-81.7,4,2,1,30,0,0
25202,329.67032967033,4,2,1,30,1,0
25202,-81.7,4,2,1,30,0,0
25861,428.571428571429,4,2,1,30,1,0
25861,-81.7,4,2,1,30,0,0
26075,500,4,2,1,30,1,0
26075,-81.7,4,2,1,30,0,0
26325,425.531914893617,4,2,1,30,1,0
26325,-81.7,4,2,1,30,0,0
26431,-81.7,4,2,1,30,0,0
29303,416.666666666667,4,2,1,60,1,0
29303,-121.951219512195,4,2,1,60,0,0
29719,416.666666666667,4,2,1,60,1,0
29719,-66.6666666666667,4,2,1,60,0,0
34302,-133.333333333333,4,2,1,60,0,0
34719,-66.6666666666667,4,2,1,60,0,0
43052,-100,4,2,1,50,0,0
55552,-133.333333333333,4,2,1,50,0,0
56385,-66.6666666666667,4,2,1,50,0,0
84510,-500,4,2,1,50,0,0
85135,-66.6666666666667,4,2,1,50,0,0
85969,-40,4,2,1,80,0,0
86385,-50,4,2,1,80,0,1
96385,-45.4545454545455,4,2,1,80,0,1
98677,-66.6666666666667,4,2,1,80,0,1
99302,-40,4,2,1,80,0,1
99719,-50,4,2,1,80,0,1
111385,-66.6666666666667,4,2,1,80,0,0
113052,-50,4,2,1,80,0,1
116385,-66.6666666666667,4,2,1,60,0,0
120969,-133.333333333333,4,2,1,60,0,0
121385,-66.6666666666667,4,2,1,60,0,0
128052,-50,4,2,1,60,0,0
136385,-50,4,2,1,5,0,0

[Colours]
Combo1 : 255,215,121
Combo2 : 108,255,108
Combo3 : 138,170,255
Combo4 : 255,108,146

[HitObjects]
117,217,11870,6,0,P|181:228|224:207,1,88.1272982734782,0|0,0:0|0:0,0:0:0:0:
245,152,12370,2,0,P|367:125|280:239,1,352.509193093913,0|0,0:0|0:0,0:0:0:0:
217,300,13870,6,0,P|194:262|199:219,1,88.1272982734782,0|0,0:0|0:0,0:0:0:0:
245,152,14370,2,0,P|213:19|143:83,1,264.381894820435,0|0,0:0|0:0,0:0:0:0:
150,58,15620,5,0,0:0:0:0:
315,175,15870,2,0,L|437:156,1,88.1272982734782,0|0,0:0|0:0,0:0:0:0:
472,201,16370,1,0,0:0:0:0:
288,261,16620,2,0,P|224:207|242:125,1,176.254596546956,0|0,0:0|0:0,0:0:0:0:
242,125,17620,5,0,0:0:0:0:
100,81,17870,2,0,L|4:89,1,88.1272982734782,0|0,0:0|0:0,0:0:0:0:
111,321,18370,5,0,0:0:0:0:
192,292,18620,1,0,0:0:0:0:
211,208,18870,2,0,P|192:161|130:144,1,88.1272982734782,0|0,0:0|0:0,0:0:0:0:
147,150,19245,1,0,0:0:0:0:
132,157,19370,2,0,P|82:159|19:88,1,145.43999711499,0|0,0:0|0:0,0:0:0:0:
109,71,20120,5,0,0:0:0:0:
1,215,20370,2,0,L|12:312,2,88.1272982734782,0|0|0,0:0|0:0|0:0,0:0:0:0:
20,93,21120,2,0,L|51:382,1,264.381894820435,0|0,0:0|0:0,0:0:0:0:
251,355,22120,5,0,0:0:0:0:
201,293,22370,2,0,P|165:285|126:293,2,54.0000020599366,0|0|0,0:0|0:0|0:0,0:0:0:0:
251,355,23120,2,0,P|319:368|361:333,1,108.000004119873,0|0,0:0|0:0,0:0:0:0:
328,168,23926,6,0,P|325:222|343:261,1,88.1272982734782,0|0,0:0|0:0,0:0:0:0:
424,305,24538,5,0,0:0:0:0:
424,305,24646,1,0,0:0:0:0:
424,305,24755,2,0,L|526:314,1,88.1272982734782,0|0,0:0|0:0,0:0:0:0:
328,168,25202,5,0,0:0:0:0:
328,168,25366,2,0,L|228:174,2,88.1272982734782,0|0|0,0:0|0:0|0:0,0:0:0:0:
459,179,25861,5,0,0:0:0:0:
481,102,26075,5,0,0:0:0:0:
414,0,26325,5,0,0:0:0:0:
256,192,26431,12,8,29303,0:1:0:0:
452,245,29719,6,0,P|379:203|275:241,1,162.00000617981,4|0,1:0|0:0,0:0:0:0:
279,230,30135,2,0,P|296:174|275:112,1,108.000004119873,8|0,0:1|0:0,0:0:0:0:
217,89,30552,1,0,1:0:0:0:
328,56,30760,1,0,0:0:0:0:
195,179,30969,2,0,B|128:197|142:150|68:167,1,108.000004119873,8|0,0:1|0:0,0:0:0:0:
77,167,31281,1,0,0:0:0:0:
62,171,31385,6,0,B|118:201|152:164|191:137|249:195,1,162.00000617981,0|0,1:0|0:0,0:0:0:0:
241,185,31802,2,0,P|271:237|254:303,1,108.000004119873,8|0,0:1|0:0,0:0:0:0:
207,339,32219,1,0,1:0:0:0:
340,321,32427,1,0,0:0:0:0:
171,253,32635,2,0,P|141:201|158:135,1,108.000004119873,8|0,0:1|0:0,0:0:0:0:
154,142,32948,1,8,0:1:0:0:
163,129,33052,6,0,P|166:41|112:-2,1,162.00000617981,0|0,1:0|0:0,0:0:0:0:
83,0,33469,2,0,P|49:34|45:91,1,108.000004119873,8|0,0:1|0:0,0:0:0:0:
241,185,33885,2,0,L|414:162,1,162.00000617981,0|0,1:0|0:0,0:0:0:0:
367,154,34302,6,0,L|277:166,1,81.0000030899049,8|0,0:1|0:0,0:0:0:0:
230,225,34719,6,0,P|207:273|212:332,1,108.000004119873,0|0,1:0|0:0,0:0:0:0:
221,344,35031,1,0,0:0:0:0:
235,356,35135,2,0,P|286:370|369:327,1,108.000004119873,8|0,0:1|0:0,0:0:0:0:
368,155,35552,2,0,L|184:140,2,162.00000617981,0|0|0,1:0|0:0|0:0,0:0:0:0:
386,151,36281,1,8,0:1:0:0:
403,148,36385,6,0,P|418:87|357:5,1,162.00000617981,4|0,1:2|0:0,0:0:0:0:
339,14,36802,2,0,P|272:16|216:-23,1,108.000004119873,8|0,0:1|0:0,0:0:0:0:
264,189,37219,1,0,1:0:0:0:
315,97,37427,1,0,0:0:0:0:
148,152,37635,2,0,P|140:200|161:264,1,108.000004119873,8|0,0:1|0:0,0:0:0:0:
173,262,37948,1,0,0:0:0:0:
191,266,38052,6,0,P|250:247|347:277,1,162.00000617981,0|0,1:0|0:0,0:0:0:0:
366,294,38469,2,0,P|417:311|475:289,1,108.000004119873,8|0,0:1|0:0,0:0:0:0:
511,188,38885,2,0,P|500:135|452:96,1,108.000004119873,0|0,1:0|0:0,0:0:0:0:
347,116,39302,2,0,P|306:151|296:212,1,108.000004119873,8|0,0:1|0:0,0:0:0:0:
301,223,39614,1,8,0:1:0:0:
308,243,39719,6,0,P|306:306|215:370,1,162.00000617981,4|0,1:2|0:0,0:0:0:0:
202,366,40135,2,0,P|150:333|141:264,1,108.000004119873,8|0,0:1|0:0,0:0:0:0:
251,156,40552,5,0,1:0:0:0:
505,243,40760,1,0,1:0:0:0:
403,89,40969,1,8,0:1:0:0:
371,248,41177,6,0,P|362:273|360:300,1,54.0000020599366,4|0,1:0|0:0,0:0:0:0:
384,364,41385,6,0,B|336:291|366:237|417:204|417:204|530:138|546:-15|389:-75|268:1|298:124|350:159,1,648.000024719239,0|0,1:0|0:0,0:0:0:0:
283,246,42844,5,0,0:0:0:0:
254,239,42948,1,0,0:0:0:0:
227,234,43052,2,0,P|154:242|72:278,1,144,4|0,1:0|0:0,0:0:0:0:
28,217,43677,2,0,P|118:175|260:160,1,216,0|0,0:0|0:0,0:0:0:0:
232,158,44510,1,0,0:0:0:0:
48,0,44719,2,0,P|42:71|9:139,1,144,0|0,0:0|0:0,0:0:0:0:
58,195,45344,2,0,P|107:114|124:-7,1,216,0|0,0:0|0:0,0:0:0:0:
237,11,46177,5,0,0:0:0:0:
241,32,46281,1,0,0:0:0:0:
248,52,46385,2,0,P|276:92|363:124,1,144,0|0,0:0|0:0,0:0:0:0:
448,123,47010,2,0,P|386:103|288:124,1,144,0|0,0:0|0:0,0:0:0:0:
309,113,47635,1,0,0:0:0:0:
272,363,48052,2,0,P|282:303|267:247,2,108,0|0|0,0:0|0:0|0:0,0:0:0:0:
100,127,49510,5,0,0:0:0:0:
175,74,49719,2,0,B|255:63|224:123|321:111,1,144,0|0,0:0|0:0,0:0:0:0:
379,149,50344,2,0,P|324:136|234:174,1,144,0|0,0:0|0:0,0:0:0:0:
243,164,50969,1,0,0:0:0:0:
285,60,51177,1,0,0:0:0:0:
309,244,51385,2,0,P|235:263|164:220,1,144,0|0,0:0|0:0,0:0:0:0:
128,174,52010,2,0,P|148:241|207:279,1,144,0|0,0:0|0:0,0:0:0:0:
207,279,52635,1,0,0:0:0:0:
256,192,53052,12,0,54719,0:0:0:0:
115,55,55344,5,0,0:0:0:0:
64,119,55552,2,0,L|81:288,1,162.00000617981,0|0,0:0|0:0,0:0:0:0:
235,358,56385,6,0,P|208:297|264:196,1,162.00000617981,4|0,1:0|0:0,0:0:0:0:
263,189,56802,2,0,P|288:132|270:75,1,108.000004119873,8|0,0:1|0:0,0:0:0:0:
269,73,57114,1,0,0:0:0:0:
259,57,57219,6,0,L|390:34,1,108.000004119873,0|0,1:0|0:0,0:0:0:0:
511,170,57635,2,0,L|380:147,1,108.000004119873,0|0,1:0|0:0,0:0:0:0:
383,146,57948,1,0,0:0:0:0:
361,142,58052,6,0,P|299:193|298:254,1,108.000004119873,0|0,1:0|0:0,0:0:0:0:
376,384,58469,2,0,P|362:304|310:273,1,108.000004119873,0|0,1:0|0:0,0:0:0:0:
345,288,58885,1,0,1:0:0:0:
214,246,59094,1,0,0:0:0:0:
408,228,59302,1,8,0:1:0:0:
288,356,59510,1,0,0:0:0:0:
111,219,59719,6,0,P|149:165|250:149,1,162.00000617981,0|0,1:0|0:0,0:0:0:0:
270,156,60135,2,0,P|351:161|398:128,1,108.000004119873,8|0,0:1|0:0,0:0:0:0:
377,384,60552,6,0,P|371:318|291:253,1,162.00000617981,0|0,1:0|0:0,0:0:0:0:
270,250,60969,2,0,P|197:213|173:161,1,108.000004119873,0|0,1:0|0:0,0:0:0:0:
220,65,61385,2,0,L|331:59,1,108.000004119873,0|0,1:0|0:0,0:0:0:0:
351,57,61698,1,0,0:0:0:0:
374,56,61802,6,0,P|419:122|412:181,1,108.000004119873,0|0,1:0|0:0,0:0:0:0:
420,147,62219,1,0,1:0:0:0:
325,157,62427,1,0,0:0:0:0:
477,61,62635,1,8,0:1:0:0:
499,239,62844,1,0,0:0:0:0:
476,231,62948,1,0,0:0:0:0:
453,223,63052,6,0,P|449:285|470:337,1,108.000004119873,4|0,1:2|0:0,0:0:0:0:
464,327,63469,1,8,0:1:0:0:
512,165,63677,1,0,0:0:0:0:
355,248,63885,2,0,P|289:253|246:226,1,108.000004119873,0|0,1:0|0:0,0:0:0:0:
239,216,64198,1,0,0:0:0:0:
227,197,64302,2,0,P|168:171|99:194,1,108.000004119873,0|0,1:0|0:0,0:0:0:0:
171,384,64719,6,0,L|158:252,1,108.000004119873,0|0,1:0|0:0,0:0:0:0:
355,248,65135,2,0,L|368:116,1,108.000004119873,0|0,1:0|0:0,0:0:0:0:
261,19,65552,2,0,P|233:91|247:131,1,108.000004119873,0|0,1:0|0:0,0:0:0:0:
444,196,65969,2,0,P|469:245|448:312,1,108.000004119873,8|0,0:1|0:0,0:0:0:0:
447,311,66281,1,0,0:0:0:0:
429,324,66385,6,0,B|306:287|326:389|213:334,1,216.000008239746,0|8,1:0|0:1,0:0:0:0:
222,338,67010,1,0,0:0:0:0:
271,269,67219,2,0,P|291:212|172:98,1,216.000008239746,0|0,1:0|1:0,0:0:0:0:
204,99,67844,1,0,0:0:0:0:
303,18,68052,6,0,L|489:2,1,162.00000617981,0|0,1:0|0:0,0:0:0:0:
512,72,68469,5,8,1:0:0:0:
412,261,68885,5,0,1:0:0:0:
269,99,69302,5,0,1:0:0:0:
212,250,69719,6,0,B|292:225|329:292|329:292|352:344|420:348,1,216.000008239746,4|0,1:0|1:0,0:0:0:0:
386,342,70344,1,0,1:0:0:0:
412,260,70552,2,0,B|394:127|394:127|394:73|464:54,1,216.000008239746,0|0,1:0|1:0,0:0:0:0:
437,63,71177,1,0,1:0:0:0:
317,165,71385,6,0,L|138:146,1,162.00000617981,0|0,1:0|0:0,0:0:0:0:
72,160,71802,2,0,L|233:177,1,162.00000617981,12|0,1:0|0:0,0:0:0:0:
280,243,72219,1,0,1:0:0:0:
153,287,72427,1,8,0:1:0:0:
233,177,72635,1,0,1:0:0:0:
260,342,72844,1,0,1:0:0:0:
103,351,73052,6,0,B|53:315|65:239|112:212|112:212|149:184|148:138,1,216.000008239746,4|0,1:0|1:0,0:0:0:0:
142,171,73677,1,0,1:0:0:0:
153,287,73885,2,0,L|301:274,1,108.000004119873,0|0,1:0|0:0,0:0:0:0:
446,158,74302,2,0,L|298:145,1,108.000004119873,0|8,1:0|0:1,0:0:0:0:
316,147,74614,1,8,0:1:0:0:
293,145,74719,6,0,P|264:90|297:-3,1,162.00000617981,0|0,1:0|0:0,0:0:0:0:
321,0,75135,2,0,P|287:52|190:70,1,162.00000617981,0|0,1:0|0:0,0:0:0:0:
171,58,75552,5,0,1:0:0:0:
179,75,75969,1,0,1:0:0:0:
187,92,76385,1,0,1:0:0:0:
85,147,77844,5,0,0:0:0:0:
130,0,78052,1,0,1:0:0:0:
256,192,78156,12,0,79719,0:0:0:0:
246,28,82010,5,0,1:0:0:0:
277,23,82114,1,0,1:0:0:0:
308,19,82219,2,0,P|355:69|344:148,1,108.000004119873,0|0,1:0|1:0,0:0:0:0:
350,130,82531,1,0,0:0:0:0:
340,155,82635,2,0,P|327:226|362:279,1,108.000004119873,0|0,1:0|1:0,0:0:0:0:
415,306,83052,5,4,1:0:0:0:
240,178,83260,1,0,0:0:0:0:
240,178,83364,1,0,0:0:0:0:
240,178,83469,2,0,L|128:184,1,108.000004119873,8|8,1:0|1:0,0:0:0:0:
53,101,83781,1,0,0:0:0:0:
53,101,83885,2,0,L|165:107,1,108.000004119873,8|8,1:0|1:0,0:0:0:0:
227,66,84198,1,0,0:0:0:0:
291,24,84302,1,0,1:0:0:0:
73,286,84510,6,0,P|69:263|72:243,1,43.2,4|0,1:2|0:0,0:0:0:0:
178,180,85344,5,0,0:0:0:0:
178,180,85448,1,0,0:0:0:0:
178,180,85552,2,0,P|211:96|136:24,1,162.00000617981,0|0,0:0|0:0,0:0:0:0:
146,28,85969,6,0,P|56:41|33:150,1,180,8|0,0:0|0:0,0:0:0:0:
39,149,86281,1,0,0:0:0:0:
73,173,86385,6,0,L|338:157,1,216,4|0,1:0|0:0,0:0:0:0:
399,154,86802,2,0,L|167:168,1,216,8|0,0:1|0:0,0:0:0:0:
17,257,87219,6,0,L|190:248,1,144,0|0,1:0|0:0,0:0:0:0:
244,243,87531,1,0,0:0:0:0:
327,239,87635,2,0,L|478:231,1,144,8|0,0:1|0:0,0:0:0:0:
241,0,88052,6,0,P|174:75|238:221,1,216,0|0,1:0|0:0,0:0:0:0:
153,277,88469,2,0,P|173:178|45:84,1,216,8|0,0:1|0:0,0:0:0:0:
17,121,88885,5,0,1:0:0:0:
108,0,89094,1,0,0:0:0:0:
43,212,89302,1,8,0:1:0:0:
277,104,89510,1,0,0:0:0:0:
300,110,89614,1,8,0:1:0:0:
326,119,89719,6,0,B|401:137|401:137|240:170,1,216,0|0,1:0|0:0,0:0:0:0:
203,210,90135,2,0,B|128:192|128:192|289:159,1,216,8|0,0:1|0:0,0:0:0:0:
149,107,90552,6,0,L|-6:139,1,144,0|0,1:0|0:0,0:0:0:0:
7,136,90864,1,0,0:0:0:0:
7,136,90969,1,8,0:1:0:0:
223,345,91177,6,0,P|261:249|164:336,1,288,4|0,0:2|0:0,0:0:0:0:
322,384,91802,2,0,P|360:308|341:213,1,144,8|0,0:1|0:0,0:0:0:0:
321,185,92114,1,0,0:0:0:0:
267,132,92219,2,0,P|260:64|305:-10,1,144,0|0,1:0|0:0,0:0:0:0:
512,157,92635,6,0,P|434:141|350:170,1,144,8|0,0:1|0:0,0:0:0:0:
321,185,92948,1,0,0:0:0:0:
281,220,93052,2,0,P|194:228|117:162,1,144,4|0,1:0|0:0,0:0:0:0:
146,201,93469,1,8,0:1:0:0:
209,33,93677,1,0,0:0:0:0:
0,54,93885,6,0,L|22:289,1,216,0|0,1:0|0:0,0:0:0:0:
31,384,94302,2,0,L|10:168,1,216,8|0,0:1|0:0,0:0:0:0:
100,111,94719,6,0,P|171:86|267:133,1,144,0|0,1:0|0:0,0:0:0:0:
284,160,95031,1,0,0:0:0:0:
341,209,95135,2,0,P|417:215|489:182,1,144,8|0,0:1|0:0,0:0:0:0:
478,189,95552,1,0,1:0:0:0:
377,21,95760,1,0,0:0:0:0:
266,240,95969,1,8,0:1:0:0:
132,101,96177,5,0,0:0:0:0:
172,91,96281,1,8,0:1:0:0:
213,85,96385,2,0,B|193:221|193:221|173:281|121:276,1,237.600007250977,4|0,1:2|0:0,0:0:0:0:
79,344,96802,2,0,P|162:351|232:310,1,158.400004833985,8|0,0:1|0:0,0:0:0:0:
342,272,97114,1,0,0:0:0:0:
342,272,97219,2,0,P|426:282|479:336,1,158.400004833985,0|0,1:0|1:0,0:0:0:0:
484,340,97531,1,0,0:0:0:0:
485,341,97635,2,0,P|496:295|473:249,1,79.2000024169923,8|0,0:1|0:0,0:0:0:0:
438,195,97844,6,0,B|421:108|512:71|512:71|455:-1|372:37,1,316.800009667969,4|0,1:0|1:0,0:0:0:0:
372,37,98469,1,8,0:1:0:0:
250,168,98677,6,0,P|241:245|400:340,1,270.000010299683,4|0,1:2|0:0,0:0:0:0:
420,333,99302,6,0,P|476:273|455:163,1,180,8|8,0:1|0:1,0:0:0:0:
448,150,99614,1,8,0:1:0:0:
414,138,99719,6,0,L|162:149,1,216,4|0,1:0|0:0,0:0:0:0:
68,153,100135,2,0,L|320:142,1,216,8|0,0:1|0:0,0:0:0:0:
468,56,100552,6,0,L|285:63,1,144,0|0,1:0|0:0,0:0:0:0:
241,67,100864,1,0,0:0:0:0:
158,70,100968,2,0,L|-1:76,1,144,8|0,0:1|0:0,0:0:0:0:
183,343,101385,6,0,P|225:257|169:137,1,216,0|0,1:0|0:0,0:0:0:0:
158,70,101802,2,0,P|211:149|343:160,1,216,8|0,0:1|0:0,0:0:0:0:
405,101,102219,5,0,1:0:0:0:
344,264,102427,1,0,0:0:0:0:
314,19,102635,1,8,0:1:0:0:
512,193,102844,1,0,0:0:0:0:
504,227,102948,1,8,0:1:0:0:
496,261,103052,6,0,L|162:267,1,288,4|8,1:2|0:1,0:0:0:0:
0,243,103677,2,0,L|334:237,1,288,4|0,1:0|1:0,0:0:0:0:
287,237,104302,1,8,0:1:0:0:
155,0,104510,1,0,0:0:0:0:
164,22,104614,1,8,0:1:0:0:
172,44,104719,2,0,P|137:133|243:66,1,288,4|8,1:2|0:1,0:0:0:0:
447,382,105344,2,0,P|455:267|363:336,1,288,4|0,1:0|1:0,0:0:0:0:
281,384,105969,6,0,P|267:302|296:227,1,144,8|8,0:1|0:1,0:0:0:0:
334,188,106281,1,8,0:1:0:0:
386,133,106385,2,0,P|385:45|348:-9,1,144,4|0,1:2|0:0,0:0:0:0:
183,227,106802,6,0,L|412:213,1,216,8|0,0:1|0:0,0:0:0:0:
512,207,107219,2,0,L|296:220,1,216,0|0,0:0|0:0,0:0:0:0:
220,144,107635,1,8,0:1:0:0:
271,349,107844,1,0,0:0:0:0:
346,111,108052,6,0,P|274:28|139:53,1,216,0|0,1:0|0:0,0:0:0:0:
174,29,108469,1,8,0:1:0:0:
73,220,108677,1,0,1:0:0:0:
73,220,108781,1,0,0:0:0:0:
73,220,108885,2,0,P|137:149|131:76,1,144,0|0,0:0|1:0,0:0:0:0:
271,349,109302,2,0,P|257:279|204:233,1,144,8|0,0:1|0:0,0:0:0:0:
204,233,109614,1,0,0:0:0:0:
204,233,109719,5,4,1:2:0:0:
465,7,110135,1,8,0:1:0:0:
404,212,110344,1,0,1:0:0:0:
360,59,110552,1,8,1:0:0:0:
327,60,110656,1,8,1:0:0:0:
291,63,110760,1,8,1:0:0:0:
259,67,110864,1,8,1:0:0:0:
229,70,110969,5,0,1:0:0:0:
171,16,111177,1,0,0:0:0:0:
93,177,111385,5,4,1:0:0:0:
93,177,112427,5,0,1:0:0:0:
127,257,112635,2,0,P|178:272|257:241,1,108.000004119873,12|0,0:1|1:0,0:0:0:0:
373,69,113052,6,0,P|467:51|416:123,1,216,4|0,1:0|0:0,0:0:0:0:
436,121,113469,1,0,1:0:0:0:
165,82,113677,1,4,0:0:0:0:
185,178,113885,6,0,P|255:85|179:-18,1,216,8|0,0:1|0:0,0:0:0:0:
219,3,114302,1,0,1:0:0:0:
322,147,114510,1,8,0:1:0:0:
158,268,114719,6,0,L|358:260,1,144,0|0,1:0|0:0,0:0:0:0:
512,304,115135,2,0,L|312:312,1,144,0|0,1:0|0:0,0:0:0:0:
330,189,115552,5,8,1:0:0:0:
282,337,115760,1,8,0:1:0:0:
205,160,115969,1,8,1:0:0:0:
439,125,116177,1,0,0:0:0:0:
439,125,116281,1,0,0:0:0:0:
439,125,116385,6,0,P|379:62|298:67,1,162.00000617981,4|0,1:0|0:0,0:0:0:0:
286,78,116802,2,0,P|213:96|160:68,1,108.000004119873,8|0,0:1|0:0,0:0:0:0:
133,22,117219,1,0,1:0:0:0:
231,5,117427,1,0,0:0:0:0:
97,114,117635,2,0,P|86:172|116:229,1,108.000004119873,8|0,0:1|0:0,0:0:0:0:
121,232,117948,1,0,0:0:0:0:
141,244,118052,6,0,L|335:218,1,162.00000617981,0|0,1:0|0:0,0:0:0:0:
332,218,118469,2,0,L|209:202,1,108.000004119873,8|0,0:1|0:0,0:0:0:0:
166,144,118885,1,0,1:0:0:0:
198,319,119094,1,0,0:0:0:0:
272,128,119302,2,0,P|233:48|177:34,1,108.000004119873,8|0,0:1|0:0,0:0:0:0:
194,42,119614,1,8,0:1:0:0:
168,42,119719,6,0,P|244:78|339:34,1,162.00000617981,0|0,1:0|0:0,0:0:0:0:
340,33,120135,2,0,P|395:11|464:40,1,108.000004119873,8|0,0:1|0:0,0:0:0:0:
499,121,120552,6,0,L|513:299,1,162.00000617981,0|0,1:0|0:0,0:0:0:0:
487,249,120969,6,0,L|480:153,1,81.0000030899049,8|0,0:1|0:0,0:0:0:0:
406,114,121385,6,0,P|351:104|299:139,1,108.000004119873,0|0,1:0|0:0,0:0:0:0:
298,149,121698,1,0,0:0:0:0:
290,170,121802,2,0,P|313:236|381:266,1,108.000004119873,8|0,0:1|0:0,0:0:0:0:
205,223,122219,2,0,L|215:390,2,162.00000617981,0|0|0,1:0|0:0|0:0,0:0:0:0:
196,201,122948,1,8,0:1:0:0:
187,179,123052,2,0,P|129:143|34:168,1,162.00000617981,4|0,1:2|0:0,0:0:0:0:
22,189,123469,2,0,P|57:118|30:66,1,108.000004119873,8|0,0:1|0:0,0:0:0:0:
0,34,123885,1,0,1:0:0:0:
89,240,124094,1,0,0:0:0:0:
148,109,124302,2,0,P|205:101|266:137,1,108.000004119873,8|0,0:1|0:0,0:0:0:0:
266,138,124614,1,0,0:0:0:0:
284,154,124719,6,0,P|350:165|434:87,1,162.00000617981,0|0,1:0|0:0,0:0:0:0:
429,84,125135,2,0,P|413:15|378:-10,1,108.000004119873,8|0,0:1|0:0,0:0:0:0:
232,52,125552,2,0,P|180:100|176:143,1,108.000004119873,0|0,1:0|0:0,0:0:0:0:
302,238,125969,2,0,P|369:258|408:240,1,108.000004119873,8|0,0:1|0:0,0:0:0:0:
416,229,126281,1,8,0:1:0:0:
429,211,126385,6,0,L|411:23,1,162.00000617981,4|0,1:2|0:0,0:0:0:0:
432,0,126802,2,0,L|445:126,1,108.000004119873,8|0,0:1|0:0,0:0:0:0:
506,174,127219,5,0,1:0:0:0:
343,91,127427,1,0,1:0:0:0:
401,246,127635,1,8,0:1:0:0:
511,63,127844,1,0,0:0:0:0:
294,13,128052,6,0,P|250:53|264:138,1,144,4|0,1:2|0:0,0:0:0:0:
286,302,128364,2,0,P|273:243|192:213,1,144,4|0,1:2|0:0,0:0:0:0:
39,150,128677,2,0,P|95:168|147:135,1,72,4|0,1:2|0:0,0:0:0:0:
294,13,128885,5,12,1:0:0:0:
203,294,129198,5,12,1:0:0:0:
5,74,129510,5,4,1:0:0:0:
256,192,129614,12,0,136385,0:0:0:0:
