osu file format v14

[General]
AudioFilename: audio.mp3
AudioLeadIn: 0
PreviewTime: -1
Countdown: 0
SampleSet: Normal
StackLeniency: 0.7
Mode: 0
LetterboxInBreaks: 0
WidescreenStoryboard: 0

[Editor]
Bookmarks: 3195,7239,10610,16172,22745,25442,28138,30835,33532,36228,38925,45666,71284
DistanceSpacing: 1
BeatDivisor: 4
GridSize: 4
TimelineZoom: 1

[Metadata]
Title:Chikatto Chika
TitleUnicode:Chikatto Chika
Artist:Konomi Kahara
ArtistUnicode:Konomi Kahara
Creator:- Crow
Version:Chika Chika
Source:Kaguya-sama: Love is War
Tags:anime, chika chika, konomi kahara
BeatmapID:1923769
BeatmapSetID:921267

[Difficulty]
HPDrainRate:4.4
CircleSize:4.3
OverallDifficulty:6.3
ApproachRate:9
SliderMultiplier:1.4
SliderTickRate:1

[Events]
//Background and Video events
0,0,"jhu19er8u6f21.jpg",0,0
Video,0,"Chika's Dance. Kaguya-Sama Love is War.mp4"
//Break Periods
//Storyboard Layer 0 (Background)
//Storyboard Layer 1 (Fail)
//Storyboard Layer 2 (Pass)
//Storyboard Layer 3 (Foreground)
//Storyboard Sound Samples

[TimingPoints]
3195,337.078651685393,4,1,0,30,1,0
3784,-100,4,1,0,5,0,0
3861,-166.666666666667,4,1,0,35,0,0
4459,-166.666666666667,4,1,0,5,0,0
4528,-200,4,1,0,35,0,0
5133,-200,4,1,0,5,0,0
5194,-222.222222222222,4,1,0,35,0,0
5807,-222.222222222222,4,1,0,5,0,0
7239,-200,4,1,0,35,0,0
7829,-200,4,1,0,5,0,0
7914,-181.818181818182,4,1,0,35,0,0
8503,-181.818181818182,4,1,0,5,0,0
8588,-166.666666666667,4,1,0,35,0,0
9178,-166.666666666667,4,1,0,5,0,0
9262,-153.846153846154,4,1,0,35,0,0
9852,-25,4,1,0,35,0,0
10610,-142.857142857143,4,1,0,35,0,0
11200,-142.857142857143,4,1,0,5,0,0
11959,-125,4,1,0,35,0,0
12464,-125,4,1,0,5,0,0
12633,-111.111111111111,4,1,0,35,0,0
13138,-111.111111111111,4,1,0,5,0,0
13307,-50,4,1,0,45,0,0
13391,-50,4,1,0,10,0,0
13981,-50,4,1,0,45,0,0
14065,-50,4,1,0,5,0,0
14655,-71.4285714285714,4,1,0,35,0,0
15329,-55.5555555555556,4,1,0,35,0,0
17689,-76.9230769230769,4,1,0,35,0,0
22745,-71.4285714285714,4,1,0,35,0,0
29992,-50,4,1,0,35,0,0
33532,-66.6666666666667,4,1,0,35,0,0
41621,-50,4,1,0,35,0,0
41959,-125,4,1,0,35,0,0
42970,-62.5,4,1,0,35,0,0
43644,-55.5555555555556,4,1,0,35,0,0
44318,-50,4,1,0,35,0,0
45666,-100,4,1,0,35,0,0
53756,-66.6666666666667,4,1,0,35,0,0
55779,-55.5555555555556,4,1,0,35,0,0
69262,-50,4,1,0,35,0,0
80554,-66.6666666666667,4,1,0,35,0,0
83082,-50,4,1,0,35,0,0
89487,-100,4,1,0,35,0,0

[HitObjects]
99,88,3194,6,0,B|97:159|171:243|286:255,1,245
342,173,3861,6,0,P|393:191|459:278,1,146.999995513916
456,347,4528,6,0,P|416:355|344:302,1,122.5
309,245,5194,6,0,P|257:229|194:244,1,110.249996635437
445,151,7239,6,0,P|408:150|318:106,1,122.5
280,56,7914,6,0,P|233:46|148:76,1,134.750004112244
191,147,8588,6,0,P|237:189|271:269,1,146.999995513916
213,321,9262,6,0,P|155:297|88:220,1,159.249992710114
389,210,10610,6,0,P|349:134|257:122,1,171.499994766236
92,297,11959,6,0,P|137:283|81:221,1,168
32,132,12633,6,0,P|77:91|38:142,1,188.999994232178
187,63,13307,6,0,L|262:85,1,70
451,207,13981,2,0,L|383:229,1,70
129,147,14655,6,0,B|145:186|158:215|193:210|237:203|260:231|281:259,1,195.999994018555
303,299,15077,1,0,0:0:0:0:
396,364,15329,6,0,P|418:283|399:93,1,251.999992309571
85,264,16172,5,0,0:0:0:0:
133,103,16341,1,0,0:0:0:0:
228,303,16509,1,0,0:0:0:0:
271,159,16678,1,0,0:0:0:0:
346,356,17015,6,0,L|366:289,1,62.9999980773926
471,137,17352,5,0,0:0:0:0:
301,35,17689,2,0,P|271:34|226:52,1,45.4999979171754
214,56,17857,1,0,0:0:0:0:
319,283,18194,2,0,P|334:257|338:204,1,45.4999979171754
332,197,18362,1,0,0:0:0:0:
147,215,18532,6,0,P|162:240|205:271,1,45.4999979171754
214,270,18700,1,0,0:0:0:0:
381,293,19037,1,0,0:0:0:0:
466,173,19206,2,0,P|422:143|382:131,1,90.9999958343508
226,149,19543,1,0,0:0:0:0:
134,275,19711,1,0,0:0:0:0:
302,325,19880,6,0,P|294:291|279:272,1,45.4999979171754
245,269,20048,2,0,P|200:239|170:195,1,90.9999958343508
254,99,20386,2,0,P|284:104|312:125,1,45.4999979171754
319,150,20554,1,0,0:0:0:0:
251,319,20891,2,0,P|199:330|141:333,1,90.9999958343508
82,252,21228,2,0,L|82:148,1,90.9999958343508
214,92,21565,5,0,0:0:0:0:
350,126,21734,1,0,0:0:0:0:
316,262,21902,1,0,0:0:0:0:
179,228,22071,1,0,0:0:0:0:
378,60,22745,6,0,P|327:66|291:102,1,97.9999970092774
298,145,22998,2,0,P|297:179|279:208,1,48.9999985046387
231,282,23251,2,0,P|172:304|116:295,1,97.9999970092774
35,227,23588,1,0,0:0:0:0:
103,108,23756,1,0,0:0:0:0:
172,227,23925,1,0,0:0:0:0:
108,351,24093,6,0,P|139:362|165:364,1,48.9999985046387
195,336,24262,1,0,0:0:0:0:
295,253,24430,1,0,0:0:0:0:
440,266,24599,1,0,0:0:0:0:
412,111,24936,5,0,0:0:0:0:
405,108,25105,2,0,P|352:90|308:86,1,97.9999970092774
225,205,25442,6,0,P|171:192|129:146,1,97.9999970092774
135,115,25694,2,0,P|111:92|44:93,1,97.9999970092774
40,139,25947,1,0,0:0:0:0:
51,288,26116,2,0,B|71:301|71:318|98:328|114:298|138:310|168:304,1,97.9999970092774
274,285,26453,1,0,0:0:0:0:
431,314,26621,1,0,0:0:0:0:
473,221,26790,5,0,0:0:0:0:
428,121,26959,2,0,P|398:99|381:94,1,48.9999985046387
338,89,27127,1,0,0:0:0:0:
166,145,27296,1,0,0:0:0:0:
69,345,27633,5,0,0:0:0:0:
39,191,27801,1,0,0:0:0:0:
92,39,28138,6,0,P|141:30|195:39,1,97.9999970092774
218,75,28391,2,0,P|237:101|264:118,1,48.9999985046387
357,284,28644,1,0,0:0:0:0:
357,125,28812,1,0,0:0:0:0:
263,253,28981,1,0,0:0:0:0:
414,204,29150,1,0,0:0:0:0:
263,155,29318,1,0,0:0:0:0:
373,342,29487,6,0,P|422:367|474:361,1,97.9999970092774
508,277,29824,1,0,0:0:0:0:
477,125,29992,2,0,B|402:146|341:99|341:99|284:41|164:69,1,280
93,131,30498,1,0,0:0:0:0:
223,335,30835,5,0,0:0:0:0:
344,265,31003,1,0,0:0:0:0:
223,194,31172,1,0,0:0:0:0:
188,327,31341,5,0,0:0:0:0:
354,298,31509,1,0,0:0:0:0:
246,168,31678,1,0,0:0:0:0:
153,304,31846,5,0,0:0:0:0:
352,339,32014,1,0,0:0:0:0:
284,149,32183,1,0,0:0:0:0:
134,272,32352,5,0,0:0:0:0:
327,383,32520,1,0,0:0:0:0:
329,160,32689,1,0,0:0:0:0:
265,273,32857,2,0,L|226:337,1,70
43,46,33532,6,0,P|70:33|145:28,1,105.000004005432
175,69,33784,2,0,P|201:93|230:106,1,52.5000020027161
423,145,34206,1,0,0:0:0:0:
365,218,34374,1,0,0:0:0:0:
451,261,34543,1,0,0:0:0:0:
392,347,34711,1,0,0:0:0:0:
294,295,34880,2,0,P|270:273|241:260,1,52.5000020027161
202,280,35048,5,0,0:0:0:0:
114,198,35217,2,0,P|108:164|117:141,1,52.5000020027161
162,128,35386,1,0,0:0:0:0:
370,49,35723,5,0,0:0:0:0:
351,212,35891,1,0,0:0:0:0:
84,324,36228,5,0,0:0:0:0:
74,305,36397,2,0,P|64:284|61:234,1,52.5000020027161
139,203,36565,2,0,P|149:224|152:274,1,52.5000020027161
155,281,36734,1,0,0:0:0:0:
233,361,36902,2,0,P|293:370|339:359,1,105.000004005432
403,250,37239,5,0,0:0:0:0:
395,219,37408,2,0,P|382:191|355:165,1,52.5000020027161
339,166,37577,1,0,0:0:0:0:
242,206,37745,1,0,0:0:0:0:
184,56,37914,1,0,0:0:0:0:
115,272,38082,1,0,0:0:0:0:
12,42,38419,5,0,0:0:0:0:
249,24,38588,1,0,0:0:0:0:
152,208,38925,6,0,P|174:262|220:295,1,105.000004005432
289,221,39262,1,0,0:0:0:0:
344,309,39430,2,0,P|383:266|393:215,1,105.000004005432
346,163,39768,2,0,P|324:109|332:57,1,105.000004005432
426,105,40105,1,0,0:0:0:0:
223,151,40273,2,0,P|170:165|110:156,1,105.000004005432
63,78,40610,1,0,0:0:0:0:
38,109,40779,2,0,P|25:165|42:214,1,105.000004005432
85,285,41116,5,0,0:0:0:0:
276,236,41284,1,0,0:0:0:0:
122,350,41453,1,0,0:0:0:0:
306,358,41621,2,0,P|396:340|463:223,1,210
433,209,41959,2,0,B|421:117|315:126|315:126|222:134|157:82,1,308
91,39,42970,5,0,0:0:0:0:
82,72,43054,1,0,0:0:0:0:
82,107,43138,1,0,0:0:0:0:
91,141,43222,1,0,0:0:0:0:
101,165,43307,2,0,L|209:217,1,112
339,190,43644,5,0,0:0:0:0:
346,231,43728,1,0,0:0:0:0:
335,271,43812,1,0,0:0:0:0:
309,304,43896,1,0,0:0:0:0:
275,321,43981,2,0,P|207:327|141:354,1,125.999996154785
46,251,44318,6,0,B|-3:81|181:97|181:97|382:122|466:39,1,560
11,359,45666,5,0,0:0:0:0:
54,288,45835,1,0,0:0:0:0:
126,323,46003,1,0,0:0:0:0:
184,270,46172,1,0,0:0:0:0:
171,195,46341,1,0,0:0:0:0:
214,134,46509,1,0,0:0:0:0:
288,137,46678,2,0,P|326:158|336:202,1,70
346,306,47015,5,0,0:0:0:0:
447,103,47183,1,0,0:0:0:0:
375,46,47352,5,0,0:0:0:0:
299,79,47520,1,0,0:0:0:0:
229,35,47689,1,0,0:0:0:0:
156,73,47857,1,0,0:0:0:0:
157,154,48026,2,0,P|188:189|216:207,1,70
286,221,48363,5,0,0:0:0:0:
483,266,48532,1,0,0:0:0:0:
421,348,48700,6,0,P|385:363|332:357,1,70
289,316,49037,2,0,P|253:301|200:307,1,70
159,346,49374,1,0,0:0:0:0:
51,192,49711,5,0,0:0:0:0:
192,37,49880,1,0,0:0:0:0:
211,113,50048,5,0,0:0:0:0:
296,145,50217,1,0,0:0:0:0:
334,61,50386,1,0,0:0:0:0:
388,123,50554,1,0,0:0:0:0:
423,63,50723,1,0,0:0:0:0:
503,204,51060,5,0,0:0:0:0:
290,266,51228,1,0,0:0:0:0:
244,188,51397,5,0,0:0:0:0:
142,184,51565,2,0,P|98:163|77:130,1,70
100,45,51902,2,0,P|144:66|165:99,1,70
141,183,52239,1,0,0:0:0:0:
48,299,52408,5,0,0:0:0:0:
249,338,52577,1,0,0:0:0:0:
311,268,52745,6,0,P|332:232|336:179,1,70
291,182,53082,2,0,P|269:151|277:75,1,105
323,72,53419,2,0,P|342:63|359:45,1,35
372,12,53588,1,0,0:0:0:0:
446,104,53756,6,0,P|472:160|447:324,1,210.000008010865
323,369,54262,1,0,0:0:0:0:
166,362,54599,5,0,0:0:0:0:
80,275,54768,2,0,P|68:223|70:162,1,105.000004005432
156,94,55105,2,0,L|207:131,1,52.5000020027161
335,173,55442,5,0,0:0:0:0:
253,327,55610,1,0,0:0:0:0:
70,262,55779,2,0,P|14:198|12:145,1,125.999996154785
144,164,56116,1,0,0:0:0:0:
385,201,56453,5,0,0:0:0:0:
111,356,57127,1,0,0:0:0:0:
207,8,57801,1,0,0:0:0:0:
305,194,58812,6,0,L|257:148,1,62.9999980773926
217,147,58981,5,0,0:0:0:0:
98,190,59150,1,0,0:0:0:0:
140,307,59318,1,0,0:0:0:0:
258,263,59487,1,0,0:0:0:0:
189,120,59655,5,0,0:0:0:0:
72,218,59824,1,0,0:0:0:0:
168,332,59992,1,0,0:0:0:0:
283,234,60161,1,0,0:0:0:0:
117,120,60329,5,0,0:0:0:0:
28,273,60498,1,0,0:0:0:0:
178,361,60666,1,0,0:0:0:0:
265,207,60835,2,0,P|254:138|163:68,1,188.999994232178
123,82,61172,2,0,P|98:111|87:152,1,62.9999980773926
83,182,61341,5,0,0:0:0:0:
263,353,61509,2,0,L|331:332,1,62.9999980773926
357,320,61678,5,0,0:0:0:0:
357,116,61846,1,0,0:0:0:0:
237,281,62015,1,0,0:0:0:0:
431,218,62183,1,0,0:0:0:0:
236,155,62352,1,0,0:0:0:0:
411,296,62520,5,0,0:0:0:0:
299,102,62688,1,0,0:0:0:0:
275,325,62857,1,0,0:0:0:0:
425,159,63025,1,0,0:0:0:0:
299,227,63194,5,0,0:0:0:0:
188,165,63363,1,0,0:0:0:0:
144,46,63532,1,0,0:0:0:0:
21,20,63700,1,0,0:0:0:0:
43,144,63869,2,0,P|81:212|126:246,1,125.999996154785
310,194,64206,6,0,L|291:124,1,62.9999980773926
287,100,64374,5,0,0:0:0:0:
435,45,64543,1,0,0:0:0:0:
407,200,64711,1,0,0:0:0:0:
308,111,64880,5,0,0:0:0:0:
482,110,65049,1,0,0:0:0:0:
395,260,65217,1,0,0:0:0:0:
332,134,65386,5,0,0:0:0:0:
497,192,65555,1,0,0:0:0:0:
363,304,65723,1,0,0:0:0:0:
400,198,65891,6,0,P|421:162|426:127,1,62.9999980773926
396,107,66060,2,0,P|355:66|287:80,1,125.999996154785
201,240,66397,1,0,0:0:0:0:
61,37,66565,1,0,0:0:0:0:
61,293,67239,5,0,0:0:0:0:
65,251,67323,1,0,0:0:0:0:
76,210,67407,1,0,0:0:0:0:
95,173,67491,1,0,0:0:0:0:
123,143,67577,2,0,L|182:109,1,62.9999980773926
367,71,67914,5,0,0:0:0:0:
362,102,67998,1,0,0:0:0:0:
355,132,68082,1,0,0:0:0:0:
343,162,68166,1,0,0:0:0:0:
329,190,68251,1,0,0:0:0:0:
311,215,68335,1,0,0:0:0:0:
294,242,68419,2,0,L|226:268,1,62.9999980773926
206,276,68588,5,0,0:0:0:0:
73,180,68756,1,0,0:0:0:0:
106,30,68925,1,0,0:0:0:0:
239,124,69093,1,0,0:0:0:0:
384,222,69262,6,0,P|393:297|267:316,1,210
284,286,69599,2,0,P|228:234|137:308,1,210
166,339,69936,2,0,B|215:305|255:201|259:121|234:89|214:66|214:66|163:15|102:41|51:81|54:247,1,560
322,32,71284,5,0,0:0:0:0:
367,103,71453,1,0,0:0:0:0:
451,104,71621,1,0,0:0:0:0:
406,172,71790,1,0,0:0:0:0:
293,177,71959,5,0,0:0:0:0:
226,266,72127,1,0,0:0:0:0:
156,177,72296,1,0,0:0:0:0:
101,79,72464,1,0,0:0:0:0:
229,21,72633,5,0,0:0:0:0:
399,59,72801,1,0,0:0:0:0:
266,120,72970,1,0,0:0:0:0:
416,168,73138,1,0,0:0:0:0:
328,326,73307,5,0,0:0:0:0:
230,255,73644,2,0,P|165:212|58:236,1,140
55,336,73981,5,0,0:0:0:0:
93,55,74150,1,0,0:0:0:0:
160,125,74487,1,0,0:0:0:0:
274,53,74655,5,0,0:0:0:0:
377,337,74824,1,0,0:0:0:0:
266,308,75161,1,0,0:0:0:0:
470,196,75329,5,0,0:0:0:0:
100,213,75498,1,0,0:0:0:0:
482,121,75666,1,0,0:0:0:0:
87,289,75835,1,0,0:0:0:0:
205,118,76846,5,0,0:0:0:0:
229,136,77015,1,0,0:0:0:0:
215,164,77183,1,0,0:0:0:0:
188,146,77352,1,0,0:0:0:0:
54,234,77689,6,0,L|44:157,1,70
252,106,78026,5,0,0:0:0:0:
336,106,78194,1,0,0:0:0:0:
378,178,78363,1,0,0:0:0:0:
336,251,78532,1,0,0:0:0:0:
252,251,78700,1,0,0:0:0:0:
210,178,78869,1,0,0:0:0:0:
252,106,79037,5,0,0:0:0:0:
342,158,79205,1,0,0:0:0:0:
343,262,79374,1,0,0:0:0:0:
252,315,79543,1,0,0:0:0:0:
161,262,79711,1,0,0:0:0:0:
161,157,79880,1,0,0:0:0:0:
162,46,80048,1,0,0:0:0:0:
329,67,80554,6,0,P|384:117|401:172,1,105.000004005432
319,162,80891,2,0,P|303:234|265:282,1,105.000004005432,0|0,0:3|0:3,0:3:0:0:
122,306,81228,6,0,P|67:256|47:197,1,105.000004005432
132,211,81565,2,0,P|147:138|191:93,1,105.000004005432,0|0,0:3|0:3,0:3:0:0:
285,80,81902,5,0,0:0:0:0:
391,114,82071,1,0,0:0:0:0:
391,226,82239,1,0,0:0:0:0:
285,261,82408,1,0,0:0:0:0:
219,170,82577,1,0,0:0:0:0:
314,167,82745,5,0,0:0:0:0:
376,338,83251,6,0,P|415:272|425:195,1,140
334,246,83588,2,0,P|284:187|260:113,1,140
254,11,83925,6,0,P|186:40|149:112,1,140
236,98,84262,2,0,P|194:167|101:160,1,140
56,132,84599,5,0,0:0:0:0:
304,25,84768,1,0,0:0:0:0:
412,275,84936,1,0,0:0:0:0:
160,382,85105,1,0,0:0:0:0:
70,119,85273,1,0,0:0:0:0:
256,190,85442,1,0,0:0:0:0:
196,282,85610,1,0,0:0:0:0:
161,208,85779,1,0,0:0:0:0:
293,265,85947,6,0,P|372:287|435:268,1,140
358,206,86284,2,0,P|437:185|482:137,1,140
435,59,86621,6,0,P|356:37|293:56,1,140
370,118,86958,2,0,P|290:138|245:186,1,140
232,324,87296,5,0,0:0:0:0:
423,253,87464,1,0,0:0:0:0:
129,126,87633,1,0,0:0:0:0:
264,338,87801,5,0,0:0:0:0:
435,192,87969,1,0,0:0:0:0:
83,172,88138,1,0,0:0:0:0:
303,339,88307,5,0,0:0:0:0:
424,126,88475,1,0,0:0:0:0:
56,236,88644,1,0,0:0:0:0:
127,153,89655,5,0,0:0:0:0:
125,160,89739,1,0,0:0:0:0:
123,168,89824,2,0,P|120:194|123:221,1,35
175,305,89992,2,0,P|209:334|254:345,2,70
340,199,90835,5,0,0:0:0:0:
324,190,90919,1,0,0:0:0:0:
309,182,91003,1,0,0:0:0:0:
256,192,91088,12,0,94796,0:0:0:0:
188,250,94880,5,0,0:0:0:0:
