osu file format v14

[General]
AudioFilename: bgm.mp3
AudioLeadIn: 0
PreviewTime: 142602
Countdown: 0
SampleSet: None
StackLeniency: 0.7
Mode: 0
LetterboxInBreaks: 0
WidescreenStoryboard: 1

[Editor]
DistanceSpacing: 1
BeatDivisor: 4
GridSize: 8
TimelineZoom: 1.7

[Metadata]
Title:Kono Piano de Omae o 8759632145kai Bunnaguru
TitleUnicode:このピアノでお前を8759632145回ぶん殴る
Artist:Konoko
ArtistUnicode:この子
Creator:Bangom
Version:AR 9.5
Source:
Tags:この子 Konoko piano 8759632145
BeatmapID:1398484
BeatmapSetID:652220

[Difficulty]
HPDrainRate:6.5
CircleSize:4.2
OverallDifficulty:8.8
ApproachRate:9.5
SliderMultiplier:1.8
SliderTickRate:1

[Events]
//Background and Video events
0,0,"BG.png",0,0
//Break Periods
2,202727,203952
//Storyboard Layer 0 (Background)
//Storyboard Layer 1 (Fail)
//Storyboard Layer 2 (Pass)
//Storyboard Layer 3 (Foreground)
//Storyboard Sound Samples

[TimingPoints]
477,300,4,2,0,100,1,0
10077,-100,4,2,0,100,0,0
19677,-83.3333333333333,4,2,0,100,0,0
38877,-125,4,2,0,100,0,0
39927,-200,4,2,0,100,0,0
40227,-153.846153846154,4,2,0,100,0,0
40527,-125,4,2,0,100,0,0
44277,-100,4,2,0,100,0,0
44727,-125,4,2,0,100,0,0
48477,-100,4,2,0,100,0,0
53877,-62.5,4,2,0,100,0,0
54327,-100,4,2,0,100,0,0
55677,-76.9230769230769,4,2,0,100,0,0
56877,-100,4,2,0,100,0,0
57477,-76.9230769230769,4,2,0,100,0,0
58077,-125,4,2,0,100,0,0
58527,-166.666666666667,4,2,0,100,0,0
61377,-100,4,2,0,100,0,0
63177,-90.9090909090909,4,2,0,100,0,0
63477,-83.3333333333333,4,2,0,100,0,0
63777,-76.9230769230769,4,2,0,100,0,0
64077,-71.4285714285714,4,2,0,100,0,0
65727,-100,4,2,0,100,0,0
66477,-83.3333333333333,4,2,0,100,0,0
67077,-100,4,2,0,100,0,0
67377,-66.6666666666667,4,2,0,100,0,0
67677,-83.3333333333333,4,2,0,100,0,1
86877,-125,4,2,0,100,0,0
87252,-153.846153846154,4,2,0,100,0,0
87777,-200,4,2,0,100,0,0
88677,-100,4,2,0,100,0,0
89277,-83.3333333333333,4,2,0,100,0,0
89727,-71.4285714285714,4,2,0,100,0,0
90177,-62.5,4,2,0,100,0,0
91377,-125,4,2,0,100,0,0
91677,-100,4,2,0,100,0,0
101277,-200,4,2,0,20,0,0
108477,-200,4,2,0,20,0,0
118077,1200,4,2,0,20,1,0
118977,2400,4,2,0,20,1,0
120477,300,4,2,0,100,1,0
120477,-133.333333333333,4,2,0,100,0,0
137877,-83.3333333333333,4,2,0,100,0,0
139677,-100,4,2,0,100,0,0
142677,-200,4,2,0,100,0,0
143277,-133.333333333333,4,2,0,100,0,0
143877,-100,4,2,0,100,0,1
163677,-125,4,2,0,100,0,0
164127,-153.846153846154,4,2,0,100,0,0
164577,-200,4,2,0,100,0,0
166077,-100,4,2,0,100,0,0
166527,-83.3333333333333,4,2,0,100,0,0
166977,-71.4285714285714,4,2,0,100,0,0
168102,-200,4,2,0,100,0,0
168477,-100,4,2,0,100,0,0
200277,-200,4,2,0,100,0,0
200877,-133.333333333333,4,2,0,100,0,0
201627,2400,4,2,0,100,1,0
204477,300,4,2,0,100,1,0
204477,-83.3333333333333,4,2,0,100,0,0
229527,-100,4,2,0,100,0,0
230577,-76.9230769230769,4,2,0,100,0,0
238977,-86.9565217391304,4,2,0,100,0,0
240477,-133.333333333333,4,2,0,100,0,0
242877,-100,4,2,0,100,0,0
246177,-200,4,2,0,100,0,0

[HitObjects]
60,72,10077,6,0,L|176:64,1,90
312,44,10377,1,0,0:0:0:0:
356,49,10452,1,0,0:0:0:0:
401,55,10527,1,0,0:0:0:0:
484,194,10677,2,0,P|436:218|367:202,1,90
257,139,10977,2,0,B|265:198|265:198|303:238,1,90
396,328,11277,5,0,0:0:0:0:
356,141,11427,1,0,0:0:0:0:
312,359,11577,1,0,0:0:0:0:
215,270,11727,1,0,0:0:0:0:
257,139,11877,2,0,P|202:128|162:147,1,90
88,278,12177,1,0,0:0:0:0:
228,357,12327,1,0,0:0:0:0:
88,278,12477,6,0,L|67:154,1,90
116,33,12777,1,0,0:0:0:0:
116,33,12852,1,0,0:0:0:0:
116,33,12927,1,0,0:0:0:0:
171,139,13077,2,0,P|214:126|257:139,1,90
419,152,13377,2,0,L|429:23,1,90
264,41,13677,5,0,0:0:0:0:
480,216,13827,1,0,0:0:0:0:
213,224,13977,1,0,0:0:0:0:
425,62,14127,1,0,0:0:0:0:
348,264,14277,1,0,0:0:0:0:
264,41,14427,1,0,0:0:0:0:
213,224,14577,2,0,P|212:299|230:324,1,90
319,111,14877,6,0,L|251:25,1,90
101,33,15177,1,0,0:0:0:0:
72,66,15252,1,0,0:0:0:0:
69,111,15327,1,0,0:0:0:0:
44,271,15477,1,0,0:0:0:0:
175,101,15627,1,0,0:0:0:0:
213,224,15777,1,0,0:0:0:0:
72,66,15927,1,0,0:0:0:0:
49,355,16077,6,0,B|104:364|104:364|159:355|160:355,1,90
297,330,16377,2,0,L|394:341,1,90
467,199,16677,1,0,0:0:0:0:
308,234,16827,1,0,0:0:0:0:
373,85,16977,1,0,0:0:0:0:
395,245,17127,1,0,0:0:0:0:
462,93,17277,6,0,L|358:83,1,90
220,28,17577,1,0,0:0:0:0:
175,30,17652,1,0,0:0:0:0:
130,32,17727,1,0,0:0:0:0:
107,192,17877,1,0,0:0:0:0:
255,127,18027,1,0,0:0:0:0:
237,288,18177,2,0,B|181:283|181:283|126:262,1,90
199,199,18477,5,0,0:0:0:0:
288,211,18627,1,0,0:0:0:0:
377,223,18777,1,0,0:0:0:0:
466,236,18927,1,0,0:0:0:0:
485,311,19077,2,0,L|462:227,1,45
396,148,19227,2,0,L|373:232,1,45
307,286,19377,2,0,L|284:202,1,45
218,124,19527,2,0,L|195:208,1,45
51,256,19677,6,0,B|50:213|50:213|38:166|38:166|38:118,1,107.999996704102
169,35,19977,1,0,0:0:0:0:
196,38,20052,1,0,0:0:0:0:
223,40,20127,1,0,0:0:0:0:
171,205,20277,1,0,0:0:0:0:
73,62,20427,1,0,0:0:0:0:
293,86,20577,1,0,0:0:0:0:
132,289,20727,1,0,0:0:0:0:
225,281,20877,6,0,B|266:289|266:289|309:286|309:286|374:298,1,107.999996704102
300,371,21177,1,0,0:0:0:0:
266,198,21327,1,0,0:0:0:0:
492,350,21477,2,0,B|451:358|451:358|408:355|408:355|343:367,1,107.999996704102
385,359,21777,1,0,0:0:0:0:
377,166,21927,1,0,0:0:0:0:
468,217,22077,6,0,P|476:144|462:108,1,107.999996704102
269,144,22377,1,0,0:0:0:0:
268,171,22452,1,0,0:0:0:0:
266,198,22527,1,0,0:0:0:0:
300,371,22677,2,0,P|229:368|185:331,1,107.999996704102
144,184,22977,2,0,B|101:199|101:199|58:197|58:197|24:210,1,107.999996704102
70,295,23277,5,0,0:0:0:0:
87,102,23427,1,0,0:0:0:0:
221,233,23577,1,0,0:0:0:0:
39,203,23727,1,0,0:0:0:0:
70,295,23877,1,0,0:0:0:0:
194,97,24027,1,0,0:0:0:0:
199,348,24177,1,0,0:0:0:0:
131,184,24327,1,0,0:0:0:0:
294,98,24477,6,0,P|376:91|409:123,1,107.999996704102
478,254,24777,2,0,L|401:231,1,53.9999983520508
265,179,24927,1,0,0:0:0:0:
393,103,25077,1,0,0:0:0:0:
310,309,25227,1,0,0:0:0:0:
478,254,25377,2,0,B|489:187|489:187|484:147,1,107.999996704102
238,31,25677,6,0,B|195:27|195:27|146:40|146:40|83:35,1,107.999996704102
88,231,25977,2,0,P|163:215|187:186,1,107.999996704102
294,98,26277,1,0,0:0:0:0:
49,54,26427,1,0,0:0:0:0:
134,289,26577,1,0,0:0:0:0:
238,31,26727,1,0,0:0:0:0:
15,181,26877,6,0,P|1:247|27:300,1,107.999996704102
167,363,27177,2,0,L|186:261,1,53.9999983520508
209,113,27327,1,0,0:0:0:0:
264,203,27477,2,0,P|172:209|139:185,1,107.999996704102
277,318,27777,2,0,B|324:327|324:327|366:322|366:322|426:338,1,107.999996704102
294,98,28077,5,0,0:0:0:0:
472,319,28227,1,0,0:0:0:0:
482,117,28377,1,0,0:0:0:0:
273,318,28527,1,0,0:0:0:0:
318,124,28677,1,0,0:0:0:0:
448,293,28827,1,0,0:0:0:0:
456,141,28977,1,0,0:0:0:0:
298,294,29127,1,0,0:0:0:0:
238,31,29277,6,0,B|271:28|271:28|325:38|325:38|359:36,1,107.999996704102
387,206,29577,2,0,B|352:210|352:210|303:206|303:206|255:212,1,107.999996704102
180,255,29877,1,0,0:0:0:0:
318,124,30027,1,0,0:0:0:0:
377,345,30177,2,0,P|358:283|380:231,1,107.999996704102
448,293,30477,5,0,0:0:0:0:
279,208,30627,1,0,0:0:0:0:
301,377,30777,1,0,0:0:0:0:
335,131,30927,1,0,0:0:0:0:
180,237,31077,2,0,B|195:285|195:285|216:316|216:316|224:347,1,107.999996704102
118,366,31377,1,0,0:0:0:0:
54,272,31527,1,0,0:0:0:0:
101,171,31677,6,0,P|170:129|210:139,1,107.999996704102
307,290,31977,1,0,0:0:0:0:
307,290,32052,1,0,0:0:0:0:
307,290,32127,1,0,0:0:0:0:
221,335,32277,2,0,B|216:316|216:316|195:285|195:285|180:237,1,107.999996704102
101,171,32577,1,0,0:0:0:0:
33,114,32727,1,0,0:0:0:0:
9,23,32877,6,0,B|50:36|50:36|92:33|92:33|143:34,1,107.999996704102
101,171,33177,1,0,0:0:0:0:
301,42,33327,1,0,0:0:0:0:
307,290,33477,1,0,0:0:0:0:
200,69,33627,1,0,0:0:0:0:
179,235,33777,1,0,0:0:0:0:
343,154,33927,1,0,0:0:0:0:
469,93,34077,6,0,B|470:136|470:136|482:189|482:189|482:239,1,107.999996704102
392,77,34377,1,0,0:0:0:0:
400,234,34527,1,0,0:0:0:0:
477,326,34677,2,0,B|429:318|429:318|388:327|388:327|347:311,1,107.999996704102
280,345,34977,2,0,L|120:352,1,107.999996704102
105,190,35277,5,0,0:0:0:0:
265,253,35427,1,0,0:0:0:0:
98,299,35577,1,0,0:0:0:0:
208,166,35727,1,0,0:0:0:0:
20,154,35877,2,0,P|64:104|125:111,1,107.999996704102
105,190,36177,1,0,0:0:0:0:
154,25,36327,1,0,0:0:0:0:
238,75,36477,6,0,L|345:71,1,107.999996704102
491,48,36777,1,0,0:0:0:0:
498,74,36852,1,0,0:0:0:0:
498,101,36927,1,0,0:0:0:0:
400,243,37077,2,0,L|414:135,1,107.999996704102
305,168,37377,1,0,0:0:0:0:
489,269,37527,1,0,0:0:0:0:
416,350,37677,5,0,0:0:0:0:
377,338,37752,1,0,0:0:0:0:
337,333,37827,1,0,0:0:0:0:
296,335,37902,1,0,0:0:0:0:
257,344,37977,1,0,0:0:0:0:
218,355,38052,1,0,0:0:0:0:
178,360,38127,1,0,0:0:0:0:
137,358,38202,1,0,0:0:0:0:
98,349,38277,1,0,0:0:0:0:
256,44,38877,5,0,0:0:0:0:
256,44,39027,2,0,L|268:124,1,72
296,120,39477,2,0,L|280:220,1,72
228,353,39927,2,0,L|233:308,1,45
204,299,40227,2,0,L|191:241,1,58.4999973220826
147,195,40527,1,0,0:0:0:0:
213,126,40677,6,0,P|160:101|122:122,1,72
114,279,40977,1,0,0:0:0:0:
275,245,41127,2,0,B|312:273|371:274|392:227|394:182|369:152|369:152|341:122|341:90|341:58|380:26|413:19|459:24|496:78|490:117|446:167,1,504
461,230,42327,1,0,0:0:0:0:
283,166,42477,1,0,0:0:0:0:
283,166,42627,1,0,0:0:0:0:
317,353,42777,1,0,0:0:0:0:
317,353,42927,1,0,0:0:0:0:
276,64,43077,6,0,P|241:67|213:89,1,72
289,267,43377,2,0,P|324:264|352:242,1,72
193,177,43677,1,0,0:0:0:0:
193,177,43827,2,0,P|128:144|128:64,1,144
48,184,44277,2,0,B|40:240|40:240|64:304|64:304|48:368,1,180
156,337,44727,2,0,P|204:321|276:361,1,108
256,339,45027,2,0,P|306:354|356:337,1,108
356,337,45327,1,0,0:0:0:0:
295,183,45477,6,0,L|303:285,1,72
464,354,45777,2,0,L|456:252,1,72
384,248,46077,2,0,B|407:189|485:199|485:199|464:128|464:128|504:88|490:37|466:5|402:5|362:21|354:85|360:128|442:141,1,504
91,195,48477,5,0,0:0:0:0:
52,56,48627,1,0,0:0:0:0:
192,91,48777,2,0,L|259:71,2,45
53,173,49077,1,0,0:0:0:0:
88,33,49227,1,0,0:0:0:0:
192,134,49377,2,0,L|261:151,2,45
44,313,49677,6,0,P|111:301|140:274,1,90
326,205,49977,2,0,B|330:147|330:147|315:83,1,90
110,112,50277,1,0,0:0:0:0:
234,222,50427,1,0,0:0:0:0:
234,222,50502,1,0,0:0:0:0:
234,222,50577,1,0,0:0:0:0:
268,60,50727,2,0,P|311:26|398:176,1,270
343,108,51327,1,0,0:0:0:0:
343,194,51477,5,0,0:0:0:0:
372,227,51552,1,0,0:0:0:0:
415,237,51627,1,0,0:0:0:0:
466,322,51777,2,0,L|356:378,1,90
261,148,52077,1,0,0:0:0:0:
385,362,52227,1,0,0:0:0:0:
418,151,52377,1,0,0:0:0:0:
219,228,52527,1,0,0:0:0:0:
200,71,52677,6,0,P|173:106|170:151,1,90
478,227,52977,2,0,P|505:192|508:147,1,90
308,330,53277,1,0,0:0:0:0:
308,330,53427,2,0,P|235:327|207:357,1,90
181,345,53652,1,0,0:0:0:0:
140,329,53727,2,0,P|102:320|86:330,1,45
32,280,53877,6,0,P|88:179|92:259,1,288
43,59,54327,2,0,B|110:39|110:39|195:48,1,135
174,45,54627,2,0,B|241:65|241:65|326:56,1,135
305,58,54927,1,0,0:0:0:0:
487,46,55077,2,0,L|390:59,1,90
260,143,55377,2,0,P|309:162|364:142,1,90
442,146,55677,6,0,L|436:279,1,116.999994644165
433,357,55977,1,0,0:0:0:0:
433,357,56052,1,0,0:0:0:0:
433,357,56127,1,0,0:0:0:0:
352,305,56277,1,0,0:0:0:0:
436,262,56427,1,0,0:0:0:0:
344,154,56577,1,0,0:0:0:0:
269,349,56727,1,0,0:0:0:0:
184,331,56877,6,0,P|121:353|147:220,1,270
133,218,57477,2,0,P|215:156|62:145,1,350.999983932496
139,143,58077,6,0,L|285:60,1,144
342,51,58527,2,0,L|461:61,1,107.999996704102
457,149,58977,1,0,0:0:0:0:
464,175,59052,1,0,0:0:0:0:
456,201,59127,2,0,P|424:246|439:302,1,107.999996704102
344,335,59577,2,0,L|267:319,1,53.9999983520508
192,334,59877,2,0,B|156:333|156:333|105:347|105:347|70:343,1,107.999996704102
98,256,60327,1,0,0:0:0:0:
48,83,60477,5,0,0:0:0:0:
101,77,60552,1,0,0:0:0:0:
155,72,60627,2,0,L|226:64,1,53.9999983520508
315,152,60927,2,0,B|265:149|265:149|235:166|235:166|186:166,1,107.999996704102
282,247,61377,6,0,P|351:247|284:65,1,360
315,152,62127,1,0,0:0:0:0:
468,256,62277,1,0,0:0:0:0:
213,307,62427,1,0,0:0:0:0:
296,61,62577,1,0,0:0:0:0:
48,53,62877,5,0,0:0:0:0:
50,75,62952,1,0,0:0:0:0:
53,97,63027,1,0,0:0:0:0:
151,102,63177,1,0,0:0:0:0:
153,126,63252,1,0,0:0:0:0:
156,151,63327,1,0,0:0:0:0:
254,156,63477,5,0,0:0:0:0:
257,182,63552,1,0,0:0:0:0:
260,209,63627,1,0,0:0:0:0:
357,213,63777,1,0,0:0:0:0:
360,241,63852,1,0,0:0:0:0:
364,270,63927,1,0,0:0:0:0:
460,273,64077,5,0,0:0:0:0:
464,304,64152,1,0,0:0:0:0:
468,335,64227,1,0,0:0:0:0:
451,179,64377,2,0,B|449:136|449:136|438:93|438:93|435:40,1,125.999996154785
282,290,64677,1,0,0:0:0:0:
155,40,64827,1,0,0:0:0:0:
435,54,64977,1,0,0:0:0:0:
177,249,65127,1,0,0:0:0:0:
356,73,65277,6,0,P|350:129|301:30,1,314.999990386963
281,31,65727,2,0,B|271:105|271:105|302:174|302:174|301:245,1,180
217,369,66177,1,0,0:0:0:0:
100,73,66327,1,0,0:0:0:0:
435,54,66477,2,0,B|429:104|429:104|438:197|438:197|431:268,1,215.999993408203
67,107,67077,6,0,P|67:60|102:120,1,135
131,76,67377,2,0,P|159:130|191:42,1,202.500007724762
203,48,67677,1,0,0:0:0:0:
432,144,67827,1,0,0:0:0:0:
80,192,67977,1,0,0:0:0:0:
345,30,68127,1,0,0:0:0:0:
286,356,68277,6,0,L|154:342,1,107.999996704102
292,116,68577,1,0,0:0:0:0:
474,283,68727,2,0,P|439:212|407:287,1,161.999995056153
396,253,69027,2,0,B|336:233|336:233|268:231|268:231|214:214,1,161.999995056153
234,218,69327,2,0,P|204:275|172:203,1,161.999995056153
164,222,69627,2,0,L|56:244,1,107.999996704102
31,164,69927,1,0,0:0:0:0:
180,16,70077,1,0,0:0:0:0:
234,218,70227,1,0,0:0:0:0:
98,70,70377,6,0,P|143:113|223:96,1,107.999996704102
269,71,70677,1,0,0:0:0:0:
17,30,70827,1,0,0:0:0:0:
178,298,70977,2,0,P|140:245|149:184,1,107.999996704102
234,218,71277,1,0,0:0:0:0:
265,349,71427,1,0,0:0:0:0:
327,239,71577,1,0,0:0:0:0:
325,311,71727,1,0,0:0:0:0:
388,276,71877,6,0,P|424:252|407:335,1,161.999995056153
450,333,72177,2,0,L|470:137,1,161.999995056153
466,171,72477,1,0,0:0:0:0:
187,381,72627,1,0,0:0:0:0:
145,34,72777,1,0,0:0:0:0:
388,276,72927,1,0,0:0:0:0:
31,164,73077,1,0,0:0:0:0:
342,28,73227,1,0,0:0:0:0:
304,365,73377,5,0,0:0:0:0:
81,242,73527,2,0,P|123:185|42:75,1,215.999993408203
31,164,73977,2,0,B|92:163|92:163|154:135|154:135|213:138,1,161.999995056153
186,136,74277,2,0,B|247:163|247:163|313:162,1,107.999996704102
379,193,74577,1,0,0:0:0:0:
234,332,74727,1,0,0:0:0:0:
234,332,74802,1,0,0:0:0:0:
234,332,74877,1,0,0:0:0:0:
359,98,75027,1,0,0:0:0:0:
378,310,75177,5,0,0:0:0:0:
253,76,75327,1,0,0:0:0:0:
451,128,75477,1,0,0:0:0:0:
172,240,75627,1,0,0:0:0:0:
449,244,75777,2,0,P|380:212|326:234,1,107.999996704102
261,177,76077,1,0,0:0:0:0:
378,310,76227,1,0,0:0:0:0:
359,98,76377,1,0,0:0:0:0:
355,338,76527,1,0,0:0:0:0:
242,53,76677,6,0,P|203:102|169:35,1,161.999995056153
167,37,76977,2,0,B|121:77|121:77|85:148|85:148|46:180,1,161.999995056153
68,161,77277,1,0,0:0:0:0:
365,1,77427,1,0,0:0:0:0:
355,338,77577,1,0,0:0:0:0:
167,37,77727,1,0,0:0:0:0:
465,149,77877,2,0,B|462:192|462:192|475:226|475:226|475:288,1,107.999996704102
219,351,78177,5,0,0:0:0:0:
47,345,78327,2,0,P|109:336|111:238,1,161.999995056153
121,249,78627,2,0,B|166:251|166:251|221:232|221:232|281:233,1,161.999995056153
280,233,78927,2,0,P|281:157|342:195,1,161.999995056153
338,179,79227,2,0,L|435:122,1,107.999996704102
477,43,79527,1,0,0:0:0:0:
384,44,79677,6,0,B|343:42|343:42|295:51|295:51|247:47,1,107.999996704102
93,94,79977,2,0,B|134:92|134:92|182:101|182:101|230:97,1,107.999996704102
280,233,80277,1,0,0:0:0:0:
197,15,80427,1,0,0:0:0:0:
49,195,80577,2,0,P|102:203|138:277,1,107.999996704102
58,282,80877,5,0,0:0:0:0:
205,180,81027,1,0,0:0:0:0:
129,327,81177,1,0,0:0:0:0:
210,287,81327,1,0,0:0:0:0:
204,377,81477,2,0,P|268:359|286:250,1,161.999995056153
296,274,81777,2,0,P|314:199|404:194,1,161.999995056153
388,185,82077,5,0,0:0:0:0:
58,282,82227,1,0,0:0:0:0:
171,48,82377,1,0,0:0:0:0:
420,310,82527,1,0,0:0:0:0:
480,112,82677,5,0,0:0:0:0:
454,101,82752,1,0,0:0:0:0:
429,91,82827,2,0,P|370:99|327:33,1,107.999996704102
308,23,83127,2,0,L|221:179,1,161.999995056153
229,164,83427,2,0,P|166:182|181:107,1,161.999995056153
172,110,83727,1,0,0:0:0:0:
58,156,83877,5,0,0:0:0:0:
320,166,84027,1,0,0:0:0:0:
154,367,84177,1,0,0:0:0:0:
175,115,84327,1,0,0:0:0:0:
368,268,84477,2,0,P|304:283|254:239,1,107.999996704102
238,352,84777,5,0,0:0:0:0:
178,281,84927,1,0,0:0:0:0:
331,363,85077,1,0,0:0:0:0:
320,166,85227,1,0,0:0:0:0:
431,347,85377,2,0,P|467:273|448:215,1,107.999996704102
460,56,85677,6,0,B|450:115|450:115|455:173,1,107.999996704102
320,166,85977,2,0,B|329:106|329:106|325:49,1,107.999996704102
63,47,86277,2,0,P|70:118|140:102,1,161.999995056153
140,102,86577,2,0,P|210:86|217:157,1,161.999995056153
217,157,86877,6,0,B|200:218|200:218|208:266|208:266|196:306,1,144
110,259,87327,2,0,P|83:303|133:348,1,116.999994644165
198,297,87777,1,0,0:0:0:0:
198,297,87927,2,0,L|303:309,1,90
373,352,88377,2,0,L|425:344,1,45
468,270,88677,5,0,0:0:0:0:
475,226,88752,1,0,0:0:0:0:
458,185,88827,1,0,0:0:0:0:
421,160,88902,1,0,0:0:0:0:
377,160,88977,1,0,0:0:0:0:
331,159,89052,1,0,0:0:0:0:
294,135,89127,1,0,0:0:0:0:
277,94,89202,1,0,0:0:0:0:
286,51,89277,5,0,0:0:0:0:
189,59,89427,2,0,B|130:66|130:66|70:93|70:93|6:99,1,161.999995056153
41,179,89727,1,0,0:0:0:0:
36,287,89877,2,0,B|93:260|93:260|140:214|140:214|194:188,1,188.999994232178
201,293,90177,1,0,0:0:0:0:
287,242,90327,2,0,P|301:310|120:345,1,288
435,87,90927,5,0,0:0:0:0:
422,60,91077,1,0,0:0:0:0:
449,48,91227,1,0,0:0:0:0:
460,74,91377,2,0,B|478:121|478:121|478:195,1,108
478,178,91677,2,0,B|468:237|468:237|472:297,1,90
363,164,91977,6,0,L|235:175,1,90
134,152,92277,2,0,P|139:108|167:74,1,90
270,75,92577,1,0,0:0:0:0:
190,235,92727,1,0,0:0:0:0:
35,54,92877,2,0,B|42:102|42:102|41:187,1,90
79,328,93177,2,0,B|72:280|72:280|73:195,1,90
134,152,93477,5,0,0:0:0:0:
134,152,93552,1,0,0:0:0:0:
134,152,93627,1,0,0:0:0:0:
190,235,93777,2,0,P|303:242|303:242,1,90
314,336,94077,1,0,0:0:0:0:
350,165,94227,1,0,0:0:0:0:
465,256,94377,2,0,P|352:263|352:263,1,90
260,136,94677,6,0,P|296:82|335:72,1,90
414,93,94977,1,0,0:0:0:0:
350,165,95127,1,0,0:0:0:0:
380,6,95277,1,0,0:0:0:0:
465,256,95427,1,0,0:0:0:0:
472,21,95577,1,0,0:0:0:0:
350,165,95727,1,0,0:0:0:0:
317,73,95877,6,0,L|195:61,1,90
138,53,96177,1,0,0:0:0:0:
51,78,96327,1,0,0:0:0:0:
125,230,96477,2,0,L|115:124,1,90
30,166,96777,1,0,0:0:0:0:
203,115,96927,1,0,0:0:0:0:
125,230,97077,1,0,0:0:0:0:
138,53,97227,1,0,0:0:0:0:
284,152,97377,6,0,P|221:202|188:194,1,90
53,293,97677,2,0,P|93:323|149:314,1,90
125,230,97977,1,0,0:0:0:0:
212,358,98127,1,0,0:0:0:0:
210,275,98277,1,0,0:0:0:0:
282,314,98427,1,0,0:0:0:0:
354,353,98577,2,0,B|391:350|391:350|424:363|424:363|474:364,1,90
469,278,98877,5,0,0:0:0:0:
282,314,99027,1,0,0:0:0:0:
441,363,99177,1,0,0:0:0:0:
280,233,99327,1,0,0:0:0:0:
473,158,99477,2,0,P|431:195|372:178,1,90
400,96,99777,1,0,0:0:0:0:
400,96,99852,1,0,0:0:0:0:
400,96,99927,1,0,0:0:0:0:
280,233,100077,6,0,L|216:243,1,45
225,98,100227,2,0,L|161:108,1,45
207,326,100377,2,0,L|143:336,1,45
152,191,100527,2,0,L|88:201,1,45
72,292,100677,1,0,0:0:0:0:
44,94,101277,6,0,P|91:85|122:123,2,90
59,177,102177,1,0,0:0:0:0:
145,195,102477,2,0,B|192:211|192:211|161:274|204:241|225:265|243:303|225:359|175:383|141:370|96:342|86:288|130:255,1,360
455,348,103977,6,0,L|460:288,1,45
468,205,104277,2,0,L|461:145,1,45
439,82,104577,1,0,0:0:0:0:
439,82,104727,1,0,0:0:0:0:
346,34,104877,2,0,B|295:47|254:39|254:39|282:68|298:98|293:128|270:159|240:152|220:157|193:125,1,270
90,324,106077,6,0,L|151:335,1,45
214,298,106377,2,0,B|202:270|202:270|176:250,3,45
106,245,106977,1,0,0:0:0:0:
160,176,107127,1,0,0:0:0:0:
248,190,107277,2,0,P|315:151|302:279,1,270
202,266,108477,6,0,L|317:278,1,112.5
240,318,108927,2,0,L|352:289,1,112.5
256,192,109377,12,0,110877,0:0:0:0:
376,91,111177,6,0,L|422:139,3,45
478,197,111777,2,0,L|413:212,1,45
355,184,112077,2,0,B|328:156|284:145|260:192|254:245|295:235|310:238|338:225|341:270|335:323|311:336|271:333|253:349|222:316|210:294|221:255,1,360
46,43,113577,6,0,L|103:52,1,45
127,119,113877,2,0,L|180:98,1,45
235,48,114177,2,0,L|296:52,1,45
409,45,114477,2,0,P|377:136|454:65,1,270
424,336,115677,5,0,0:0:0:0:
368,317,115827,1,0,0:0:0:0:
368,259,115977,1,0,0:0:0:0:
424,241,116127,1,0,0:0:0:0:
458,288,116277,1,0,0:0:0:0:
424,336,116427,1,0,0:0:0:0:
368,317,116577,2,0,L|319:348,1,45
241,342,116877,6,0,L|140:316,1,90
65,340,117327,2,0,P|61:297|101:250,1,90
171,234,117777,2,0,L|166:181,1,45
299,61,118077,6,0,L|331:93,1,45
369,63,118527,2,0,L|369:111,1,45
434,76,118977,2,0,L|366:157,1,90
453,231,120477,6,0,L|369:243,1,67.5000025749208
363,322,120777,1,0,0:0:0:0:
363,322,120927,1,0,0:0:0:0:
305,262,121077,2,0,P|278:298|285:354,1,101.250003862381
283,351,121377,2,0,L|188:345,1,67.5000025749208
51,274,121677,6,0,L|145:255,1,67.5000025749208
238,198,121977,2,0,L|144:179,1,67.5000025749208
82,174,122277,2,0,L|73:51,1,101.250003862381
74,73,122577,1,0,0:0:0:0:
162,104,122727,1,0,0:0:0:0:
233,44,122877,6,0,L|315:54,1,67.5000025749208
456,39,123177,2,0,L|374:49,1,67.5000025749208
352,127,123477,1,0,0:0:0:0:
352,127,123552,1,0,0:0:0:0:
352,127,123627,1,0,0:0:0:0:
346,221,123777,2,0,P|394:212|415:187,1,67.5000025749208
264,170,124077,2,0,L|186:181,7,67.5000025749208
273,330,125277,6,0,L|263:246,1,67.5000025749208
346,221,125577,1,0,0:0:0:0:
346,221,125727,1,0,0:0:0:0:
369,309,125877,2,0,B|412:308|412:308|494:279,1,101.250003862381
467,285,126177,2,0,L|457:200,1,67.5000025749208
480,45,126477,6,0,L|386:55,1,67.5000025749208
319,39,126777,2,0,L|243:33,1,67.5000025749208
54,53,127077,2,0,L|168:44,1,101.250003862381
154,45,127377,1,0,0:0:0:0:
211,126,127527,1,0,0:0:0:0:
132,195,127677,6,0,P|113:167|111:134,1,67.5000025749208
37,290,127977,2,0,L|124:286,1,67.5000025749208
197,264,128277,1,0,0:0:0:0:
197,264,128352,1,0,0:0:0:0:
197,264,128427,1,0,0:0:0:0:
170,355,128577,1,0,0:0:0:0:
263,333,128727,2,0,L|329:342,8,67.5000025749208
425,322,130077,6,0,P|415:290|390:269,1,67.5000025749208
474,227,130377,1,0,0:0:0:0:
395,174,130527,1,0,0:0:0:0:
310,217,130677,2,0,P|294:172|328:104,1,101.250003862381
309,122,130977,2,0,L|290:30,1,67.5000025749208
208,94,131277,5,0,0:0:0:0:
387,79,131427,1,0,0:0:0:0:
208,94,131577,1,0,0:0:0:0:
387,79,131727,1,0,0:0:0:0:
463,134,131877,2,0,P|480:75|460:34,1,101.250003862381
465,40,132177,1,0,0:0:0:0:
387,79,132327,1,0,0:0:0:0:
295,56,132477,6,0,L|309:122,1,67.5000025749208
233,195,132777,2,0,P|185:194|164:178,1,67.5000025749208
208,94,133077,1,0,0:0:0:0:
208,94,133152,1,0,0:0:0:0:
208,94,133227,1,0,0:0:0:0:
112,116,133377,2,0,L|51:171,1,67.5000025749208
102,314,133677,2,0,L|96:231,7,67.5000025749208
203,336,134877,5,0,0:0:0:0:
236,329,134952,1,0,0:0:0:0:
269,323,135027,1,0,0:0:0:0:
367,332,135177,1,0,0:0:0:0:
400,336,135252,1,0,0:0:0:0:
433,340,135327,1,0,0:0:0:0:
484,246,135477,2,0,P|426:229|365:229,1,101.250003862381
385,227,135777,2,0,L|297:233,1,67.5000025749208
214,235,136077,5,0,0:0:0:0:
367,332,136227,1,0,0:0:0:0:
269,323,136377,1,0,0:0:0:0:
385,227,136527,1,0,0:0:0:0:
327,152,136677,2,0,P|375:123|419:139,1,101.250003862381
414,135,136977,2,0,P|472:118|479:96,1,67.5000025749208
416,39,137277,5,0,0:0:0:0:
385,227,137427,1,0,0:0:0:0:
317,45,137577,1,0,0:0:0:0:
477,213,137727,1,0,0:0:0:0:
327,152,137877,2,0,P|264:136|229:36,1,161.999995056153
225,53,138177,2,0,B|162:73|162:73|98:75,1,107.999996704102
41,42,138477,1,0,0:0:0:0:
41,42,138627,1,0,0:0:0:0:
48,135,138777,2,0,B|50:177|50:177|63:219|63:219|64:271,1,107.999996704102
46,325,139077,5,0,0:0:0:0:
86,333,139152,1,0,0:0:0:0:
126,334,139227,1,0,0:0:0:0:
166,328,139302,1,0,0:0:0:0:
205,316,139377,1,0,0:0:0:0:
245,312,139452,1,0,0:0:0:0:
285,315,139527,1,0,0:0:0:0:
325,324,139602,1,0,0:0:0:0:
362,340,139677,2,0,P|416:353|347:269,1,270
261,133,140277,6,0,L|276:229,1,90
285,315,140577,1,0,0:0:0:0:
354,149,140727,1,0,0:0:0:0:
176,173,140877,2,0,P|171:98|288:48,1,180
261,133,141327,1,0,0:0:0:0:
354,149,141477,5,0,0:0:0:0:
94,38,141627,1,0,0:0:0:0:
128,319,141777,1,0,0:0:0:0:
249,41,141927,1,0,0:0:0:0:
429,284,142077,2,0,B|370:282|370:282|293:318|293:318|217:314,1,180
49,81,142677,6,0,P|80:135|127:94,1,135
127,101,143277,2,0,P|202:41|245:121,1,202.500007724762
248,110,143877,2,0,P|292:219|372:136,1,270
332,53,144477,1,0,0:0:0:0:
42,224,144627,1,0,0:0:0:0:
337,356,144777,1,0,0:0:0:0:
187,40,144927,1,0,0:0:0:0:
450,90,145077,2,0,P|468:133|451:188,1,90
176,345,145377,5,0,0:0:0:0:
88,327,145527,2,0,P|125:262|198:264,1,135
179,255,145827,2,0,P|232:253|192:178,1,135
229,184,146127,2,0,P|218:135|127:170,1,135
144,131,146427,2,0,L|17:143,1,90
43,49,146727,1,0,0:0:0:0:
169,244,146877,5,0,0:0:0:0:
169,244,146952,1,0,0:0:0:0:
169,244,147027,1,0,0:0:0:0:
275,38,147177,1,0,0:0:0:0:
54,139,147327,1,0,0:0:0:0:
183,40,147477,1,0,0:0:0:0:
252,273,147627,1,0,0:0:0:0:
181,333,147777,2,0,P|125:329|101:295,1,90
80,222,148077,5,0,0:0:0:0:
266,364,148227,1,0,0:0:0:0:
231,119,148377,1,0,0:0:0:0:
181,333,148527,1,0,0:0:0:0:
338,307,148677,1,0,0:0:0:0:
139,158,148827,1,0,0:0:0:0:
367,60,148977,2,0,B|380:110|380:110|429:158,1,90
460,60,149277,5,0,0:0:0:0:
151,58,149427,1,0,0:0:0:0:
304,327,149577,1,0,0:0:0:0:
367,60,149727,1,0,0:0:0:0:
104,305,149877,1,0,0:0:0:0:
403,361,150027,1,0,0:0:0:0:
278,30,150177,5,0,0:0:0:0:
39,240,150327,2,0,P|89:215|196:287,1,180
180,360,150777,2,0,P|240:354|255:309,1,90
364,225,151077,2,0,L|239:251,1,90
220,165,151377,1,0,0:0:0:0:
104,305,151527,2,0,B|114:251|114:251|91:174|91:174|96:90,1,180
143,44,151977,2,0,P|95:26|40:61,1,90
3,115,152277,5,0,0:0:0:0:
143,44,152427,1,0,0:0:0:0:
220,165,152577,1,0,0:0:0:0:
252,69,152727,2,0,P|314:111|316:214,1,180
251,336,153177,5,0,0:0:0:0:
284,331,153252,1,0,0:0:0:0:
317,326,153327,1,0,0:0:0:0:
351,321,153402,1,0,0:0:0:0:
384,316,153477,2,0,P|439:337|428:265,1,135
449,277,153777,2,0,L|454:169,1,90
399,105,154077,5,0,0:0:0:0:
251,336,154227,1,0,0:0:0:0:
453,187,154377,1,0,0:0:0:0:
143,44,154527,1,0,0:0:0:0:
112,349,154677,2,0,P|161:324|160:267,1,90
317,36,154977,1,0,0:0:0:0:
65,98,155127,2,0,P|116:139|198:120,1,135
181,131,155427,2,0,P|234:112|264:133,1,90
241,226,155727,2,0,P|325:203|357:123,1,180
497,56,156177,6,0,L|408:48,1,90
317,36,156477,1,0,0:0:0:0:
317,36,156552,1,0,0:0:0:0:
317,36,156627,1,0,0:0:0:0:
446,139,156777,2,0,B|442:187|442:187|452:259,1,90
445,335,157077,2,0,P|402:327|369:298,1,90
203,364,157377,2,0,L|293:353,1,90
285,264,157677,5,0,0:0:0:0:
446,139,157827,1,0,0:0:0:0:
445,335,157977,1,0,0:0:0:0:
356,122,158127,1,0,0:0:0:0:
481,239,158277,1,0,0:0:0:0:
293,353,158427,1,0,0:0:0:0:
124,182,158577,2,0,L|250:193,1,90
285,264,158877,5,0,0:0:0:0:
88,87,159027,1,0,0:0:0:0:
34,347,159177,1,0,0:0:0:0:
272,113,159327,1,0,0:0:0:0:
208,321,159477,2,0,L|79:286,1,90
36,239,159777,5,0,0:0:0:0:
184,80,159927,2,0,P|221:35|341:57,1,180
365,141,160377,2,0,P|421:99|424:58,1,90
272,113,160677,1,0,0:0:0:0:
495,27,160827,1,0,0:0:0:0:
457,263,160977,1,0,0:0:0:0:
484,353,161127,2,0,P|428:353|377:224,1,180
295,202,161577,6,0,P|232:199|205:172,1,90
272,113,161877,1,0,0:0:0:0:
181,98,162027,1,0,0:0:0:0:
123,168,162177,2,0,L|29:177,1,90
94,84,162477,2,0,P|119:29|166:15,1,90
242,24,162777,1,0,0:0:0:0:
181,98,162927,1,0,0:0:0:0:
123,168,163077,2,0,L|131:264,1,90
64,330,163377,2,0,P|112:353|161:348,1,90
212,293,163677,6,0,L|381:331,1,144
446,356,164127,2,0,P|455:295|412:266,1,116.999994644165
472,186,164577,1,0,0:0:0:0:
472,186,164727,2,0,L|462:94,1,90
387,46,165177,2,0,L|338:48,1,45
261,56,165477,5,0,0:0:0:0:
229,75,165552,1,0,0:0:0:0:
192,78,165627,1,0,0:0:0:0:
158,64,165702,1,0,0:0:0:0:
115,42,165777,1,0,0:0:0:0:
69,57,165852,1,0,0:0:0:0:
48,100,165927,1,0,0:0:0:0:
64,145,166002,1,0,0:0:0:0:
107,166,166077,5,0,0:0:0:0:
61,262,166227,2,0,P|130:278|178:212,1,135
231,329,166527,1,0,0:0:0:0:
317,376,166677,2,0,P|322:298|258:237,1,161.999995056153
217,157,166977,1,0,0:0:0:0:
310,162,167127,2,0,P|371:127|262:106,1,251.999992309571
454,48,167652,5,0,0:0:0:0:
450,129,167802,1,0,0:0:0:0:
461,212,167952,1,0,0:0:0:0:
461,293,168102,2,0,P|442:339|406:313,1,90
413,329,168477,2,0,L|317:327,1,90
236,354,168777,5,0,0:0:0:0:
196,356,168927,1,0,0:0:0:0:
251,267,169227,1,0,0:0:0:0:
449,109,169527,1,0,0:0:0:0:
449,55,169677,1,0,0:0:0:0:
403,82,169827,1,0,0:0:0:0:
403,136,169977,5,0,0:0:0:0:
403,136,170127,1,0,0:0:0:0:
323,101,170277,2,0,L|265:90,1,45
52,36,170502,2,0,B|108:69|108:69|150:75|150:75|202:108,1,135
229,167,170877,5,0,0:0:0:0:
235,256,171027,1,0,0:0:0:0:
241,346,171177,1,0,0:0:0:0:
161,307,171327,1,0,0:0:0:0:
310,206,171627,1,0,0:0:0:0:
154,216,171927,5,0,0:0:0:0:
235,256,172077,1,0,0:0:0:0:
316,296,172227,1,0,0:0:0:0:
397,336,172377,2,0,L|442:315,1,45
440,293,172677,2,0,L|480:264,1,45
474,243,172977,2,0,L|509:207,1,45
80,268,173277,5,0,0:0:0:0:
154,217,173427,1,0,0:0:0:0:
229,167,173577,1,0,0:0:0:0:
149,128,173727,1,0,0:0:0:0:
161,306,174027,1,0,0:0:0:0:
235,256,174327,5,0,0:0:0:0:
154,217,174477,1,0,0:0:0:0:
73,178,174627,1,0,0:0:0:0:
67,87,174777,1,0,0:0:0:0:
67,87,174927,1,0,0:0:0:0:
149,128,175077,2,0,L|180:67,1,45
392,77,175302,2,0,B|338:74|338:74|293:83|293:83|258:79,1,135
471,34,175677,5,0,0:0:0:0:
469,124,175827,1,0,0:0:0:0:
467,214,175977,1,0,0:0:0:0:
476,242,176127,1,0,0:0:0:0:
485,270,176427,1,0,0:0:0:0:
421,352,176727,5,0,0:0:0:0:
412,324,176877,1,0,0:0:0:0:
403,296,177027,1,0,0:0:0:0:
351,222,177177,1,0,0:0:0:0:
274,348,177327,1,0,0:0:0:0:
327,212,177477,1,0,0:0:0:0:
297,357,177627,1,0,0:0:0:0:
299,211,177777,2,0,L|316:290,1,45
152,56,178077,5,0,0:0:0:0:
122,160,178227,1,0,0:0:0:0:
93,264,178377,1,0,0:0:0:0:
198,238,178527,1,0,0:0:0:0:
46,82,178827,1,0,0:0:0:0:
17,187,179127,1,0,0:0:0:0:
122,160,179277,1,0,0:0:0:0:
227,133,179427,1,0,0:0:0:0:
332,106,179577,5,0,0:0:0:0:
332,106,179727,1,0,0:0:0:0:
302,210,179877,2,0,L|323:276,1,45
434,62,180102,2,0,P|443:128|408:184,1,135
457,340,180477,5,0,0:0:0:0:
349,336,180627,1,0,0:0:0:0:
241,332,180777,1,0,0:0:0:0:
133,328,180927,1,0,0:0:0:0:
457,340,181227,1,0,0:0:0:0:
133,328,181527,5,0,0:0:0:0:
241,332,181677,1,0,0:0:0:0:
349,336,181827,1,0,0:0:0:0:
246,369,181977,5,0,0:0:0:0:
451,302,182127,1,0,0:0:0:0:
241,332,182277,1,0,0:0:0:0:
457,340,182427,1,0,0:0:0:0:
249,296,182577,1,0,0:0:0:0:
449,377,182727,1,0,0:0:0:0:
425,171,182877,6,0,P|453:137|463:94,1,90
373,94,183177,1,0,0:0:0:0:
418,17,183327,1,0,0:0:0:0:
418,17,183627,1,0,0:0:0:0:
373,94,183927,5,0,0:0:0:0:
284,80,184077,1,0,0:0:0:0:
195,66,184227,1,0,0:0:0:0:
105,53,184377,1,0,0:0:0:0:
105,53,184527,1,0,0:0:0:0:
105,53,184677,2,0,L|26:34,1,45
120,270,184902,2,0,B|130:228|130:228|127:189|127:189|139:138,1,135
64,341,185277,5,0,0:0:0:0:
154,355,185427,1,0,0:0:0:0:
244,369,185577,1,0,0:0:0:0:
212,285,185727,2,0,P|272:279|335:380,1,180
244,369,186327,1,0,0:0:0:0:
154,355,186477,1,0,0:0:0:0:
64,341,186627,1,0,0:0:0:0:
31,256,186777,5,0,0:0:0:0:
31,256,186852,2,0,L|91:228,1,45
153,199,187077,1,0,0:0:0:0:
153,199,187152,2,0,L|213:171,1,45
275,142,187377,1,0,0:0:0:0:
275,142,187452,2,0,L|335:114,1,45
348,38,187677,6,0,P|401:87|375:191,1,180
381,184,188277,1,0,0:0:0:0:
381,184,188877,1,0,0:0:0:0:
381,184,189477,1,0,0:0:0:0:
381,184,190077,1,0,0:0:0:0:
381,184,190677,1,0,0:0:0:0:
382,184,191277,1,0,0:0:0:0:
381,184,191877,1,0,0:0:0:0:
381,184,192477,5,0,0:0:0:0:
381,229,192777,1,0,0:0:0:0:
420,207,193077,1,0,0:0:0:0:
419,161,193377,1,0,0:0:0:0:
381,138,193677,1,0,0:0:0:0:
342,160,193977,1,0,0:0:0:0:
343,206,194277,1,0,0:0:0:0:
381,229,194577,1,0,0:0:0:0:
381,184,194727,1,0,0:0:0:0:
382,272,194877,5,0,0:0:0:0:
382,91,195027,1,0,0:0:0:0:
304,227,195177,1,0,0:0:0:0:
459,137,195327,1,0,0:0:0:0:
304,136,195477,1,0,0:0:0:0:
459,227,195627,1,0,0:0:0:0:
382,91,195777,5,0,0:0:0:0:
382,272,195927,2,0,L|382:227,1,45
459,137,196077,2,0,L|420:159,1,45
304,227,196227,2,0,L|342:204,1,45
459,227,196377,2,0,L|420:204,1,45
304,136,196527,2,0,L|342:158,1,45
382,272,196677,5,0,0:0:0:0:
330,313,196752,1,0,0:0:0:0:
264,311,196827,1,0,0:0:0:0:
216,266,196902,1,0,0:0:0:0:
209,200,196977,1,0,0:0:0:0:
202,134,197052,1,0,0:0:0:0:
154,89,197127,1,0,0:0:0:0:
88,87,197202,1,0,0:0:0:0:
37,129,197277,6,0,P|87:198|27:287,1,180
50,276,197727,1,0,0:0:0:0:
130,349,197877,1,0,0:0:0:0:
304,227,198027,1,0,0:0:0:0:
130,349,198177,1,0,0:0:0:0:
304,227,198327,1,0,0:0:0:0:
325,314,198477,6,0,P|383:269|354:149,1,180
290,139,198927,1,0,0:0:0:0:
359,81,199077,1,0,0:0:0:0:
415,362,199227,1,0,0:0:0:0:
143,269,199377,1,0,0:0:0:0:
445,111,199527,1,0,0:0:0:0:
32,32,199677,2,0,B|96:48|96:48|208:24|208:24|320:32,1,270
472,344,200277,6,0,L|328:352,1,135
257,336,200877,2,0,P|216:235|178:332,1,270.000010299683
68,329,201627,2,0,L|61:254,1,67.5
305,39,204477,5,0,0:0:0:0:
125,286,204627,1,0,0:0:0:0:
416,192,204777,1,0,0:0:0:0:
125,97,204927,1,0,0:0:0:0:
305,344,205077,2,0,B|361:345|361:345|433:317,1,107.999996704102
416,192,205377,5,0,0:0:0:0:
339,249,205527,2,0,P|322:196|396:99,1,161.999995056153
371,108,205827,2,0,L|254:124,1,107.999996704102
46,186,206127,2,0,B|98:196|98:196|156:188|156:188|220:199,1,161.999995056153
205,196,206427,2,0,L|224:303,1,107.999996704102
214,340,206727,1,0,0:0:0:0:
123,271,206877,5,0,0:0:0:0:
123,271,206952,1,0,0:0:0:0:
123,271,207027,1,0,0:0:0:0:
416,192,207177,1,0,0:0:0:0:
180,100,207327,1,0,0:0:0:0:
214,340,207477,1,0,0:0:0:0:
372,107,207627,1,0,0:0:0:0:
123,271,207777,1,0,0:0:0:0:
384,342,207927,1,0,0:0:0:0:
466,111,208077,5,0,0:0:0:0:
141,7,208227,1,0,0:0:0:0:
214,340,208377,1,0,0:0:0:0:
422,28,208527,1,0,0:0:0:0:
102,100,208677,1,0,0:0:0:0:
302,370,208827,1,0,0:0:0:0:
476,202,208977,2,0,P|403:180|377:122,1,107.999996704102
466,111,209277,5,0,0:0:0:0:
38,40,209427,1,0,0:0:0:0:
466,111,209577,1,0,0:0:0:0:
38,40,209727,1,0,0:0:0:0:
466,111,209877,1,0,0:0:0:0:
38,40,210027,1,0,0:0:0:0:
466,111,210177,1,0,0:0:0:0:
385,346,210327,2,0,P|301:287|214:340,1,215.999993408203
46,134,210777,6,0,L|183:155,1,107.999996704102
287,203,211077,2,0,P|305:138|278:94,1,107.999996704102
316,25,211377,1,0,0:0:0:0:
471,340,211527,2,0,B|407:344|407:344|308:336|308:336|216:348,1,215.999993408203
163,349,211977,1,0,0:0:0:0:
383,89,212127,1,0,0:0:0:0:
225,39,212277,5,0,0:0:0:0:
401,264,212427,1,0,0:0:0:0:
163,349,212577,1,0,0:0:0:0:
383,89,212727,1,0,0:0:0:0:
463,43,212877,2,0,P|483:109|457:150,1,107.999996704102
382,176,213177,2,0,L|247:197,1,107.999996704102
68,114,213477,6,0,P|89:179|206:162,1,161.999995056153
173,192,213777,2,0,B|179:314|179:314|155:397,1,161.999995056153
77,292,214077,1,0,0:0:0:0:
275,192,214227,1,0,0:0:0:0:
144,31,214377,1,0,0:0:0:0:
167,352,214527,1,0,0:0:0:0:
457,232,214677,6,0,P|481:176|461:131,1,107.999996704102
382,176,214977,1,0,0:0:0:0:
229,61,215127,2,0,P|187:111|84:96,1,161.999995056153
96,106,215427,2,0,L|49:211,1,107.999996704102
209,361,215727,2,0,B|194:307|194:307|163:252|163:252|143:186,1,161.999995056153
150,211,216027,2,0,P|208:244|255:216,1,107.999996704102
282,228,216327,1,0,0:0:0:0:
345,350,216477,6,0,L|414:355,2,53.9999983520508
475,50,216777,2,0,B|413:64|413:64|353:62,1,107.999996704102
351,140,217077,1,0,0:0:0:0:
466,315,217227,1,0,0:0:0:0:
448,194,217377,1,0,0:0:0:0:
371,254,217527,1,0,0:0:0:0:
474,48,217677,5,0,0:0:0:0:
345,350,217827,1,0,0:0:0:0:
286,78,217977,1,0,0:0:0:0:
466,315,218127,1,0,0:0:0:0:
171,353,218277,2,0,P|76:350|47:317,1,107.999996704102
112,136,218577,2,0,L|122:274,1,107.999996704102
217,276,218877,5,0,0:0:0:0:
31,259,219027,1,0,0:0:0:0:
53,45,219177,2,0,L|196:60,1,107.999996704102
425,43,219477,2,0,L|292:57,1,107.999996704102
241,93,219777,1,0,0:0:0:0:
266,183,219927,2,0,P|354:207|310:122,1,215.999993408203
456,313,220377,5,0,0:0:0:0:
425,339,220452,1,0,0:0:0:0:
387,352,220527,1,0,0:0:0:0:
347,352,220602,1,0,0:0:0:0:
309,339,220677,1,0,0:0:0:0:
271,326,220752,1,0,0:0:0:0:
231,326,220827,1,0,0:0:0:0:
193,339,220902,1,0,0:0:0:0:
163,366,220977,5,0,0:0:0:0:
110,368,221052,1,0,0:0:0:0:
72,332,221127,1,0,0:0:0:0:
71,280,221202,1,0,0:0:0:0:
109,243,221277,2,0,P|115:173|92:125,1,107.999996704102
26,60,221577,2,0,P|95:30|144:56,1,107.999996704102
222,80,221877,5,0,0:0:0:0:
321,121,222027,1,0,0:0:0:0:
420,162,222177,2,0,P|433:98|406:57,1,107.999996704102
334,227,222477,1,0,0:0:0:0:
317,13,222627,1,0,0:0:0:0:
145,138,222777,2,0,B|185:163|185:163|226:171|226:171|263:196,1,107.999996704102
344,332,223077,2,0,B|345:284|345:284|332:245|332:245|335:200,1,107.999996704102
413,62,223377,2,0,B|371:84|371:84|343:115|343:115|303:135,1,107.999996704102
410,180,223677,5,0,0:0:0:0:
410,180,223827,1,0,0:0:0:0:
453,351,223977,2,0,L|469:230,1,107.999996704102
255,303,224277,2,0,B|188:320|188:320|125:320,1,107.999996704102
62,236,224577,2,0,B|129:219|129:219|192:219,1,107.999996704102
167,219,224877,1,0,0:0:0:0:
149,320,225027,1,0,0:0:0:0:
184,183,225177,1,0,0:0:0:0:
132,356,225327,1,0,0:0:0:0:
256,114,225477,6,0,P|211:79|140:97,1,107.999996704102
328,50,225777,2,0,L|435:42,1,107.999996704102
467,145,226077,1,0,0:0:0:0:
369,187,226227,1,0,0:0:0:0:
453,252,226377,1,0,0:0:0:0:
488,354,226527,2,0,B|406:343|406:343|299:346|299:346|252:336,1,215.999993408203
256,192,226977,1,0,0:0:0:0:
24,30,227127,2,0,B|106:41|106:41|213:38|213:38|260:48,1,215.999993408203
173,221,227577,6,0,P|166:169|193:123,1,107.999996704102
256,192,227877,1,0,0:0:0:0:
87,116,228027,1,0,0:0:0:0:
104,307,228177,1,0,0:0:0:0:
256,192,228327,2,0,B|318:192|318:192|395:169|395:169|489:181,1,215.999993408203
459,285,228777,6,0,L|469:166,1,107.999996704102
470,40,229077,2,0,P|421:82|405:53,1,107.999996704102
373,35,229377,1,0,0:0:0:0:
327,53,229527,2,0,L|128:71,1,180
61,44,229977,2,0,P|60:105|77:128,1,90
160,157,230277,2,0,P|121:216|34:195,1,135
62,217,230577,5,0,0:0:0:0:
36,268,230652,1,0,0:0:0:0:
53,323,230727,1,0,0:0:0:0:
102,351,230802,1,0,0:0:0:0:
158,339,230877,2,0,P|232:324|284:348,1,116.999994644165
360,351,231177,5,0,0:0:0:0:
327,53,231327,1,0,0:0:0:0:
62,217,231477,1,0,0:0:0:0:
269,337,231627,1,0,0:0:0:0:
228,32,231777,1,0,0:0:0:0:
260,129,231927,2,0,P|342:155|419:92,1,175.499991966248
411,108,232227,2,0,L|441:236,1,116.999994644165
269,337,232527,2,0,B|172:331|78:354|78:354|30:347,1,233.999989288331
36,348,232977,2,0,P|58:263|99:263,1,116.999994644165
169,248,233277,5,0,0:0:0:0:
169,248,233352,1,0,0:0:0:0:
169,248,233427,1,0,0:0:0:0:
90,48,233577,2,0,L|102:178,1,116.999994644165
269,337,233877,2,0,L|257:207,1,116.999994644165
190,157,234177,1,0,0:0:0:0:
279,130,234327,1,0,0:0:0:0:
346,193,234477,6,0,B|408:205|408:205|481:183,1,116.999994644165
467,286,234777,1,0,0:0:0:0:
402,104,234927,1,0,0:0:0:0:
279,130,235077,2,0,P|223:75|131:91,1,175.499991966248
133,89,235377,2,0,P|72:113|25:67,1,116.999994644165
190,157,235677,5,0,0:0:0:0:
479,45,235827,1,0,0:0:0:0:
431,351,235977,1,0,0:0:0:0:
212,63,236127,1,0,0:0:0:0:
470,261,236277,2,0,P|387:266|354:310,1,116.999994644165
431,351,236577,5,0,0:0:0:0:
342,364,236727,2,0,B|270:371|270:371|168:353|168:353|111:361,1,233.999989288331
47,290,237177,1,0,0:0:0:0:
47,290,237327,1,0,0:0:0:0:
99,50,237477,1,0,0:0:0:0:
280,215,237627,2,0,L|181:113,1,116.999994644165
198,131,237927,2,0,P|286:96|373:227,1,233.999989288331
348,284,238377,2,0,P|424:285|456:250,1,116.999994644165
471,166,238677,6,0,L|477:37,1,116.999994644165
428,24,238977,1,0,0:0:0:0:
376,183,239127,2,0,P|304:99|202:128,1,207.000003948212
218,113,239577,2,0,L|282:205,1,103.500001974106
283,372,239877,2,0,L|270:262,1,90
199,240,240177,5,0,0:0:0:0:
173,204,240252,1,0,0:0:0:0:
130,218,240327,1,0,0:0:0:0:
130,263,240402,1,0,0:0:0:0:
173,277,240477,2,0,L|179:359,1,67.5000025749208
89,353,240777,5,0,0:0:0:0:
27,271,240927,1,0,0:0:0:0:
27,271,241227,1,0,0:0:0:0:
27,271,241527,2,0,L|19:108,1,135.000005149842
96,58,241977,2,0,L|39:39,3,33.7500012874604
184,68,242277,5,0,0:0:0:0:
213,84,242352,1,0,0:0:0:0:
245,91,242427,1,0,0:0:0:0:
279,87,242502,1,0,0:0:0:0:
309,73,242577,1,0,0:0:0:0:
335,52,242652,1,0,0:0:0:0:
368,47,242727,1,0,0:0:0:0:
399,58,242802,1,0,0:0:0:0:
421,84,242877,5,0,0:0:0:0:
442,279,243027,2,0,L|428:150,1,90
342,148,243327,5,0,0:0:0:0:
362,342,243477,2,0,L|348:213,1,90
267,210,243777,1,0,0:0:0:0:
277,299,243927,2,0,P|208:280|241:114,1,270
56,208,245727,5,0,0:0:0:0:
141,183,245877,2,0,P|117:135|72:118,1,90
48,40,246327,6,0,B|124:58|124:58|236:25|236:25|307:100|388:17|388:17|354:57|319:102|382:182|408:178|491:177|535:81|423:84,1,697.5
