osu file format v14

[General]
AudioFilename: audio.mp3
AudioLeadIn: 0
PreviewTime: 48125
Countdown: 0
SampleSet: Soft
StackLeniency: 0.7
Mode: 0
LetterboxInBreaks: 0
WidescreenStoryboard: 1

[Editor]
Bookmarks: 47833,80666
DistanceSpacing: 1
BeatDivisor: 4
GridSize: 4
TimelineZoom: 1

[Metadata]
Title:Haru Urara, Kimi to Sakihokoru
TitleUnicode:春ウララ、君ト咲キ誇ル
Artist:Konohana-tei Nakai no Kai
ArtistUnicode:此花亭仲居の会
Creator:Rizia
Version:Hard
Source:このはな綺譚
Tags:Konohana Kitan anime tv size ending 柚 Yuzu 大野柚布子 Ono Yuko 皐 Satsuki 秦佐和子 Hata Sawako 棗 Natsume 諏訪彩花 Suwa Ayaka 蓮 Hasu 久保田梨沙 Kubota Risa 櫻 Sakura 加隈亞衣 Kakuma Ai 桐 Kiri 沼倉愛美 Numakura Manami kawaiwkyik
BeatmapID:1437743
BeatmapSetID:677314

[Difficulty]
HPDrainRate:6
CircleSize:4
OverallDifficulty:6
ApproachRate:8
SliderMultiplier:1.6
SliderTickRate:1

[Events]
//Background and Video events
Video,-484,"optc (3).flv"
0,0,"bg.jpg",0,0
//Break Periods
//Storyboard Layer 0 (Background)
//Storyboard Layer 1 (Fail)
//Storyboard Layer 2 (Pass)
//Storyboard Layer 3 (Foreground)
//Storyboard Sound Samples

[TimingPoints]
167,333.333333333333,4,2,1,40,1,0
10833,-133.333333333333,4,2,1,40,0,0
16166,-133.333333333333,4,2,1,40,0,0
24166,-100,4,2,1,50,0,0
37500,-133.333333333333,4,2,1,40,0,0
42833,-100,4,2,1,50,0,0
46000,-100,4,2,1,55,0,0
46500,-100,4,2,1,60,0,0
47000,-100,4,2,1,65,0,0
47500,-100,4,2,1,70,0,0
49166,-100,4,2,1,40,0,0
50833,-100,4,2,1,60,0,1
72166,-100,4,2,1,40,0,0
73500,-133.333333333333,4,2,1,40,0,0
76333,-100,4,2,1,40,0,0
76500,-100,4,2,1,50,0,0
76666,-100,4,2,1,55,0,0
76833,-100,4,2,1,60,0,0
77000,-100,4,2,1,65,0,0
77166,-100,4,2,1,5,0,0
77333,-100,4,2,1,75,0,0
77500,-100,4,2,1,60,0,1
88833,-100,4,2,1,5,0,0

[Colours]
Combo1 : 136,85,82
Combo2 : 247,231,198
Combo3 : 130,107,163
Combo4 : 101,78,84
Combo5 : 251,221,223

[HitObjects]
80,92,167,6,0,P|120:88|180:120,2,80,2|0|0,0:0|0:0|0:0,0:0:0:0:
32,156,666,2,0,P|39:194|63:227,1,80,2|0,0:0|0:0,0:0:0:0:
144,236,1000,2,0,P|173:209|190:173,1,80,2|0,0:0|0:0,0:0:0:0:
240,116,1333,5,2,0:0:0:0:
240,116,1500,1,0,0:0:0:0:
240,116,1666,2,0,P|280:148|392:148,1,160,2|0,0:0|0:0,0:0:0:0:
452,108,2166,1,2,0:0:0:0:
452,108,2833,6,0,P|412:104|352:136,2,80,2|0|0,0:0|0:0|0:0,0:0:0:0:
500,172,3332,2,0,P|493:210|469:243,1,80,2|0,0:0|0:0,0:0:0:0:
388,252,3666,2,0,P|359:225|342:189,1,80,2|0,0:0|0:0,0:0:0:0:
292,132,3999,5,2,0:0:0:0:
292,132,4166,1,0,0:0:0:0:
292,132,4332,2,0,P|252:164|140:164,1,160,2|0,0:0|0:0,0:0:0:0:
80,124,4832,1,2,0:0:0:0:
256,192,5500,12,0,7833,0:0:0:0:
120,104,8166,5,8,0:0:0:0:
192,136,8333,1,0,0:0:0:0:
272,120,8500,1,8,0:0:0:0:
328,60,8666,2,0,P|368:36|492:56,2,160,8|8|4,0:0|0:0|0:0,0:0:0:0:
244,196,9666,6,0,P|237:239|236:296,2,80,8|8|8,0:0|0:0|0:0,0:0:0:0:
272,120,10166,2,0,P|232:122|192:128,1,80,8|8,0:0|0:0,0:0:0:0:
328,184,10500,2,0,P|361:162|392:136,1,80,8|8,0:0|0:0,0:0:0:0:
244,196,10833,6,0,P|228:240|236:336,1,120.000004577637,4|2,0:0|0:0,0:0:0:0:
356,384,11500,2,0,L|416:376,2,60.0000022888184,0|2|0,0:0|0:0|0:0,0:0:0:0:
444,272,12166,6,0,P|460:228|452:132,1,120.000004577637,2|0,0:0|0:0,0:0:0:0:
432,88,12666,2,0,P|372:108|288:104,1,120.000004577637,2|0,0:0|0:0,0:0:0:0:
252,76,13166,1,2,0:0:0:0:
252,76,13333,1,0,0:0:0:0:
184,100,13500,6,0,P|124:80|40:84,1,120.000004577637,0|2,0:0|0:0,0:0:0:0:
40,220,14166,1,0,0:0:0:0:
40,220,14333,2,0,P|100:240|184:236,1,120.000004577637,2|8,0:0|0:0,0:0:0:0:
224,220,14833,5,2,0:0:0:0:
224,220,15166,2,0,L|236:292,1,60.0000022888184,0|2,0:0|0:0,0:0:0:0:
356,356,15666,2,0,L|346:296,1,60.0000022888184,0|8,0:0|0:0,0:0:0:0:
420,172,16166,6,0,P|444:144|440:56,1,120.000004577637,4|0,0:0|1:0,0:0:0:0:
372,104,16666,2,0,L|244:112,1,120.000004577637,0|0,0:0|0:0,0:0:0:0:
184,72,17166,1,0,1:0:0:0:
184,72,17333,2,0,P|148:64|116:72,1,60.0000022888184,0|0,0:0|1:0,0:0:0:0:
48,204,17833,2,0,P|84:212|116:204,1,60.0000022888184,0|0,1:0|0:0,0:0:0:0:
180,176,18166,2,0,P|200:208|200:292,1,120.000004577637,0|0,1:0|1:0,0:0:0:0:
232,360,18666,1,0,0:0:0:0:
232,360,18833,6,0,P|264:340|348:340,1,120.000004577637,0|0,1:0|1:0,0:0:0:0:
416,368,19333,2,0,P|436:324|432:236,1,120.000004577637,0|0,0:0|0:0,0:0:0:0:
388,192,19833,1,0,1:0:0:0:
437,130,20000,6,0,P|438:71|416:16,1,120.000004577637
348,56,20500,2,0,L|264:72,1,60.0000022888184,2|0,1:2|0:0,0:0:0:0:
217,155,20833,2,0,L|276:144,1,60.0000022888184,2|0,1:2|0:0,0:0:0:0:
148,116,21166,2,0,L|89:104,1,60.0000022888184,8|0,0:0|0:0,0:0:0:0:
148,196,21500,6,0,P|128:240|148:332,1,120.000004577637,4|0,0:0|1:0,0:0:0:0:
192,364,22000,1,0,0:0:0:0:
192,364,22166,2,0,P|228:348|256:348,1,60.0000022888184,0|0,1:0|0:0,0:0:0:0:
324,360,22500,6,0,P|368:372|456:368,1,120.000004577637,0|0,1:0|1:0,0:0:0:0:
496,312,23000,1,0,0:0:0:0:
452,248,23166,2,0,P|408:236|320:240,1,120.000004577637,0|0,1:0|1:0,0:0:0:0:
264,268,23666,1,0,0:0:0:0:
196,228,23833,2,0,P|192:192|200:156,1,60.0000022888184,8|0,1:2|0:0,0:0:0:0:
236,100,24166,6,0,P|300:116|364:48,2,160,4|8|0,0:0|0:0|1:0,0:0:0:0:
172,52,25000,1,0,1:0:0:0:
92,60,25166,2,0,P|64:80|48:140,1,80,8|0,0:0|1:0,0:0:0:0:
100,180,25500,6,0,P|115:216|108:255,1,80,4|0,0:0|1:0,0:0:0:0:
64,320,25833,1,8,0:0:0:0:
132,364,26000,2,0,P|168:332|284:344,1,160,4|0,0:0|1:0,0:0:0:0:
364,300,26500,1,8,0:0:0:0:
448,344,26666,1,8,0:0:0:0:
448,344,26750,1,8,0:0:0:0:
448,344,26833,6,0,L|456:256,1,80,4|0,0:0|0:0,0:0:0:0:
460,184,27166,1,8,0:0:0:0:
428,112,27333,2,0,P|388:96|360:64,1,80,0|0,0:0|1:0,0:0:0:0:
304,16,27666,2,0,P|276:44|239:58,1,80,0|8,1:0|0:0,0:0:0:0:
160,68,28000,1,0,0:0:0:0:
116,136,28166,6,0,P|116:176|136:228,1,80,0|0,1:0|1:0,0:0:0:0:
192,164,28500,2,0,P|232:164|284:144,1,80,8|0,0:0|0:0,0:0:0:0:
344,180,28833,2,0,P|344:140|324:88,2,80,0|0|8,1:0|1:0|0:0,0:0:0:0:
308,252,29333,1,0,0:0:0:0:
348,320,29500,6,0,P|424:308|512:304,1,160,0|8,1:0|0:0,0:0:0:0:
506,303,30000,1,0,0:0:0:0:
492,224,30166,2,0,P|484:172|488:132,1,80,0|0,1:0|1:0,0:0:0:0:
492,64,30500,1,8,0:0:0:0:
416,36,30666,6,0,B|328:24|360:84|252:64,1,160,0|0,0:0|1:0,0:0:0:0:
196,24,31166,2,0,L|116:16,1,80,8|0,0:0|0:0,0:0:0:0:
56,72,31500,1,0,1:0:0:0:
56,72,31666,1,0,1:0:0:0:
72,152,31833,1,8,0:0:0:0:
72,152,32000,1,0,0:0:0:0:
44,228,32166,6,0,P|36:272|48:328,1,80,4|0,0:0|0:0,0:0:0:0:
152,272,32500,2,0,P|175:304|188:341,1,80,8|0,0:0|0:0,0:0:0:0:
276,280,32833,2,0,P|315:275|354:283,1,80,0|0,1:0|1:0,0:0:0:0:
428,256,33166,1,8,0:0:0:0:
484,312,33333,1,0,0:0:0:0:
448,180,33500,6,0,B|428:96|480:120|452:24,1,160,0|8,1:0|0:0,0:0:0:0:
384,68,34000,1,0,0:0:0:0:
304,52,34166,2,0,P|260:40|200:52,1,80,0|0,1:0|1:0,0:0:0:0:
104,120,34500,2,0,P|143:122|181:110,1,80,8|0,0:0|0:0,0:0:0:0:
32,76,34833,5,4,0:0:0:0:
12,188,35000,1,0,1:0:0:0:
120,208,35166,1,8,0:0:0:0:
100,320,35333,1,0,1:0:0:0:
120,208,35500,5,4,0:0:0:0:
232,228,35667,1,0,1:0:0:0:
212,340,35833,1,8,0:0:0:0:
324,360,36000,6,0,P|380:368|432:288,1,160,4|0,0:0|1:0,0:0:0:0:
392,184,36500,2,0,P|384:144|400:92,1,80,12|0,0:0|1:0,0:0:0:0:
288,32,36833,2,0,L|296:120,1,80,8|8,0:0|0:3,0:0:0:0:
224,184,37166,2,0,L|172:168,2,40,8|0|8,0:0|0:0|0:3,0:0:0:0:
192,80,37500,5,4,0:0:0:0:
40,240,37833,5,2,0:0:0:0:
40,240,38000,1,0,1:0:0:0:
40,240,38166,2,0,P|84:232|168:264,1,120.000004577637,8|2,0:0|0:0,0:0:0:0:
196,324,38666,1,0,1:0:0:0:
268,368,38833,6,0,P|312:376|396:344,1,120.000004577637,0|2,0:0|0:0,0:0:0:0:
436,288,39333,1,0,0:0:0:0:
400,212,39500,2,0,L|392:132,1,60.0000022888184,8|8,0:0|0:0,0:0:0:0:
454,44,39833,2,0,L|460:104,1,60.0000022888184,2|8,0:0|0:0,0:0:0:0:
376,140,40166,6,0,L|252:128,1,120.000004577637,0|2,1:0|0:0,0:0:0:0:
184,168,40666,1,0,1:0:0:0:
184,168,40833,2,0,P|136:152|100:160,1,60.0000022888184,8|0,0:0|0:0,0:0:0:0:
68,212,41166,2,0,P|78:261|103:288,1,60.0000022888184,2|0,0:0|1:0,0:0:0:0:
164,292,41500,6,0,P|201:258|212:223,1,60.0000022888184,0|8,1:0|0:0,0:0:0:0:
284,220,41833,1,2,0:0:0:0:
284,220,42000,1,0,0:0:0:0:
336,288,42166,2,0,L|352:360,1,60.0000022888184,8|0,0:0|0:0,0:0:0:0:
452,376,42500,2,0,L|438:317,1,60.0000022888184,12|0,0:0|0:0,0:0:0:0:
448,212,42833,6,0,P|464:176|424:52,1,160,4|8,0:0|0:0,0:0:0:0:
372,16,43333,2,0,P|314:69|236:77,1,160,0|0,0:0|1:0,0:0:0:0:
164,48,43833,1,8,0:0:0:0:
88,76,44000,6,0,P|48:100|32:212,1,160,0|0,0:0|1:0,0:0:0:0:
52,280,44500,1,8,0:0:0:0:
124,316,44666,2,0,P|174:314|223:284,1,80,0|0,0:0|1:0,0:0:0:0:
268,348,45000,2,0,P|292:303|289:246,1,80,0|8,1:0|0:0,0:0:0:0:
284,196,45333,1,0,1:0:0:0:
244,128,45500,6,0,P|240:80|340:24,1,160,4|0,0:0|0:0,0:0:0:0:
400,32,46000,2,0,P|443:52|442:167,1,160,4|0,0:0|0:0,0:0:0:0:
453,230,46500,2,0,P|461:306|400:352,1,160,4|0,0:0|0:0,0:0:0:0:
322,363,47000,2,0,P|252:332|244:256,1,160,4|0,0:0|0:0,0:0:0:0:
300,200,47500,2,0,L|312:112,1,80,8|0,0:0|0:0,0:0:0:0:
188,80,47833,2,0,L|198:159,1,80,8|0,0:0|0:0,0:0:0:0:
268,16,48166,5,0,1:0:0:0:
268,16,49166,5,0,0:0:0:0:
268,16,49333,2,0,P|228:68|120:56,1,160,4|8,0:0|0:0,0:0:0:0:
60,80,49833,2,0,L|40:176,1,80,8|8,0:0|0:0,0:0:0:0:
20,236,50166,1,8,0:0:0:0:
100,236,50333,1,8,0:0:0:0:
164,284,50500,1,8,0:0:0:0:
192,360,50666,1,8,0:0:0:0:
264,328,50833,6,0,B|316:312|368:344|368:344|392:320|424:316,1,160,4|8,0:0|0:0,0:0:0:0:
480,280,51333,1,0,0:0:0:0:
440,212,51500,2,0,P|424:168|432:108,1,80,0|0,1:0|1:0,0:0:0:0:
380,68,51833,2,0,P|336:52|276:60,1,80,8|0,0:0|0:0,0:0:0:0:
228,76,52166,6,0,P|180:96|120:88,1,80,0|0,1:0|0:0,0:0:0:0:
76,76,52500,1,8,0:0:0:0:
36,144,52666,2,0,P|16:192|24:232,1,80,0|0,0:0|1:0,0:0:0:0:
52,292,53000,1,0,1:0:0:0:
128,320,53166,2,0,P|179:313|210:286,1,80,8|0,0:0|0:0,0:0:0:0:
256,240,53500,6,0,P|300:228|392:304,1,160,4|8,0:0|0:0,0:0:0:0:
460,256,54000,2,0,L|476:88,2,160,4|4|4,1:0|1:0|1:0,0:0:0:0:
308,304,55000,5,0,0:0:0:0:
256,244,55166,2,0,P|216:232|168:232,1,80,8|0,0:0|0:0,0:0:0:0:
256,160,55500,2,0,P|296:148|344:148,1,80,0|0,1:0|0:0,0:0:0:0:
256,80,55833,2,0,P|216:68|168:68,1,80,8|0,0:0|0:0,0:0:0:0:
72,32,56166,6,0,P|36:64|44:188,1,160,4|8,0:0|0:0,0:0:0:0:
20,248,56666,1,0,0:0:0:0:
96,220,56833,2,0,P|152:204|200:212,1,80,0|0,1:0|1:0,0:0:0:0:
236,256,57166,2,0,L|244:356,1,80,8|0,0:0|0:0,0:0:0:0:
296,192,57500,5,0,1:0:0:0:
368,228,57666,1,0,1:0:0:0:
424,172,57833,2,0,P|436:128|432:88,1,80,8|0,0:0|0:0,0:0:0:0:
388,28,58166,2,0,P|348:8|248:64,1,160,0|8,1:0|0:0,0:0:0:0:
252,54,58666,1,0,0:0:0:0:
204,116,58833,6,0,L|112:104,1,80,4|0,1:2|0:0,0:0:0:0:
53,235,59166,2,0,L|64:156,1,80,8|0,0:0|0:0,0:0:0:0:
183,310,59500,2,0,L|104:300,1,80,0|0,1:0|1:0,0:0:0:0:
254,180,59833,2,0,L|244:260,1,80,8|0,0:0|0:0,0:0:0:0:
280,332,60166,5,4,1:2:0:0:
356,360,60333,1,0,0:0:0:0:
436,348,60500,1,8,0:0:0:0:
492,292,60666,2,0,P|512:240|468:128,1,160,4|0,0:0|0:0,0:0:0:0:
456,68,61166,1,8,0:0:0:0:
456,68,61333,1,8,0:0:0:0:
392,112,61500,6,0,P|356:128|296:128,1,80,4|0,0:0|0:0,0:0:0:0:
240,108,61833,1,8,0:0:0:0:
300,56,62000,1,0,0:0:0:0:
224,28,62166,1,0,1:0:0:0:
164,80,62333,1,0,1:0:0:0:
84,96,62500,2,0,P|40:100|-4:84,1,80,8|0,0:0|0:0,0:0:0:0:
136,160,62833,6,0,P|148:204|148:264,1,80,0|0,1:0|0:0,0:0:0:0:
112,308,63166,1,8,0:0:0:0:
180,352,63333,2,0,P|216:368|280:360,1,80,0|0,0:0|1:0,0:0:0:0:
328,332,63666,1,0,1:0:0:0:
316,252,63833,2,0,P|276:252|239:268,1,80,8|0,0:0|0:0,0:0:0:0:
392,284,64166,6,0,P|416:248|404:132,1,160,4|8,1:2|0:0,0:0:0:0:
356,72,64666,1,8,0:0:0:0:
356,72,64750,1,8,0:0:0:0:
356,72,64833,1,8,0:0:0:0:
280,96,65000,6,0,P|228:104|128:52,2,160,4|4|0,1:2|1:2|0:0,0:0:0:0:
332,156,65833,2,0,P|340:200|328:260,1,80,8|0,0:0|0:0,0:0:0:0:
296,304,66166,1,0,1:0:0:0:
296,304,66333,1,0,1:0:0:0:
364,348,66500,2,0,L|452:336,1,80,8|0,0:0|0:0,0:0:0:0:
495,253,66833,6,0,L|327:233,1,160,4|8,1:2|0:0,0:0:0:0:
280,176,67333,1,0,0:0:0:0:
208,212,67500,2,0,P|176:240|120:244,1,80,0|0,1:0|1:0,0:0:0:0:
75,364,67833,2,0,P|63:326|72:288,1,80,4|0,0:0|0:0,0:0:0:0:
72,208,68166,6,0,P|100:152|80:48,1,160,4|8,1:2|0:0,0:0:0:0:
156,24,68666,2,0,P|190:76|290:110,1,160,0|0,0:0|1:0,0:0:0:0:
356,96,69166,2,0,L|448:84,1,80,8|0,0:0|0:0,0:0:0:0:
484,148,69500,5,12,0:0:0:0:
460,256,69666,1,0,1:0:0:0:
360,204,69833,5,8,0:0:0:0:
336,312,69999,1,0,1:0:0:0:
244,252,70166,5,8,0:0:0:0:
220,360,70332,1,0,1:0:0:0:
124,304,70500,5,8,0:0:0:0:
124,304,70666,2,0,P|68:320|12:228,1,160,4|0,0:0|1:0,0:0:0:0:
36,140,71166,2,0,L|120:128,1,80,8|0,0:0|1:0,0:0:0:0:
216,180,71500,2,0,L|300:168,1,80,8|8,0:0|0:0,0:0:0:0:
396,216,71833,2,0,L|480:204,1,80,8|8,0:0|0:0,0:0:0:0:
475,204,72166,5,4,0:0:0:0:
475,204,73500,5,4,0:0:0:0:
475,204,73666,2,0,P|432:184|336:196,1,120.000004577637,8|4,0:3|0:3,0:0:0:0:
252,236,74333,2,0,P|216:248|176:244,2,60.0000022888184,8|0|0,0:3|0:0|0:0,0:0:0:0:
160,176,74833,1,4,0:0:0:0:
256,192,75000,12,0,77166,0:0:0:0:
304,72,77500,6,0,L|468:88,2,160,4|8|0,0:0|0:0|1:0,0:0:0:0:
256,136,78333,1,0,1:0:0:0:
256,136,78500,2,0,P|248:180|264:232,1,80,8|0,0:0|0:0,0:0:0:0:
172,128,78833,6,0,P|140:96|24:108,1,160,0|8,1:0|0:0,0:0:0:0:
12,180,79333,1,0,0:0:0:0:
48,252,79500,2,0,L|144:240,1,80,0|0,1:0|1:0,0:0:0:0:
168,312,79833,2,0,L|264:300,1,80,8|0,0:0|0:0,0:0:0:0:
308,352,80166,6,0,B|348:352|376:332|376:332|404:368|452:380,1,160,4|8,1:2|0:0,0:0:0:0:
500,316,80666,2,0,P|524:232|492:152,1,160,8|8,0:0|0:0,0:0:0:0:
400,44,81333,6,0,P|352:72|224:64,1,160,4|0,1:2|1:0,0:0:0:0:
176,44,81833,2,0,P|140:32|88:44,1,80,8|0,0:0|0:0,0:0:0:0:
40,92,82166,2,0,P|28:128|40:180,1,80,0|0,1:0|1:0,0:0:0:0:
88,228,82500,2,0,P|124:240|176:228,1,80,8|0,0:0|0:0,0:0:0:0:
236,200,82833,6,0,P|272:244|256:360,1,160,4|8,0:0|0:0,0:0:0:0:
267,342,83333,1,0,0:0:0:0:
192,372,83500,2,0,L|108:364,1,80,0|0,1:0|1:0,0:0:0:0:
44,324,83833,1,8,0:0:0:0:
84,252,84000,1,0,0:0:0:0:
40,188,84166,6,0,L|32:100,2,80,4|0|8,1:2|1:0|0:0,0:0:0:0:
40,188,84666,1,0,0:0:0:0:
160,224,84833,2,0,L|152:303,2,80,0|0|8,1:0|1:0|0:0,0:0:0:0:
160,224,85333,1,0,0:0:0:0:
268,168,85500,6,0,P|304:152|372:164,1,80,4|0,1:2|0:0,0:0:0:0:
396,248,85833,2,0,P|356:248|319:232,1,80,8|8,0:0|0:0,0:0:0:0:
464,192,86166,2,0,P|480:228|468:296,1,80,8|8,0:0|0:3,0:0:0:0:
420,364,86500,1,8,0:3:0:0:
312,344,86666,1,4,0:0:0:0:
256,192,86833,12,0,88833,0:0:0:0:
