osu file format v14

[General]
AudioFilename: audio.mp3
AudioLeadIn: 0
PreviewTime: 48125
Countdown: 0
SampleSet: Soft
StackLeniency: 0.7
Mode: 0
LetterboxInBreaks: 0
WidescreenStoryboard: 0

[Editor]
DistanceSpacing: 1
BeatDivisor: 4
GridSize: 4
TimelineZoom: 1

[Metadata]
Title:Haru Urara, Kimi to Sakihokoru
TitleUnicode:春ウララ、君ト咲キ誇ル
Artist:Konohana-tei Nakai no Kai
ArtistUnicode:此花亭仲居の会
Creator:Rizia
Version:Extra
Source:このはな綺譚
Tags:Konohana Kitan anime tv size ending 柚 Yuzu 大野柚布子 Ono Yuko 皐 Satsuki 秦佐和子 Hata Sawako 棗 Natsume 諏訪彩花 Suwa Ayaka 蓮 Hasu 久保田梨沙 Kubota Risa 櫻 Sakura 加隈亞衣 Kakuma Ai 桐 Kiri 沼倉愛美 Numakura Manami kawaiwkyik
BeatmapID:1433283
BeatmapSetID:677314

[Difficulty]
HPDrainRate:7
CircleSize:4
OverallDifficulty:8.5
ApproachRate:9.3
SliderMultiplier:1.8
SliderTickRate:1

[Events]
//Background and Video events
Video,-484,"optc (3).flv"
0,0,"bg.jpg",0,0
//Break Periods
//Storyboard Layer 0 (Background)
//Storyboard Layer 1 (Fail)
//Storyboard Layer 2 (Pass)
//Storyboard Layer 3 (Foreground)
//Storyboard Sound Samples

[TimingPoints]
167,333.333333333333,4,2,1,40,1,0
10833,-133.333333333333,4,2,1,40,0,0
14833,-200,4,2,1,40,0,0
16166,-133.333333333333,4,2,1,40,0,0
24166,-100,4,2,1,50,0,0
37500,-133.333333333333,4,2,1,40,0,0
42833,-100,4,2,1,50,0,0
46000,-100,4,2,1,55,0,0
46500,-100,4,2,1,60,0,0
47000,-100,4,2,1,65,0,0
47500,-100,4,2,1,70,0,0
49166,-80,4,2,1,40,0,0
50833,-100,4,2,1,60,0,1
72166,-100,4,2,1,40,0,0
73500,-133.333333333333,4,2,1,40,0,0
76333,-100,4,2,1,40,0,0
76500,-100,4,2,1,50,0,0
76666,-100,4,2,1,55,0,0
76833,-100,4,2,1,60,0,0
77000,-100,4,2,1,65,0,0
77166,-100,4,2,1,70,0,0
77333,-100,4,2,1,75,0,0
77500,-100,4,2,1,60,0,1
88833,-100,4,2,1,5,0,0

[Colours]
Combo1 : 136,85,82
Combo2 : 247,231,198
Combo3 : 130,107,163
Combo4 : 101,78,84
Combo5 : 251,221,223

[HitObjects]
137,103,167,5,2,0:0:0:0:
190,174,333,1,0,0:0:0:0:
171,262,500,1,0,0:0:0:0:
116,332,666,2,0,P|166:338|210:346,1,90,2|0,0:0|0:0,0:0:0:0:
379,307,1000,2,0,P|329:301|285:293,1,90,2|0,0:0|0:0,0:0:0:0:
201,176,1333,5,2,0:0:0:0:
288,207,1500,2,0,P|293:167|297:111,1,90,0|2,0:0|0:0,0:0:0:0:
201,176,1833,1,0,0:0:0:0:
134,22,2000,2,0,P|129:62|125:118,1,90,0|2,0:0|0:0,0:0:0:0:
444,159,2833,5,2,0:0:0:0:
355,177,3000,1,0,0:0:0:0:
476,180,3166,1,0,0:0:0:0:
337,202,3333,2,0,P|328:251|317:302,1,90,2|0,0:0|0:0,0:0:0:0:
409,362,3666,2,0,P|418:313|429:262,1,90,2|0,0:0|0:0,0:0:0:0:
242,199,4000,1,2,0:0:0:0:
319,290,4166,6,0,P|270:295|227:302,1,90,0|2,0:0|0:0,0:0:0:0:
186,105,4500,1,0,0:0:0:0:
152,210,4666,2,0,P|201:205|244:198,1,90,0|2,0:0|0:0,0:0:0:0:
256,192,5500,12,0,8000,0:0:0:0:
168,88,8166,5,8,0:0:0:0:
341,187,8333,1,0,0:0:0:0:
160,236,8500,1,8,0:0:0:0:
263,49,8666,2,0,B|281:164|226:125|256:251,1,180,8|8,0:0|0:0,0:0:0:0:
54,337,9333,6,0,P|36:287|127:205,1,180,4|8,0:0|0:0,0:0:0:0:
291,157,9833,1,8,0:0:0:0:
231,263,10000,1,8,0:0:0:0:
229,85,10166,1,8,0:0:0:0:
253,290,10333,1,8,0:0:0:0:
125,176,10500,1,8,0:0:0:0:
349,245,10666,1,8,0:0:0:0:
212,364,10833,6,0,P|208:305|201:214,1,135.000005149842,4|2,0:0|0:0,0:0:0:0:
334,55,11500,1,0,0:0:0:0:
334,55,11666,2,0,P|325:108|322:145,1,67.5000025749208,2|0,0:0|0:0,0:0:0:0:
234,20,12000,1,0,0:0:0:0:
172,117,12166,6,0,P|225:108|262:105,1,67.5000025749208,2|0,0:0|0:0,0:0:0:0:
137,33,12500,1,0,0:0:0:0:
216,194,12666,2,0,P|171:206|97:160,1,135.000005149842,2|0,0:0|0:0,0:0:0:0:
318,173,13166,1,2,0:0:0:0:
165,319,13333,1,0,0:0:0:0:
165,319,13416,1,0,0:0:0:0:
165,319,13500,6,0,P|206:304|248:308,1,67.5000025749208
318,173,13833,2,0,P|351:201|369:239,1,67.5000025749208,2|0,0:0|0:0,0:0:0:0:
218,212,14166,1,0,0:0:0:0:
219,101,14333,2,0,P|226:57|250:23,1,67.5000025749208,2|0,0:0|0:0,0:0:0:0:
395,117,14666,1,8,0:0:0:0:
319,311,14833,6,0,L|213:302,1,90,2|0,0:0|0:0,0:0:0:0:
156,340,15333,1,2,0:0:0:0:
143,332,15666,5,0,0:0:0:0:
338,318,15833,1,8,0:0:0:0:
338,318,16166,6,0,L|327:230,2,67.5000025749208,4|0|0,0:0|0:0|1:0,0:0:0:0:
397,184,16666,2,0,P|404:143|412:107,1,67.5000025749208,0|0,0:0|1:0,0:0:0:0:
258,199,17000,2,0,P|218:212|183:223,1,67.5000025749208,0|0,0:0|1:0,0:0:0:0:
259,78,17333,1,0,0:0:0:0:
259,78,17416,1,0,0:0:0:0:
259,78,17500,6,0,P|299:83|342:117,1,67.5000025749208,0|0,1:0|0:0,0:0:0:0:
274,262,17833,2,0,P|258:224|266:170,1,67.5000025749208,0|0,1:0|0:0,0:0:0:0:
428,154,18166,2,0,P|403:186|352:206,1,67.5000025749208,0|0,1:0|0:0,0:0:0:0:
261,297,18500,2,0,P|298:304|341:314,1,67.5000025749208,0|0,1:0|0:0,0:0:0:0:
327,310,18750,1,0,0:0:0:0:
327,310,18833,5,0,1:0:0:0:
284,200,19000,1,0,0:0:0:0:
158,267,19166,2,0,P|109:275|66:280,1,67.5000025749208,0|0,1:0|0:0,0:0:0:0:
181,94,19500,2,0,P|173:45|168:2,1,67.5000025749208,0|0,1:0|0:0,0:0:0:0:
284,200,19833,2,0,P|266:246|249:286,1,67.5000025749208,0|0,1:0|0:0,0:0:0:0:
125,180,20166,5,2,1:2:0:0:
291,102,20333,1,0,0:0:0:0:
181,94,20500,1,2,1:2:0:0:
325,198,20666,1,0,0:0:0:0:
291,102,20833,1,2,1:2:0:0:
228,304,21000,1,0,0:0:0:0:
228,304,21083,1,0,0:0:0:0:
228,304,21166,1,8,0:0:0:0:
171,191,21333,1,0,0:0:0:0:
331,298,21500,6,0,P|373:292|469:285,1,135.000005149842,4|0,0:0|1:0,0:0:0:0:
248,192,22000,1,0,0:0:0:0:
316,282,22166,1,0,1:0:0:0:
347,124,22333,1,0,0:0:0:0:
248,192,22500,1,0,1:0:0:0:
170,88,22666,1,0,0:0:0:0:
170,88,22750,1,0,0:0:0:0:
170,88,22833,6,0,L|158:11,1,67.5000025749208,0|0,1:0|0:0,0:0:0:0:
238,186,23166,2,0,L|227:252,1,67.5000025749208,0|0,1:0|0:0,0:0:0:0:
88,165,23500,2,0,L|39:104,1,67.5000025749208,0|0,1:0|0:0,0:0:0:0:
284,99,23833,2,0,P|313:110|356:127,1,67.5000025749208,8|0,1:2|0:0,0:0:0:0:
176,363,24166,6,0,P|187:273|200:184,1,180,4|8,0:0|0:0,0:0:0:0:
79,322,24666,1,0,0:0:0:0:
225,86,24833,1,0,1:0:0:0:
298,209,25000,1,0,1:0:0:0:
96,231,25166,2,0,P|33:222|-17:218,1,90,8|0,0:0|1:0,0:0:0:0:
321,77,25500,5,4,0:0:0:0:
126,143,25666,1,0,1:0:0:0:
377,252,25833,1,8,0:0:0:0:
213,350,26000,2,0,P|223:272|237:154,1,180,4|0,0:0|1:0,0:0:0:0:
213,33,26500,1,8,0:0:0:0:
240,177,26666,1,8,0:0:0:0:
240,177,26750,1,8,0:0:0:0:
240,177,26833,6,0,P|185:186|126:196,1,90,4|0,0:0|0:0,0:0:0:0:
317,71,27166,1,8,0:0:0:0:
332,269,27333,2,0,P|387:260|446:250,1,90,0|0,0:0|1:0,0:0:0:0:
224,166,27666,1,0,1:0:0:0:
361,289,27833,1,8,0:0:0:0:
193,354,28000,1,0,0:0:0:0:
193,354,28083,1,0,0:0:0:0:
193,354,28166,5,0,1:0:0:0:
314,179,28333,1,0,1:0:0:0:
279,364,28500,2,0,P|273:314|261:249,1,90,8|0,0:0|0:0,0:0:0:0:
197,162,28833,2,0,P|156:192|106:235,1,90,0|0,1:0|1:0,0:0:0:0:
69,335,29166,2,0,P|115:354|177:376,1,90,8|0,0:0|0:0,0:0:0:0:
407,260,29500,6,0,B|313:244|325:309|217:286,1,180,0|8,1:0|0:0,0:0:0:0:
91,169,30000,2,0,P|135:156|183:134,1,90,0|0,0:0|1:0,0:0:0:0:
268,197,30333,2,0,P|278:152|283:99,1,90,0|8,1:0|0:0,0:0:0:0:
130,32,30666,1,0,0:0:0:0:
130,32,30750,1,0,0:0:0:0:
130,32,30833,6,0,P|134:76|145:120,1,90,0|0,1:0|1:0,0:0:0:0:
72,308,31166,2,0,P|91:241|212:224,1,180,8|0,0:0|1:0,0:0:0:0:
260,95,31666,1,0,1:0:0:0:
278,297,31833,1,8,0:0:0:0:
240,122,32000,1,0,0:0:0:0:
375,257,32166,6,0,L|195:242,1,180,4|8,0:0|0:0,0:0:0:0:
122,110,32666,1,0,0:0:0:0:
158,262,32833,1,0,1:0:0:0:
251,141,33000,1,0,1:0:0:0:
64,227,33166,1,8,0:0:0:0:
251,325,33333,1,0,0:0:0:0:
126,138,33500,6,0,L|116:44,1,90,0|0,1:0|1:0,0:0:0:0:
372,185,33833,2,0,L|381:274,1,90,8|0,0:0|0:0,0:0:0:0:
208,88,34166,2,0,L|222:-5,1,90,0|0,1:0|1:0,0:0:0:0:
288,248,34500,2,0,L|273:341,1,90,8|0,0:0|0:0,0:0:0:0:
168,222,34833,5,4,0:0:0:0:
361,156,35000,1,0,1:0:0:0:
158,105,35166,1,8,0:0:0:0:
386,251,35333,1,0,1:0:0:0:
131,319,35500,5,4,0:0:0:0:
379,166,35666,1,0,1:0:0:0:
88,64,35833,1,8,0:0:0:0:
281,377,36000,6,4,P|285:320|301:183,1,180,4|0,0:0|1:0,0:0:0:0:
232,99,36500,1,12,0:0:0:0:
304,296,36666,1,0,1:0:0:0:
141,137,36833,1,8,0:0:0:0:
180,351,37000,1,8,0:3:0:0:
51,127,37166,2,0,L|56:199,1,45,8|0,0:0|0:0,0:0:0:0:
63,345,37333,1,8,0:3:0:0:
0,264,37500,6,0,P|62:256|146:246,1,135.000005149842,4|2,0:0|0:0,0:0:0:0:
244,164,38000,1,0,1:0:0:0:
244,164,38166,2,0,P|181:156|98:146,1,135.000005149842,8|2,0:0|0:0,0:0:0:0:
302,80,38666,1,0,1:0:0:0:
266,263,38833,1,0,0:0:0:0:
302,80,39166,5,2,0:0:0:0:
347,170,39333,1,0,0:0:0:0:
438,126,39500,2,8,L|507:114,1,67.5000025749208
364,273,39833,2,0,L|295:261,1,67.5000025749208,2|8,0:0|0:0,0:0:0:0:
297,261,40083,1,8,0:0:0:0:
297,261,40166,5,0,1:0:0:0:
205,319,40333,2,0,P|193:281|198:229,1,67.5000025749208,0|2,0:0|0:0,0:0:0:0:
231,88,40666,1,0,1:0:0:0:
246,190,40833,2,0,P|208:215|108:204,1,135.000005149842,8|2,0:0|0:0,0:0:0:0:
44,107,41333,5,0,1:0:0:0:
121,211,41500,1,0,1:0:0:0:
121,211,41666,2,0,P|112:255|107:296,2,67.5000025749208,8|2|0,0:0|0:0|0:0,0:0:0:0:
189,106,42166,6,0,P|145:97|104:92,1,67.5000025749208,8|0,0:0|0:0,0:0:0:0:
229,260,42500,2,0,P|262:254|295:247,1,67.5000025749208,12|0,0:0|0:0,0:0:0:0:
405,68,42833,6,0,P|437:121|421:237,1,180,4|8,0:0|0:0,0:0:0:0:
238,142,43333,2,0,P|247:77|256:42,1,90,0|0,0:0|1:0,0:0:0:0:
262,259,43666,2,0,P|197:250|162:241,1,90,0|8,1:0|0:0,0:0:0:0:
354,173,44000,1,0,0:0:0:0:
354,173,44083,1,0,0:0:0:0:
354,173,44166,6,0,P|397:163|442:158,1,90,4|0,0:0|1:0,0:0:0:0:
366,322,44500,1,8,0:0:0:0:
192,201,44666,2,0,P|225:231|261:258,1,90,0|0,0:0|1:0,0:0:0:0:
292,111,45000,2,0,P|301:67|306:22,1,90,0|8,1:0|0:0,0:0:0:0:
61,148,45333,1,0,1:0:0:0:
61,148,45416,1,0,0:0:0:0:
61,148,45500,5,4,0:0:0:0:
213,206,45666,1,0,0:0:0:0:
84,275,45833,1,0,0:0:0:0:
286,128,46000,5,4,0:0:0:0:
128,208,46166,1,0,0:0:0:0:
336,312,46333,1,0,0:0:0:0:
190,92,46500,5,4,0:0:0:0:
436,144,46666,1,0,0:0:0:0:
204,252,46833,1,0,0:0:0:0:
359,31,47000,5,4,0:0:0:0:
320,304,47166,1,0,0:0:0:0:
176,120,47333,1,0,0:0:0:0:
436,104,47500,5,8,0:0:0:0:
252,352,47666,1,0,0:0:0:0:
252,352,47750,1,0,0:0:0:0:
252,352,47833,1,8,0:0:0:0:
68,168,48000,1,0,0:0:0:0:
287,195,48166,5,0,1:0:0:0:
287,195,49166,5,0,0:0:0:0:
375,293,49333,2,0,B|432:319|432:319|496:274|459:166,1,225,4|8,0:0|0:0,0:0:0:0:
232,55,49833,5,8,0:0:0:0:
280,329,50000,1,8,0:0:0:0:
320,128,50166,5,8,0:0:0:0:
192,256,50333,1,8,0:0:0:0:
420,180,50500,5,8,0:0:0:0:
92,204,50666,1,8,0:0:0:0:
371,364,50833,6,0,P|306:353|184:338,1,180,4|8,0:0|0:0,0:0:0:0:
331,102,51333,1,0,0:0:0:0:
276,313,51500,1,0,1:0:0:0:
214,176,51666,1,0,1:0:0:0:
342,241,51833,2,0,P|385:238|454:226,1,90,8|0,0:0|0:0,0:0:0:0:
214,176,52166,6,0,P|242:234|238:362,1,180,0|8,1:0|0:0,0:0:0:0:
60,124,52666,1,0,0:0:0:0:
137,250,52833,1,0,1:0:0:0:
319,178,53000,1,0,1:0:0:0:
357,349,53166,1,8,0:0:0:0:
225,243,53333,1,0,0:0:0:0:
390,107,53500,6,0,P|399:151|403:219,1,90,4|0,0:0|0:0,0:0:0:0:
287,48,53833,1,8,0:0:0:0:
122,277,54000,6,0,P|113:233|109:165,1,90,4|0,1:0|0:0,0:0:0:0:
433,20,54333,2,0,P|462:53|500:110,1,90,4|0,1:0|0:0,0:0:0:0:
249,380,54666,6,0,P|230:335|215:183,1,180,4|0,1:0|0:0,0:0:0:0:
287,48,55166,1,8,0:0:0:0:
418,138,55333,1,0,0:0:0:0:
210,302,55500,1,0,1:0:0:0:
306,150,55666,1,0,0:0:0:0:
387,315,55833,2,0,L|343:333,1,45,8|0,0:0|0:0,0:0:0:0:
231,223,56000,2,0,L|224:178,1,45
381,31,56166,6,0,B|414:88|414:88|381:211,1,180,4|8,0:0|0:0,0:0:0:0:
234,59,56666,1,0,0:0:0:0:
310,244,56833,1,0,1:0:0:0:
310,244,57000,1,0,1:0:0:0:
135,189,57166,2,0,P|174:184|229:177,1,90,8|0,0:0|0:0,0:0:0:0:
408,137,57500,5,0,1:0:0:0:
221,87,57666,1,0,1:0:0:0:
324,7,57833,2,0,P|329:46|336:101,1,90,8|0,0:0|0:0,0:0:0:0:
215,373,58166,5,0,1:0:0:0:
291,180,58333,1,0,1:0:0:0:
291,180,58416,1,0,0:0:0:0:
291,180,58500,1,8,0:0:0:0:
376,289,58666,1,0,0:0:0:0:
173,293,58833,6,0,P|129:310|43:224,1,180,4|8,1:2|0:0,0:0:0:0:
184,40,59333,1,0,0:0:0:0:
125,227,59500,1,0,1:0:0:0:
372,160,59666,1,0,1:0:0:0:
99,236,59833,1,8,0:0:0:0:
368,326,60000,1,0,0:0:0:0:
213,58,60166,5,4,1:2:0:0:
278,328,60333,1,0,0:0:0:0:
110,142,60500,1,8,0:0:0:0:
18,304,60666,2,0,B|81:282|81:282|127:296|127:296|199:275,1,180,4|0,0:0|0:0,0:0:0:0:
213,58,61166,2,0,L|298:76,1,45,8|0,0:0|0:0,0:0:0:0:
417,171,61333,2,0,L|372:161,1,45,8|0,0:0|0:0,0:0:0:0:
272,162,61500,6,0,P|282:216|287:271,1,90,4|0,0:0|0:0,0:0:0:0:
213,58,61833,1,8,0:0:0:0:
291,175,62000,1,0,0:0:0:0:
139,361,62166,1,0,1:0:0:0:
184,171,62333,1,0,1:0:0:0:
305,280,62500,2,0,P|355:275|408:272,1,90,8|0,0:0|0:0,0:0:0:0:
184,171,62833,6,0,P|228:168|273:163,1,90,0|0,1:0|0:0,0:0:0:0:
124,264,63166,1,8,0:0:0:0:
81,103,63333,1,0,0:0:0:0:
220,253,63500,1,0,1:0:0:0:
46,337,63666,1,0,1:0:0:0:
112,174,63833,2,0,P|119:219|124:264,1,90,8|0,0:0|0:0,0:0:0:0:
291,69,64166,6,0,P|284:113|279:158,1,90,4|0,1:2|0:0,0:0:0:0:
180,32,64500,1,8,0:0:0:0:
229,300,64666,1,8,0:0:0:0:
223,273,64750,1,8,0:0:0:0:
222,246,64833,1,8,0:0:0:0:
395,329,65000,6,0,P|365:369|275:358,1,135,4|0,1:2|0:0,0:0:0:0:
323,298,65333,6,0,P|412:310|503:319,1,180,4|0,1:2|0:0,0:0:0:0:
318,89,65833,2,0,P|330:128|286:223,1,135,8|0,0:0|0:0,0:0:0:0:
236,263,66166,2,0,L|183:255,1,45,0|0,1:0|0:0,0:0:0:0:
87,187,66333,2,0,L|140:179,1,45,0|0,1:0|0:0,0:0:0:0:
224,166,66500,1,8,0:0:0:0:
136,328,66666,1,0,0:0:0:0:
0,147,66833,6,0,P|5:236|12:326,1,180,4|8,1:2|0:0,0:0:0:0:
85,70,67333,1,0,0:0:0:0:
137,298,67500,1,0,1:0:0:0:
224,166,67666,1,0,1:0:0:0:
284,355,67833,2,0,B|336:370|336:370|376:353|376:283,1,135,4|0,0:0|0:0,0:0:0:0:
384,215,68166,6,0,P|336:218|300:252,1,90,4|0,1:2|0:0,0:0:0:0:
471,274,68500,1,8,0:0:0:0:
326,86,68666,2,0,P|392:129|496:120,1,180,0|0,0:0|1:0,0:0:0:0:
257,272,69166,2,0,P|252:221|244:159,1,90,8|0,0:0|0:0,0:0:0:0:
151,340,69500,5,12,0:0:0:0:
374,328,69666,1,0,1:0:0:0:
118,233,69833,5,8,0:0:0:0:
397,207,70000,1,0,1:0:0:0:
80,119,70166,5,8,0:0:0:0:
432,80,70333,1,0,1:0:0:0:
261,350,70500,1,8,0:0:0:0:
250,34,70666,6,0,P|245:89|239:165,1,90,4|0,0:0|0:0,0:0:0:0:
280,263,71000,1,0,1:0:0:0:
280,263,71083,1,0,0:0:0:0:
280,263,71166,1,8,0:0:0:0:
474,217,71333,1,0,1:0:0:0:
242,123,71500,1,8,0:0:0:0:
369,332,71666,6,0,L|324:339,1,45,8|8,0:0|0:0,0:0:0:0:
146,167,71833,1,8,0:0:0:0:
395,212,72000,6,0,L|350:204,1,45,8|8,0:0|0:0,0:0:0:0:
150,365,72166,1,4,0:0:0:0:
183,251,73500,5,4,0:0:0:0:
235,181,73666,2,0,P|266:230|251:309,2,135.000005149842,8|4|8,0:3|0:3|0:3,0:0:0:0:
235,181,74500,2,0,L|314:173,1,67.5000025749208
387,161,74833,5,4,0:0:0:0:
256,192,74916,12,0,76166,0:0:0:0:
256,192,76333,5,8,0:0:0:0:
210,114,76500,1,8,0:0:0:0:
103,162,76666,1,8,0:0:0:0:
171,326,76833,1,8,0:0:0:0:
373,234,77000,1,8,0:0:0:0:
256,47,77166,1,8,0:0:0:0:
156,245,77333,1,8,0:0:0:0:
391,339,77500,6,0,P|443:350|477:227,2,180,4|8|0,0:0|0:0|1:0,0:0:0:0:
289,249,78333,1,0,1:0:0:0:
289,249,78500,2,0,P|293:208|301:154,1,90,8|0,0:0|0:0,0:0:0:0:
434,26,78833,6,0,B|465:79|465:79|422:209,1,180,0|8,1:0|0:0,0:0:0:0:
285,78,79333,1,0,0:0:0:0:
285,78,79416,1,0,0:0:0:0:
285,78,79500,2,0,L|191:90,1,90,0|0,1:0|1:0,0:0:0:0:
54,215,79833,2,0,L|143:203,1,90,8|0,0:0|0:0,0:0:0:0:
350,326,80166,6,0,P|301:322|160:315,1,180,4|8,1:2|0:0,0:0:0:0:
373,199,80666,1,8,0:0:0:0:
50,288,81000,1,8,0:0:0:0:
286,40,81333,6,0,B|261:93|261:93|272:153|272:153|257:220,1,180,4|0,1:2|1:0,0:0:0:0:
148,156,81833,2,0,P|156:206|161:259,1,90,8|0,0:0|0:0,0:0:0:0:
96,73,82166,1,0,1:0:0:0:
293,140,82333,1,0,1:0:0:0:
76,223,82500,1,8,0:0:0:0:
335,69,82666,1,0,0:0:0:0:
335,69,82750,1,0,0:0:0:0:
335,69,82833,6,0,P|330:124|319:254,1,180,4|8,0:0|0:0,0:0:0:0:
193,154,83333,1,0,0:0:0:0:
187,374,83500,1,0,1:0:0:0:
238,250,83666,1,0,1:0:0:0:
95,281,83833,2,0,L|158:296,1,45,8|0,0:0|0:0,0:0:0:0:
60,152,84000,2,0,L|16:141,1,45
4,244,84166,5,4,1:2:0:0:
215,158,84333,1,0,1:0:0:0:
131,69,84500,1,8,0:0:0:0:
312,257,84666,1,0,0:0:0:0:
312,257,84750,1,0,0:0:0:0:
312,257,84833,1,0,1:0:0:0:
329,53,85000,1,0,1:0:0:0:
200,273,85166,2,0,P|147:266|94:259,1,90,8|0,0:0|0:0,0:0:0:0:
265,145,85500,5,4,1:2:0:0:
470,120,85666,1,0,0:0:0:0:
423,328,85833,1,8,0:0:0:0:
451,102,86000,1,8,0:0:0:0:
454,75,86083,1,8,0:0:0:0:
457,48,86166,1,8,0:0:0:0:
343,278,86333,1,8,0:3:0:0:
210,106,86500,1,8,0:3:0:0:
64,209,86666,5,4,0:0:0:0:
256,192,86750,12,0,88833,0:0:0:0:
