osu file format v14

[General]
AudioFilename: audio.ogg
AudioLeadIn: 0
PreviewTime: 48166
Countdown: 0
SampleSet: Soft
StackLeniency: 0.7
Mode: 3
LetterboxInBreaks: 0
SpecialStyle: 0
WidescreenStoryboard: 1

[Editor]
DistanceSpacing: 1
BeatDivisor: 6
GridSize: 8
TimelineZoom: 2.2

[Metadata]
Title:Haru Urara, Kimi to Sakihokoru (TV Size)
TitleUnicode:春ウララ、君ト咲キ誇ル (TV Size)
Artist:Konohana-tei Nakai no Kai
ArtistUnicode:此花亭仲居の会
Creator:Ihram-San
Version:Insane
Source:このはな綺譚
Tags:ferdixia- chocomilku- Mirsaaa japanese jpop pop j-pop Konohana Kitan anime ending 柚 Yuzu 大野柚布子 Ono Yuko 皐 Satsuki 秦佐和子 Hata Sawako 棗 Natsume 諏訪彩花 Suwa Ayaka 蓮 Hasu 久保田梨沙 Kubota Risa 櫻 Sakura 加隈亞衣 Kakuma Ai 桐 Kiri 沼倉愛美 Numakura Manami
BeatmapID:3548962
BeatmapSetID:1736484

[Difficulty]
HPDrainRate:8.5
CircleSize:4
OverallDifficulty:8.5
ApproachRate:5
SliderMultiplier:1.4
SliderTickRate:1

[Events]
//Background and Video events
0,0,"Konohana.jpg",0,0
//Break Periods
//Storyboard Layer 0 (Background)
//Storyboard Layer 1 (Fail)
//Storyboard Layer 2 (Pass)
//Storyboard Layer 3 (Foreground)
//Storyboard Layer 4 (Overlay)
//Storyboard Sound Samples
Sample,8166,0,"C#5H_Db5H_s.wav",60
Sample,8333,0,"G#5H_Ab5H_s.wav",60
Sample,8500,0,"C#6H_Db6H_s.wav",60
Sample,8666,0,"D#6H_Eb6H_s.wav",60
Sample,8666,0,"D#5H_Eb5H_s.wav",60
Sample,9000,0,"A#4H_Bb4H_s.wav",60
Sample,9000,0,"SVF_A#5ss.wav",40
Sample,9000,0,"A#5H_Bb5H_s.wav",60
Sample,9333,0,"C#5H_Db5H.wav",60
Sample,10166,0,"C6H.wav",60
Sample,10166,0,"C5H.wav",60
Sample,10833,0,"C#5H_Db5H.wav",60
Sample,14833,0,"G#6H_Ab6H_s.wav",60
Sample,15166,0,"F#6H_Gb6H_s.wav",60
Sample,15333,0,"F6H_s.wav",60
Sample,15666,0,"C#6H_Db6H_s.wav",60
Sample,26333,0,"Hat open.wav",40

[TimingPoints]
167,333.333333333333,4,2,1,30,1,0
50833,-100,4,2,1,30,0,1
72166,-100,4,2,1,30,0,0

[HitObjects]
64,192,167,128,0,1500:0:0:0:40:C#6H_Db6H_s.wav
448,192,167,1,0,0:0:0:0:
320,192,333,1,0,0:0:0:40:G#5H_Ab5H_s.wav
192,192,500,1,0,0:0:0:40:C#6H_Db6H_s.wav
448,192,666,1,0,0:0:0:40:G#6H_Ab6H_s.wav
192,192,1000,1,0,0:0:0:40:F#6H_Gb6H_s.wav
320,192,1333,1,0,0:0:0:40:F6H_s.wav
192,192,1500,128,0,2833:0:0:0:0:
448,192,1500,1,0,0:0:0:0:
320,192,1666,1,0,0:0:0:40:D#6H_Eb6H_s.wav
64,192,2000,1,0,0:0:0:40:C#6H_Db6H_s.wav
448,192,2166,1,0,0:0:0:40:G#5H_Ab5H_s.wav
320,192,2833,128,0,4166:0:0:0:40:C#6H_Db6H_s.wav
448,192,2833,1,0,0:0:0:0:
64,192,3000,1,0,0:0:0:40:G#5H_Ab5H_s.wav
192,192,3166,1,0,0:0:0:40:C#6H_Db6H_s.wav
448,192,3333,1,0,0:0:0:40:G#6H_Ab6H_s.wav
64,192,3666,1,0,0:0:0:40:F#6H_Gb6H_s.wav
192,192,4000,1,0,0:0:0:40:F6H_s.wav
64,192,4166,1,0,0:0:0:0:
448,192,4166,128,0,5500:0:0:0:0:
192,192,4333,1,0,0:0:0:40:D#6H_Eb6H_s.wav
64,192,4666,1,0,0:0:0:40:C#6H_Db6H_s.wav
320,192,4833,1,0,0:0:0:40:F6H_s.wav
320,192,5166,128,0,5500:0:0:0:0:
64,192,5500,128,0,6833:0:0:0:40:C#6H_Db6H_s.wav
192,192,5500,128,0,5666:0:0:0:0:
320,192,5666,128,0,5833:0:0:0:40:G#5H_Ab5H_s.wav
448,192,5833,128,0,6000:0:0:0:40:C#6H_Db6H_s.wav
192,192,6000,128,0,6333:0:0:0:40:G#6H_Ab6H_s.wav
320,192,6166,128,0,6333:0:0:0:0:
448,192,6333,128,0,6500:0:0:0:40:F#6H_Gb6H_s.wav
320,192,6666,128,0,7000:0:0:0:40:F6H_s.wav
192,192,6833,1,0,0:0:0:0:
448,192,6833,128,0,8166:0:0:0:0:
64,192,7000,128,0,7333:0:0:0:40:D#6H_Eb6H_s.wav
192,192,7333,128,0,7500:0:0:0:40:C#6H_Db6H_s.wav
320,192,7500,128,0,8166:0:0:0:40:F6H_s.wav
64,192,8166,1,8,0:0:0:0:
192,192,8166,1,0,0:0:0:60:C#6H_Db6H_s.wav
192,192,8333,1,2,0:0:0:0:
320,192,8333,1,0,0:0:0:60:G#6H_Ab6H_s.wav
320,192,8500,1,8,0:0:0:0:
448,192,8500,1,0,0:0:0:60:C#5H_Db5H_s.wav
64,192,8666,1,2,0:0:0:0:
192,192,8666,1,0,0:0:0:40:Hat open.wav
448,192,8666,1,0,0:0:0:40:SVF_D#6ss.wav
192,192,9000,1,2,0:0:0:0:
320,192,9000,1,0,0:0:0:40:Hat open.wav
64,192,9333,128,6,10166:0:0:0:0:
320,192,9333,1,0,0:0:0:40:SVF_C#6s.wav
448,192,9333,1,0,0:0:0:60:C#6H_Db6H.wav
192,192,9666,1,8,0:0:0:0:
320,192,9666,1,0,0:0:0:0:
192,192,9833,1,8,0:0:0:0:
448,192,9833,1,0,0:0:0:0:
320,192,10000,1,8,0:0:0:0:
448,192,10000,1,0,0:0:0:0:
192,192,10166,1,10,0:0:0:0:
448,192,10166,128,0,10833:0:0:0:40:SVF_C6s.wav
64,192,10333,1,8,0:0:0:0:
320,192,10333,1,2,0:0:0:0:
64,192,10500,1,8,0:0:0:0:
192,192,10500,1,2,0:0:0:0:
192,192,10666,1,8,0:0:0:0:
320,192,10666,1,2,0:0:0:0:
64,192,10833,1,6,0:0:0:0:
192,192,10833,1,0,0:0:0:40:SVF_C#6.wav
320,192,10833,1,0,0:0:0:60:C#6H_Db6H.wav
448,192,11000,128,0,11166:0:0:0:40:Hat open.wav
64,192,11166,128,2,11333:0:0:0:0:
320,192,11166,1,0,0:0:0:0:
192,192,11333,1,0,0:0:0:40:Hat open.wav
320,192,11500,1,2,0:0:0:0:
448,192,11500,128,0,11666:0:0:0:0:
192,192,11666,128,0,11833:0:0:0:40:Hat open.wav
64,192,11833,1,2,0:0:0:0:
448,192,11833,1,0,0:0:0:0:
64,192,12000,128,0,12166:0:0:0:40:Hat open.wav
320,192,12166,1,2,0:0:0:0:
448,192,12166,128,0,12333:0:0:0:0:
192,192,12333,1,0,0:0:0:40:Hat open.wav
64,192,12500,128,2,12666:0:0:0:0:
448,192,12500,1,0,0:0:0:0:
320,192,12666,128,0,12833:0:0:0:40:Hat open.wav
64,192,12833,1,2,0:0:0:0:
448,192,12833,1,0,0:0:0:0:
192,192,13000,128,0,13166:0:0:0:40:Hat open.wav
64,192,13166,1,2,0:0:0:0:
448,192,13166,128,0,13333:0:0:0:0:
320,192,13333,128,0,13500:0:0:0:0:
64,192,13500,128,2,13666:0:0:0:0:
192,192,13500,1,0,0:0:0:0:
448,192,13666,128,0,13833:0:0:0:40:Hat open.wav
192,192,13833,128,2,13916:0:0:0:0:
320,192,13833,1,0,0:0:0:0:
448,192,14000,1,0,0:0:0:40:Hat open.wav
64,192,14166,128,2,14250:0:0:0:0:
320,192,14166,1,0,0:0:0:0:
448,192,14333,128,0,14416:0:0:0:40:Hat open.wav
192,192,14500,1,2,0:0:0:0:
320,192,14500,1,0,0:0:0:0:
64,192,14666,1,8,0:0:0:0:
192,192,14666,128,0,14833:0:0:0:0:
448,192,14666,1,0,0:0:0:0:
320,192,14833,1,2,0:0:0:0:
448,192,14833,128,0,15333:0:0:0:40:G#5H_Ab5H_s.wav
64,192,15166,128,0,15333:0:0:0:40:F#5H_Gb5H_s.wav
320,192,15333,128,0,15666:0:0:0:40:F5H_s.wav
192,192,15666,1,2,0:0:0:0:
448,192,15666,128,0,16166:0:0:0:40:C#5H_Db5H_s.wav
64,192,15833,1,8,0:0:0:0:
320,192,15833,1,0,0:0:0:40:Tom2.wav
64,192,16166,128,2,16500:0:0:0:0:
192,192,16166,1,4,0:0:0:0:
320,192,16166,1,0,0:0:0:0:
320,192,16333,1,0,0:0:0:0:
192,192,16500,1,2,0:0:0:0:
448,192,16500,128,0,16666:0:0:0:0:
192,192,16666,128,0,17000:0:0:0:0:
320,192,16833,1,2,0:0:0:0:
448,192,16833,1,0,0:0:0:0:
64,192,17000,128,0,17333:0:0:0:0:
192,192,17166,1,2,0:0:0:0:
448,192,17166,1,0,0:0:0:0:
320,192,17333,128,0,17500:0:0:0:0:
192,192,17500,1,2,0:0:0:0:
448,192,17500,1,0,0:0:0:0:
320,192,17666,1,0,0:0:0:0:
64,192,17833,128,2,18166:0:0:0:0:
192,192,17833,1,0,0:0:0:0:
320,192,18000,1,0,0:0:0:0:
320,192,18166,128,2,18500:0:0:0:0:
448,192,18166,1,0,0:0:0:0:
192,192,18333,1,0,0:0:0:0:
64,192,18500,1,2,0:0:0:0:
192,192,18500,128,0,18833:0:0:0:0:
320,192,18666,1,0,0:0:0:0:
64,192,18833,1,2,0:0:0:0:
448,192,18833,128,0,19166:0:0:0:0:
320,192,19000,1,0,0:0:0:0:
64,192,19166,1,2,0:0:0:0:
192,192,19166,128,0,19333:0:0:0:0:
320,192,19333,128,0,19500:0:0:0:0:
64,192,19500,1,2,0:0:0:0:
448,192,19500,1,0,0:0:0:0:
192,192,19666,128,0,20000:0:0:0:0:
320,192,19833,1,2,0:0:0:0:
448,192,19833,1,0,0:0:0:0:
64,192,20000,128,0,20333:0:0:0:0:
192,192,20166,1,2,0:0:0:0:
448,192,20166,1,0,0:0:0:0:
320,192,20333,1,0,0:0:0:0:
64,192,20500,1,2,0:0:0:0:
192,192,20500,1,0,0:0:0:0:
320,192,20666,1,0,0:0:0:0:
64,192,20833,1,2,0:0:0:0:
448,192,20833,1,0,0:0:0:0:
192,192,21000,1,0,0:0:0:0:
320,192,21083,1,0,0:0:0:20:soft-hitclap.wav
64,192,21166,1,2,0:0:0:0:
192,192,21166,1,8,0:0:0:0:
448,192,21166,1,0,0:0:0:0:
192,192,21333,1,0,0:0:0:40:Tom2.wav
320,192,21333,1,0,0:0:0:0:
64,192,21500,1,2,0:0:0:0:
320,192,21500,1,0,0:0:0:60:Hat open.wav
448,192,21500,128,0,21833:0:0:0:0:
192,192,21666,1,0,0:0:0:0:
64,192,21833,128,2,22000:0:0:0:0:
320,192,21833,1,0,0:0:0:0:
192,192,22000,128,0,22333:0:0:0:0:
320,192,22166,1,2,0:0:0:0:
448,192,22166,1,0,0:0:0:0:
448,192,22333,128,0,22500:0:0:0:0:
192,192,22500,1,2,0:0:0:0:
320,192,22500,1,0,0:0:0:0:
64,192,22666,128,0,23166:0:0:0:0:
192,192,22833,1,2,0:0:0:0:
448,192,22833,1,0,0:0:0:0:
320,192,23000,1,0,0:0:0:0:
192,192,23166,1,2,0:0:0:0:
448,192,23166,128,0,23500:0:0:0:0:
64,192,23333,1,0,0:0:0:0:
192,192,23500,128,2,23833:0:0:0:0:
320,192,23500,1,0,0:0:0:0:
448,192,23666,1,0,0:0:0:0:
64,192,23833,128,4,24166:0:0:0:0:
320,192,23833,1,8,0:0:0:0:
448,192,23833,1,2,0:0:0:0:
192,192,24166,1,2,0:0:0:0:
448,192,24166,128,4,24500:0:0:0:0:
64,192,24500,1,8,0:0:0:0:
320,192,24500,1,0,0:0:0:40:Hat open.wav
192,192,24666,1,0,0:0:0:40:Hat open.wav
64,192,24833,1,2,0:0:0:0:
448,192,24833,1,0,0:0:0:0:
192,192,25000,1,2,0:0:0:0:
320,192,25000,1,0,0:0:0:40:Hat open.wav
64,192,25166,1,8,0:0:0:0:
192,192,25166,1,0,0:0:0:40:Hat open.wav
320,192,25333,1,0,0:0:0:40:Hat open.wav
64,192,25500,1,2,0:0:0:0:
192,192,25500,1,4,0:0:0:0:
448,192,25500,1,0,0:0:0:0:
64,192,25666,1,2,0:0:0:0:
320,192,25666,1,4,0:0:0:0:
448,192,25666,1,0,0:0:0:0:
192,192,25833,1,8,0:0:0:0:
320,192,25833,1,0,0:0:0:0:
64,192,26000,1,2,0:0:0:0:
192,192,26000,1,0,0:0:0:40:Hat open.wav
448,192,26000,128,0,26500:0:0:0:0:
192,192,26333,1,2,0:0:0:0:
64,192,26500,1,8,0:0:0:0:
320,192,26500,1,0,0:0:0:0:
64,192,26666,1,8,0:0:0:0:
192,192,26666,1,0,0:0:0:0:
320,192,26750,1,8,0:0:0:0:
64,192,26833,128,2,27166:0:0:0:0:
192,192,26833,1,4,0:0:0:0:
448,192,26833,1,0,0:0:0:0:
192,192,27166,1,8,0:0:0:0:
320,192,27166,1,0,0:0:0:40:Hat open.wav
448,192,27333,128,0,27666:0:0:0:0:
64,192,27500,1,2,0:0:0:0:
192,192,27500,1,0,0:0:0:0:
320,192,27666,128,2,27833:0:0:0:0:
192,192,27833,1,8,0:0:0:0:
448,192,27833,1,0,0:0:0:40:Hat open.wav
64,192,28000,128,0,28333:0:0:0:0:
192,192,28166,1,2,0:0:0:0:
448,192,28166,1,0,0:0:0:0:
320,192,28333,1,2,0:0:0:0:
192,192,28500,1,8,0:0:0:0:
448,192,28500,128,0,28833:0:0:0:40:Hat open.wav
64,192,28833,1,2,0:0:0:0:
320,192,28833,128,0,29166:0:0:0:0:
192,192,29000,1,2,0:0:0:0:
64,192,29166,128,8,29500:0:0:0:0:
448,192,29166,1,0,0:0:0:40:Hat open.wav
192,192,29500,128,2,29833:0:0:0:0:
320,192,29500,1,0,0:0:0:0:
64,192,29833,1,8,0:0:0:0:
320,192,29833,1,0,0:0:0:40:Hat open.wav
448,192,30000,128,0,30333:0:0:0:0:
320,192,30166,1,2,0:0:0:0:
192,192,30333,128,2,30500:0:0:0:0:
64,192,30500,1,8,0:0:0:0:
448,192,30500,1,0,0:0:0:40:Hat open.wav
320,192,30666,128,0,31166:0:0:0:0:
64,192,30833,1,2,0:0:0:0:
192,192,30833,1,0,0:0:0:40:Hat open.wav
448,192,31000,1,2,0:0:0:0:
64,192,31166,1,8,0:0:0:0:
192,192,31166,1,0,0:0:0:40:Hat open.wav
320,192,31500,1,2,0:0:0:0:
448,192,31500,1,0,0:0:0:40:Hat open.wav
192,192,31666,1,2,0:0:0:0:
64,192,31833,1,8,0:0:0:0:
448,192,31833,128,0,32000:0:0:0:40:Hat open.wav
320,192,32000,128,0,32166:0:0:0:0:
64,192,32166,1,2,0:0:0:0:
192,192,32166,128,4,32333:0:0:0:0:
64,192,32500,128,8,32666:0:0:0:0:
448,192,32500,1,0,0:0:0:40:Hat open.wav
192,192,32666,128,0,32833:0:0:0:0:
320,192,32833,128,2,33000:0:0:0:0:
448,192,32833,1,0,0:0:0:0:
64,192,33000,128,2,33333:0:0:0:0:
320,192,33166,1,8,0:0:0:0:
448,192,33166,1,0,0:0:0:40:Hat open.wav
192,192,33333,128,0,33500:0:0:0:0:
320,192,33500,1,2,0:0:0:0:
448,192,33500,128,0,33833:0:0:0:40:Hat open.wav
192,192,33666,1,2,0:0:0:0:
64,192,33833,1,8,0:0:0:0:
320,192,33833,128,0,34166:0:0:0:40:Hat open.wav
64,192,34166,1,2,0:0:0:0:
192,192,34166,128,0,34500:0:0:0:40:Hat open.wav
448,192,34333,1,2,0:0:0:0:
64,192,34500,128,8,34833:0:0:0:0:
320,192,34500,1,0,0:0:0:40:Hat open.wav
448,192,34666,1,2,0:0:0:0:
192,192,34833,1,8,0:0:0:0:
320,192,34833,1,4,0:0:0:0:
320,192,35000,1,2,0:0:0:0:
64,192,35166,1,8,0:0:0:0:
192,192,35166,1,0,0:0:0:40:Hat open.wav
448,192,35166,1,0,0:0:0:0:
64,192,35333,1,2,0:0:0:0:
192,192,35500,1,8,0:0:0:0:
320,192,35500,1,0,0:0:0:40:Hat open.wav
448,192,35500,1,0,0:0:0:0:
448,192,35666,1,2,0:0:0:0:
64,192,35833,1,8,0:0:0:0:
192,192,35833,1,0,0:0:0:40:Hat open.wav
320,192,35833,1,0,0:0:0:0:
192,192,36000,1,2,0:0:0:0:
320,192,36000,1,4,0:0:0:0:
448,192,36000,128,0,36333:0:0:0:0:
64,192,36333,1,2,0:0:0:0:
192,192,36333,1,0,0:0:0:0:
64,192,36500,1,8,0:0:0:0:
320,192,36500,1,4,0:0:0:0:
448,192,36500,1,0,0:0:0:0:
192,192,36666,1,2,0:0:0:0:
320,192,36666,1,0,0:0:0:0:
64,192,36833,1,8,0:0:0:0:
192,192,36833,1,0,0:0:0:0:
448,192,36833,1,0,0:0:0:0:
320,192,37000,1,0,0:0:0:40:Tom1.wav
448,192,37000,1,0,0:0:0:0:
64,192,37166,1,0,0:0:0:20:soft-hitclap.wav
192,192,37166,1,0,0:0:0:0:
448,192,37166,1,0,0:0:0:0:
320,192,37250,1,0,0:0:0:20:soft-hitclap.wav
64,192,37333,1,0,0:0:0:40:Tom2.wav
192,192,37333,1,0,0:0:0:0:
192,192,37500,1,2,0:0:0:0:
320,192,37500,1,4,0:0:0:0:
448,192,37500,1,0,0:0:0:0:
64,192,37833,1,0,0:0:0:0:
448,192,37833,128,0,38166:0:0:0:0:
192,192,38000,1,2,0:0:0:0:
64,192,38166,1,8,0:0:0:0:
320,192,38166,128,0,38500:0:0:0:0:
192,192,38500,128,0,38833:0:0:0:0:
320,192,38666,1,2,0:0:0:0:
64,192,38833,128,2,39333:0:0:0:0:
448,192,38833,1,0,0:0:0:0:
320,192,39000,1,0,0:0:0:0:
192,192,39166,1,2,0:0:0:0:
448,192,39166,128,0,39333:0:0:0:0:
320,192,39333,128,0,39833:0:0:0:0:
64,192,39500,1,8,0:0:0:0:
448,192,39500,1,0,0:0:0:0:
192,192,39666,1,2,0:0:0:0:
64,192,39833,128,0,40000:0:0:0:0:
448,192,39833,1,0,0:0:0:0:
320,192,40000,1,8,0:0:0:0:
448,192,40000,1,0,0:0:0:0:
192,192,40083,1,8,0:0:0:0:
64,192,40166,1,2,0:0:0:0:
448,192,40166,128,0,40666:0:0:0:0:
64,192,40500,128,0,40666:0:0:0:0:
192,192,40500,1,0,0:0:0:0:
320,192,40666,128,2,41000:0:0:0:0:
64,192,40833,1,8,0:0:0:0:
448,192,40833,1,0,0:0:0:0:
192,192,41000,128,0,41333:0:0:0:0:
64,192,41333,128,2,41833:0:0:0:0:
448,192,41333,1,0,0:0:0:0:
320,192,41500,1,2,0:0:0:0:
192,192,41666,1,8,0:0:0:0:
448,192,41666,1,0,0:0:0:0:
320,192,41833,1,2,0:0:0:0:
192,192,42000,1,0,0:0:0:0:
64,192,42166,1,8,0:0:0:0:
448,192,42166,1,0,0:0:0:0:
192,192,42333,1,2,0:0:0:0:
320,192,42416,1,2,0:0:0:0:
64,192,42500,1,8,0:0:0:0:
192,192,42500,1,0,0:0:0:60:Hat open.wav
448,192,42500,1,0,0:0:0:0:
320,192,42666,128,0,43166:0:0:0:0:
64,192,42833,1,2,0:0:0:0:
192,192,42833,1,4,0:0:0:0:
448,192,42833,1,0,0:0:0:0:
64,192,43166,1,8,0:0:0:0:
192,192,43166,1,0,0:0:0:0:
448,192,43333,1,0,0:0:0:0:
64,192,43500,1,2,0:0:0:0:
192,192,43500,1,0,0:0:0:0:
320,192,43666,1,2,0:0:0:0:
448,192,43666,1,0,0:0:0:0:
64,192,43833,1,8,0:0:0:0:
192,192,43833,1,0,0:0:0:0:
448,192,43833,1,0,0:0:0:0:
64,192,44000,128,0,44500:0:0:0:0:
192,192,44166,1,2,0:0:0:0:
320,192,44166,1,4,0:0:0:0:
448,192,44166,1,0,0:0:0:0:
448,192,44333,1,2,0:0:0:0:
192,192,44500,1,8,0:0:0:0:
320,192,44500,1,0,0:0:0:0:
64,192,44666,1,0,0:0:0:0:
320,192,44833,1,2,0:0:0:0:
448,192,44833,1,0,0:0:0:0:
64,192,45000,1,2,0:0:0:0:
192,192,45000,1,0,0:0:0:0:
64,192,45166,1,8,0:0:0:0:
320,192,45166,1,0,0:0:0:60:Hat open.wav
448,192,45166,1,0,0:0:0:0:
192,192,45333,1,2,0:0:0:0:
64,192,45500,1,8,0:0:0:0:
320,192,45500,1,4,0:0:0:0:
448,192,45500,1,0,0:0:0:0:
192,192,45666,1,2,0:0:0:0:
320,192,45833,1,2,0:0:0:0:
448,192,45833,1,0,0:0:0:0:
64,192,46000,1,8,0:0:0:0:
192,192,46000,1,4,0:0:0:0:
448,192,46000,1,0,0:0:0:0:
320,192,46166,1,2,0:0:0:0:
64,192,46333,1,2,0:0:0:0:
192,192,46333,1,0,0:0:0:0:
192,192,46500,1,8,0:0:0:0:
320,192,46500,1,4,0:0:0:0:
448,192,46500,1,0,0:0:0:0:
64,192,46666,1,2,0:0:0:0:
320,192,46833,1,2,0:0:0:0:
448,192,46833,1,0,0:0:0:0:
64,192,47000,1,8,0:0:0:0:
192,192,47000,1,4,0:0:0:0:
320,192,47000,1,0,0:0:0:0:
448,192,47166,1,2,0:0:0:0:
192,192,47333,1,2,0:0:0:0:
320,192,47333,1,0,0:0:0:0:
64,192,47500,1,8,0:0:0:0:
192,192,47500,1,4,0:0:0:0:
448,192,47500,1,0,0:0:0:0:
320,192,47666,1,2,0:0:0:0:
192,192,47750,1,2,0:0:0:0:
64,192,47833,1,8,0:0:0:0:
320,192,47833,1,0,0:0:0:60:Hat open.wav
448,192,47833,1,0,0:0:0:0:
192,192,48166,1,4,0:0:0:0:
320,192,48166,1,2,0:0:0:0:
448,192,48166,128,0,48500:0:0:0:0:
64,192,48833,128,0,49166:0:0:0:0:
192,192,49166,1,0,0:0:0:0:
64,192,49333,1,2,0:0:0:0:
320,192,49333,1,4,0:0:0:0:
448,192,49333,128,0,49666:0:0:0:0:
64,192,49666,1,8,0:0:0:0:
192,192,49666,1,0,0:0:0:0:
64,192,49833,1,8,0:0:0:0:
448,192,49833,1,2,0:0:0:0:
320,192,49916,1,0,0:0:0:0:
192,192,50000,1,8,0:0:0:0:
64,192,50083,1,0,0:0:0:0:
320,192,50166,1,8,0:0:0:0:
448,192,50166,1,2,0:0:0:0:
320,192,50333,1,8,0:0:0:0:
448,192,50333,1,0,0:0:0:0:
64,192,50500,1,8,0:0:0:0:
192,192,50500,1,2,0:0:0:0:
64,192,50666,1,8,0:0:0:0:
192,192,50666,1,0,0:0:0:0:
64,192,50833,1,2,0:0:0:0:
320,192,50833,1,4,0:0:0:0:
448,192,50833,128,0,51166:0:0:0:0:
192,192,51166,1,8,0:0:0:0:
320,192,51166,1,0,0:0:0:40:Hat open.wav
64,192,51333,128,0,51500:0:0:0:0:
192,192,51500,1,2,0:0:0:0:
448,192,51500,128,0,51666:0:0:0:0:
320,192,51666,1,2,0:0:0:0:
64,192,51833,1,8,0:0:0:0:
192,192,51833,1,0,0:0:0:40:Hat open.wav
448,192,51833,1,0,0:0:0:0:
320,192,52000,128,0,52166:0:0:0:0:
64,192,52166,128,2,52333:0:0:0:0:
448,192,52166,1,0,0:0:0:0:
192,192,52333,1,0,0:0:0:0:
64,192,52500,1,8,0:0:0:0:
320,192,52500,1,0,0:0:0:40:Hat open.wav
448,192,52500,128,0,52666:0:0:0:0:
192,192,52666,128,0,53000:0:0:0:0:
64,192,52833,1,2,0:0:0:0:
448,192,52833,1,0,0:0:0:0:
320,192,53000,1,2,0:0:0:0:
64,192,53166,128,8,53333:0:0:0:0:
192,192,53166,1,0,0:0:0:40:Hat open.wav
448,192,53166,1,0,0:0:0:0:
192,192,53500,1,2,0:0:0:0:
320,192,53500,1,4,0:0:0:0:
448,192,53500,128,0,54000:0:0:0:0:
64,192,53833,1,8,0:0:0:0:
192,192,53833,1,0,0:0:0:0:
320,192,53833,128,0,54000:0:0:0:0:
64,192,54000,128,2,54166:0:0:0:0:
192,192,54000,1,0,0:0:0:40:Hat open.wav
192,192,54333,128,2,54500:0:0:0:0:
320,192,54333,1,0,0:0:0:40:Hat open.wav
64,192,54666,1,2,0:0:0:0:
320,192,54666,1,4,0:0:0:0:
448,192,54666,128,0,55166:0:0:0:0:
192,192,55000,1,2,0:0:0:0:
64,192,55166,1,8,0:0:0:0:
192,192,55166,1,0,0:0:0:40:Hat open.wav
320,192,55166,1,0,0:0:0:0:
64,192,55333,1,0,0:0:0:0:
192,192,55500,1,2,0:0:0:0:
448,192,55500,1,0,0:0:0:0:
320,192,55666,1,2,0:0:0:0:
64,192,55833,1,8,0:0:0:0:
192,192,55833,1,0,0:0:0:40:Hat open.wav
448,192,55833,1,0,0:0:0:0:
320,192,55916,1,0,0:0:0:0:
64,192,56000,1,0,0:0:0:0:
448,192,56000,1,0,0:0:0:0:
192,192,56083,1,0,0:0:0:0:
320,192,56166,128,2,56500:0:0:0:0:
448,192,56166,1,4,0:0:0:0:
64,192,56500,128,8,56666:0:0:0:0:
192,192,56500,1,0,0:0:0:40:Hat open.wav
448,192,56500,1,0,0:0:0:0:
448,192,56666,128,0,56833:0:0:0:0:
192,192,56833,1,2,0:0:0:0:
320,192,56833,1,0,0:0:0:0:
64,192,57000,128,2,57166:0:0:0:0:
192,192,57166,1,8,0:0:0:0:
320,192,57166,1,0,0:0:0:40:Hat open.wav
448,192,57166,1,0,0:0:0:0:
448,192,57333,128,0,57666:0:0:0:0:
64,192,57500,1,2,0:0:0:0:
320,192,57500,1,0,0:0:0:0:
192,192,57666,1,2,0:0:0:0:
64,192,57833,128,8,58166:0:0:0:0:
320,192,57833,1,0,0:0:0:40:Hat open.wav
448,192,57833,1,0,0:0:0:0:
192,192,58166,128,2,58500:0:0:0:0:
448,192,58166,1,0,0:0:0:0:
320,192,58333,1,2,0:0:0:0:
64,192,58500,1,8,0:0:0:0:
320,192,58500,1,0,0:0:0:40:Hat open.wav
448,192,58500,128,0,58833:0:0:0:0:
64,192,58833,1,2,0:0:0:0:
192,192,58833,1,4,0:0:0:0:
320,192,58833,128,0,59166:0:0:0:0:
64,192,59166,1,8,0:0:0:0:
192,192,59166,1,0,0:0:0:40:Hat open.wav
448,192,59166,1,0,0:0:0:0:
448,192,59333,1,0,0:0:0:0:
64,192,59500,1,2,0:0:0:0:
320,192,59500,1,0,0:0:0:0:
192,192,59666,1,2,0:0:0:0:
448,192,59666,1,0,0:0:0:0:
64,192,59833,1,8,0:0:0:0:
320,192,59833,1,0,0:0:0:40:Hat open.wav
448,192,59833,1,0,0:0:0:0:
192,192,60000,1,0,0:0:0:0:
64,192,60166,1,2,0:0:0:0:
320,192,60166,1,4,0:0:0:0:
448,192,60166,128,0,60500:0:0:0:0:
192,192,60333,1,2,0:0:0:0:
64,192,60500,1,8,0:0:0:0:
192,192,60500,1,0,0:0:0:20:soft-hitfinish.wav
320,192,60500,1,0,0:0:0:0:
64,192,60666,128,2,61000:0:0:0:0:
320,192,60666,1,4,0:0:0:0:
448,192,60666,1,0,0:0:0:0:
320,192,61000,1,8,0:0:0:0:
448,192,61000,1,0,0:0:0:0:
64,192,61166,1,0,0:0:0:40:Tom2.wav
192,192,61166,1,0,0:0:0:0:
192,192,61333,1,0,0:0:0:40:Tom3.wav
320,192,61333,1,0,0:0:0:0:
64,192,61500,128,2,61833:0:0:0:0:
320,192,61500,1,4,0:0:0:0:
448,192,61500,1,0,0:0:0:0:
192,192,61833,1,8,0:0:0:0:
448,192,61833,1,0,0:0:0:40:Hat open.wav
320,192,62000,128,0,62166:0:0:0:0:
64,192,62166,1,2,0:0:0:0:
448,192,62166,128,0,62500:0:0:0:40:Hat open.wav
192,192,62333,1,2,0:0:0:0:
64,192,62500,1,8,0:0:0:0:
192,192,62500,1,0,0:0:0:40:Hat open.wav
320,192,62500,1,0,0:0:0:0:
64,192,62666,128,0,62833:0:0:0:0:
192,192,62833,1,2,0:0:0:0:
448,192,62833,128,0,63000:0:0:0:40:Hat open.wav
64,192,63166,1,8,0:0:0:0:
192,192,63166,128,0,63333:0:0:0:40:Hat open.wav
448,192,63166,1,0,0:0:0:0:
320,192,63333,128,0,63666:0:0:0:0:
64,192,63500,1,2,0:0:0:0:
192,192,63500,1,0,0:0:0:40:Hat open.wav
448,192,63666,1,2,0:0:0:0:
64,192,63833,1,8,0:0:0:0:
192,192,63833,128,0,64000:0:0:0:40:Hat open.wav
320,192,63833,1,0,0:0:0:0:
64,192,64166,128,2,64666:0:0:0:0:
320,192,64166,1,4,0:0:0:0:
448,192,64166,1,0,0:0:0:0:
192,192,64500,128,8,64666:0:0:0:0:
320,192,64500,1,0,0:0:0:0:
448,192,64500,1,0,0:0:0:0:
320,192,64666,1,0,0:0:0:20:soft-hitclap.wav
448,192,64666,128,0,64833:0:0:0:0:
192,192,64750,1,0,0:0:0:20:soft-hitclap.wav
64,192,64833,1,0,0:0:0:20:soft-hitclap.wav
192,192,65000,1,2,0:0:0:0:
320,192,65000,128,0,65166:0:0:0:40:Hat open.wav
64,192,65333,128,2,65833:0:0:0:0:
192,192,65333,1,4,0:0:0:0:
448,192,65333,1,0,0:0:0:0:
320,192,65666,1,2,0:0:0:0:
192,192,65833,1,8,0:0:0:0:
320,192,65833,1,0,0:0:0:40:Hat open.wav
448,192,65833,1,0,0:0:0:0:
64,192,66166,1,2,0:0:0:0:
448,192,66166,1,0,0:0:0:0:
192,192,66333,1,2,0:0:0:0:
64,192,66500,1,8,0:0:0:0:
320,192,66500,1,0,0:0:0:40:Hat open.wav
448,192,66500,1,0,0:0:0:0:
192,192,66583,1,0,0:0:0:0:
320,192,66666,1,0,0:0:0:0:
448,192,66750,1,0,0:0:0:0:
64,192,66833,128,2,67166:0:0:0:0:
192,192,66833,1,4,0:0:0:0:
320,192,66833,1,0,0:0:0:0:
192,192,67166,1,8,0:0:0:0:
320,192,67166,1,0,0:0:0:40:Hat open.wav
448,192,67166,1,0,0:0:0:0:
192,192,67333,128,0,67500:0:0:0:0:
64,192,67500,1,2,0:0:0:0:
448,192,67500,128,0,67666:0:0:0:0:
320,192,67666,1,2,0:0:0:0:
64,192,67833,1,8,0:0:0:0:
192,192,67833,1,4,0:0:0:0:
448,192,67833,1,0,0:0:0:0:
64,192,68166,128,2,68500:0:0:0:0:
320,192,68166,1,4,0:0:0:0:
192,192,68500,1,8,0:0:0:0:
320,192,68500,1,0,0:0:0:40:Hat open.wav
448,192,68500,1,0,0:0:0:0:
320,192,68666,128,0,68833:0:0:0:0:
64,192,68833,1,2,0:0:0:0:
448,192,68833,1,0,0:0:0:0:
192,192,69000,128,2,69166:0:0:0:0:
64,192,69166,1,8,0:0:0:0:
320,192,69166,1,0,0:0:0:40:Hat open.wav
448,192,69166,1,0,0:0:0:0:
448,192,69333,128,0,69500:0:0:0:0:
64,192,69500,1,2,0:0:0:0:
192,192,69500,1,4,0:0:0:0:
320,192,69500,1,0,0:0:0:0:
64,192,69666,1,0,0:0:0:0:
192,192,69666,1,0,0:0:0:0:
192,192,69833,1,8,0:0:0:0:
320,192,69833,1,4,0:0:0:0:
448,192,69833,1,0,0:0:0:0:
320,192,70000,1,2,0:0:0:0:
448,192,70000,1,0,0:0:0:0:
64,192,70166,1,8,0:0:0:0:
192,192,70166,1,4,0:0:0:0:
448,192,70166,1,0,0:0:0:0:
192,192,70333,1,2,0:0:0:0:
320,192,70333,1,0,0:0:0:0:
64,192,70500,1,8,0:0:0:0:
320,192,70500,1,0,0:0:0:25:soft-hitfinish.wav
448,192,70500,1,0,0:0:0:0:
64,192,70666,1,2,0:0:0:0:
192,192,70666,1,4,0:0:0:0:
448,192,70666,1,0,0:0:0:0:
192,192,70833,1,0,0:0:0:0:
320,192,70833,1,0,0:0:0:0:
192,192,71000,1,2,0:0:0:0:
448,192,71000,1,0,0:0:0:0:
64,192,71166,1,8,0:0:0:0:
320,192,71166,1,4,0:0:0:0:
448,192,71166,1,0,0:0:0:0:
64,192,71333,1,2,0:0:0:0:
192,192,71333,1,0,0:0:0:0:
192,192,71500,1,2,0:0:0:0:
320,192,71500,1,8,0:0:0:0:
448,192,71500,1,0,0:0:0:0:
64,192,71666,1,0,0:0:0:20:soft-hitclap.wav
192,192,71666,1,0,0:0:0:0:
320,192,71750,1,0,0:0:0:20:soft-hitclap.wav
64,192,71833,1,8,0:0:0:0:
192,192,71833,1,0,0:0:0:30:Tom1.wav
448,192,71833,1,0,0:0:0:0:
64,192,72000,1,8,0:0:0:0:
320,192,72000,1,0,0:0:0:30:Tom2.wav
448,192,72000,1,0,0:0:0:0:
64,192,72166,128,2,73500:0:0:0:0:
320,192,72166,128,4,72833:0:0:0:0:
448,192,72166,1,0,0:0:0:0:
192,192,72833,128,0,73166:0:0:0:0:
192,192,73500,128,2,73666:0:0:0:0:
320,192,73500,1,4,0:0:0:0:
448,192,73500,128,0,74833:0:0:0:0:
64,192,73666,1,8,0:0:0:0:
320,192,73833,128,0,74000:0:0:0:0:
64,192,74000,128,0,74166:0:0:0:40:Tom1.wav
192,192,74333,128,0,74500:0:0:0:40:Tom2.wav
64,192,74500,1,0,0:0:0:40:Tom3.wav
320,192,74666,128,0,74833:0:0:0:0:
64,192,74833,1,2,0:0:0:0:
192,192,74833,128,4,76166:0:0:0:0:
448,192,75166,1,0,0:0:0:0:
64,192,75333,1,0,0:0:0:0:
448,192,75500,1,0,0:0:0:0:
64,192,75666,1,0,0:0:0:0:
448,192,75833,1,0,0:0:0:0:
64,192,76000,1,0,0:0:0:0:
448,192,76166,1,0,0:0:0:0:
64,192,76333,1,2,0:0:0:0:
320,192,76333,1,8,0:0:0:0:
448,192,76333,1,0,0:0:0:0:
64,192,76500,1,2,0:0:0:0:
192,192,76500,1,8,0:0:0:0:
320,192,76500,1,0,0:0:0:0:
192,192,76666,1,2,0:0:0:0:
320,192,76666,1,8,0:0:0:0:
448,192,76666,1,0,0:0:0:0:
64,192,76833,1,2,0:0:0:0:
192,192,76833,1,8,0:0:0:0:
448,192,76833,1,0,0:0:0:0:
448,192,77000,1,10,0:0:0:0:
320,192,77083,1,0,0:0:0:0:
192,192,77166,1,10,0:0:0:0:
64,192,77250,1,0,0:0:0:0:
320,192,77333,1,10,0:0:0:0:
192,192,77416,1,0,0:0:0:0:
64,192,77500,1,2,0:0:0:0:
320,192,77500,1,4,0:0:0:0:
448,192,77500,128,0,77833:0:0:0:0:
64,192,77833,1,8,0:0:0:0:
192,192,77833,1,0,0:0:0:40:Hat open.wav
320,192,77833,1,0,0:0:0:0:
64,192,78166,1,2,0:0:0:0:
192,192,78166,1,0,0:0:0:0:
320,192,78333,1,2,0:0:0:0:
448,192,78333,1,0,0:0:0:0:
64,192,78500,1,8,0:0:0:0:
192,192,78500,1,0,0:0:0:40:Hat open.wav
448,192,78500,1,0,0:0:0:0:
320,192,78666,1,0,0:0:0:0:
64,192,78833,128,2,79166:0:0:0:0:
192,192,78833,1,0,0:0:0:0:
192,192,79166,1,8,0:0:0:0:
320,192,79166,1,0,0:0:0:40:Hat open.wav
448,192,79166,1,0,0:0:0:0:
320,192,79500,1,2,0:0:0:0:
448,192,79500,1,0,0:0:0:0:
64,192,79666,1,2,0:0:0:0:
192,192,79666,1,0,0:0:0:0:
64,192,79833,1,8,0:0:0:0:
320,192,79833,1,0,0:0:0:40:Hat open.wav
448,192,79833,1,0,0:0:0:0:
192,192,80000,1,0,0:0:0:0:
64,192,80166,1,2,0:0:0:0:
320,192,80166,1,4,0:0:0:0:
448,192,80166,128,0,80500:0:0:0:0:
192,192,80500,1,8,0:0:0:0:
320,192,80500,128,0,80583:0:0:0:0:
64,192,80666,1,2,0:0:0:0:
192,192,80666,128,0,80750:0:0:0:40:Hat open.wav
64,192,81000,128,2,81083:0:0:0:0:
320,192,81000,1,0,0:0:0:40:Hat open.wav
192,192,81333,1,2,0:0:0:0:
320,192,81333,1,4,0:0:0:0:
448,192,81333,128,0,82166:0:0:0:0:
64,192,81500,1,0,0:0:0:0:
192,192,81666,1,2,0:0:0:0:
320,192,81666,1,0,0:0:0:0:
64,192,81833,1,8,0:0:0:0:
192,192,81833,1,0,0:0:0:40:Hat open.wav
320,192,81833,1,0,0:0:0:0:
64,192,82166,1,2,0:0:0:0:
192,192,82166,1,0,0:0:0:0:
320,192,82333,1,2,0:0:0:0:
448,192,82333,1,0,0:0:0:0:
64,192,82500,1,8,0:0:0:0:
192,192,82500,1,0,0:0:0:40:Hat open.wav
448,192,82500,1,0,0:0:0:0:
320,192,82666,1,0,0:0:0:0:
64,192,82833,1,2,0:0:0:0:
192,192,82833,128,4,83166:0:0:0:0:
448,192,82833,1,0,0:0:0:0:
64,192,83166,1,8,0:0:0:0:
320,192,83166,1,0,0:0:0:40:Hat open.wav
448,192,83166,1,0,0:0:0:0:
448,192,83333,1,0,0:0:0:0:
192,192,83500,1,2,0:0:0:0:
320,192,83500,1,0,0:0:0:0:
64,192,83666,1,2,0:0:0:0:
448,192,83666,1,0,0:0:0:0:
192,192,83833,1,8,0:0:0:0:
320,192,83833,1,0,0:0:0:40:Hat open.wav
448,192,83833,1,0,0:0:0:0:
64,192,84000,1,0,0:0:0:0:
320,192,84166,128,2,84333:0:0:0:0:
448,192,84166,1,0,0:0:0:0:
64,192,84333,1,2,0:0:0:0:
192,192,84333,1,0,0:0:0:0:
192,192,84500,1,8,0:0:0:0:
320,192,84500,1,0,0:0:0:40:Hat open.wav
448,192,84500,1,0,0:0:0:0:
64,192,84833,128,2,85000:0:0:0:0:
448,192,84833,1,0,0:0:0:0:
192,192,85000,1,2,0:0:0:0:
320,192,85000,1,0,0:0:0:0:
64,192,85166,1,8,0:0:0:0:
192,192,85166,1,0,0:0:0:40:Hat open.wav
448,192,85166,1,0,0:0:0:0:
320,192,85333,1,0,0:0:0:0:
64,192,85500,1,2,0:0:0:0:
192,192,85500,1,4,0:0:0:0:
448,192,85500,128,0,85833:0:0:0:40:SVF_F#5s.wav
64,192,85833,1,8,0:0:0:0:
192,192,85833,1,0,0:0:0:40:Hat open.wav
320,192,85833,1,0,0:0:0:0:
448,192,86000,1,0,0:0:0:20:soft-hitclap.wav
320,192,86083,1,0,0:0:0:20:soft-hitclap.wav
64,192,86166,1,0,0:0:0:20:soft-hitclap.wav
192,192,86166,1,0,0:0:0:0:
192,192,86333,1,0,0:0:0:40:Tom1.wav
320,192,86333,1,0,0:0:0:0:
320,192,86500,1,0,0:0:0:40:Tom3.wav
448,192,86500,1,0,0:0:0:0:
64,192,86722,1,2,0:0:0:0:
192,192,86722,1,4,0:0:0:0:
448,192,86722,128,0,88666:0:0:0:40:SVF_F5s.wav
