osu file format v14

[General]
AudioFilename: audio.mp3
AudioLeadIn: 0
PreviewTime: 50093
Countdown: 0
SampleSet: Soft
StackLeniency: 0.4
Mode: 0
LetterboxInBreaks: 0
WidescreenStoryboard: 0

[Editor]
DistanceSpacing: 1.1
BeatDivisor: 4
GridSize: 4
TimelineZoom: 1

[Metadata]
Title:Haru Urara, Kimi to Sakihokoru (TV Size)
TitleUnicode:春ウララ、君ト咲キ誇ル (TV Size)
Artist:Konohana-tei Nakai no Kai
ArtistUnicode:此花亭仲居の会
Creator:- Nilou -
Version:Radiant Heart
Source:このはな綺譚
Tags:Japanese Jpop pop J-pop anime Konohana Kitan anime tv size ending 柚 Yuzu 大野柚布子 Ono Yuko 皐 Satsuki 秦佐和子 Hata Sawako 棗 Natsume 諏訪彩花 Suwa Ayaka 蓮 Hasu 久保田梨沙 Kubota Risa 櫻 Sakura 加隈亞衣 Kakuma Ai 桐 Kiri 沼倉愛美 Numakura Manami hakashii Syndicate_
BeatmapID:4060568
BeatmapSetID:1959618

[Difficulty]
HPDrainRate:5
CircleSize:3.8
OverallDifficulty:8
ApproachRate:8.5
SliderMultiplier:1.7
SliderTickRate:1

[Events]
//Background and Video events
0,0,"they're foxes.png",0,0
Video,0,"optc (3).flv"
//Break Periods
//Storyboard Layer 0 (Background)
//Storyboard Layer 1 (Fail)
//Storyboard Layer 2 (Pass)
//Storyboard Layer 3 (Foreground)
//Storyboard Layer 4 (Overlay)
//Storyboard Sound Samples

[TimingPoints]
787,333.333333333333,4,2,1,40,1,0
787,-166.666666666667,4,2,1,40,0,0
8620,-142.857142857143,4,2,1,5,0,0
8786,-117.647058823529,4,2,1,50,0,0
11453,-117.647058823529,4,2,1,55,0,0
16786,-133.333333333333,4,2,1,45,0,0
24786,-125,4,2,1,50,0,0
27453,-125,4,2,1,45,0,0
35453,-117.647058823529,4,2,1,50,0,0
38120,-142.857142857143,4,2,1,45,0,0
38203,-142.857142857143,4,2,3,45,0,0
40620,-142.857142857143,4,2,1,45,0,0
40786,-142.857142857143,4,2,3,45,0,0
42286,-142.857142857143,4,2,1,45,0,0
43286,-100,4,2,1,55,0,0
46120,-100,4,2,1,60,0,0
49953,-100,4,2,1,65,0,0
50786,-95.2380952380952,4,2,1,70,0,0
51453,-95.2380952380952,4,2,3,80,0,1
51703,-95.2380952380952,4,2,1,5,0,1
51786,-95.2380952380952,4,2,1,80,0,1
72786,-142.857142857143,4,2,1,80,0,0
76786,-142.857142857143,4,2,1,80,0,0
76953,-100,4,2,1,50,0,0
77453,-100,4,2,1,60,0,0
78120,-100,4,2,1,70,0,0
81370,-100,4,2,1,5,0,0
81453,-100,4,2,1,70,0,0
81703,-100,4,2,1,5,0,0
81786,-100,4,2,1,70,0,0
87286,-312.5,4,2,1,80,0,0
87370,-312.5,4,2,1,5,0,0

[Colours]
Combo1 : 0,158,234
Combo2 : 255,196,219
Combo3 : 193,255,255

[HitObjects]
32,293,787,6,0,L|42:342,2,50.9999984436036,2|0|0,1:2|0:2|0:2,0:0:0:0:
19,212,1286,2,0,P|67:201|112:223,1,101.999996887207,2|2,0:2|0:2,0:0:0:0:
222,316,1953,2,0,P|173:327|128:305,1,101.999996887207,2|2,0:2|0:2,0:0:0:0:
186,122,2620,1,2,0:2:0:0:
186,122,2786,1,2,0:2:0:0:
196,171,3453,6,0,L|183:112,2,50.9999984436036,2|0|0,1:2|0:2|0:2,0:0:0:0:
220,251,3953,2,0,L|328:227,1,101.999996887207,2|2,0:2|0:2,0:0:0:0:
381,125,4620,2,0,L|281:146,1,101.999996887207,2|2,0:2|0:2,0:0:0:0:
405,215,5286,1,2,0:2:0:0:
405,215,5453,1,2,0:2:0:0:
256,192,6120,12,0,8620,0:2:0:0:
76,80,8786,5,10,0:2:0:0:
186,192,8953,1,2,1:2:0:0:
157,26,9120,1,10,0:2:0:0:
97,168,9286,2,0,L|26:182,1,72.2500013780594,10|0,0:2|0:2,0:0:0:0:
205,285,9620,2,0,L|134:270,1,72.2500013780594,2|0,1:2|0:2,0:0:0:0:
15,56,9953,6,0,L|156:25,1,144.500002756119,4|0,1:1|1:2,0:0:0:0:
288,0,10453,1,8,0:2:0:0:
184,193,10620,1,8,0:2:0:0:
351,69,10786,5,2,1:2:0:0:
401,247,10953,1,8,0:2:0:0:
249,99,11120,1,8,0:2:0:0:
307,299,11286,1,8,0:2:0:0:
421,83,11453,6,0,L|350:68,1,72.2500013780594,6|0,1:2|0:2,0:0:0:0:
432,239,11786,2,0,L|502:224,1,72.2500013780594,0|0,1:2|0:2,0:0:0:0:
382,166,12120,5,0,1:2:0:0:
323,229,12286,2,0,L|308:299,1,72.2500013780594,0|0,0:2|1:2,0:0:0:0:
177,218,12620,5,0,0:2:0:0:
224,294,12786,2,0,L|238:364,1,72.2500013780594,0|0,1:2|0:2,0:0:0:0:
253,171,13120,5,0,1:2:0:0:
177,218,13286,2,0,L|106:232,1,72.2500013780594,0|0,0:2|1:2,0:0:0:0:
223,89,13620,1,0,0:2:0:0:
177,218,13786,1,0,1:2:0:0:
116,47,13953,1,0,0:2:0:0:
76,240,14120,6,0,L|61:169,1,72.2500013780594,2|0,1:2|0:2,0:0:0:0:
141,35,14453,2,0,L|126:105,1,72.2500013780594,2|0,1:2|0:2,0:0:0:0:
177,218,14786,1,2,1:2:0:0:
253,77,14953,2,0,P|286:66|322:71,1,72.2500013780594,2|0,0:2|1:2,0:0:0:0:
512,230,15286,1,2,0:2:0:0:
401,98,15453,5,6,1:2:0:0:
401,98,16286,1,0,1:0:0:0:
401,98,16453,2,0,L|423:204,1,108.375002067089,8|0,0:2|0:0,0:0:0:0:
428,239,16786,6,0,P|377:275|316:265,1,127.500004863739,4|2,1:2|1:2,0:0:0:0:
239,224,17286,2,0,L|224:294,1,63.7500024318696,2|0,0:2|1:2,0:0:0:0:
149,351,17620,2,0,L|135:288,1,63.7500024318696,2|0,0:2|1:2,0:0:0:0:
29,180,17953,6,0,L|160:207,1,127.500004863739,2|0,0:2|0:2,0:0:0:0:
154,75,18453,2,0,P|123:65|92:70,1,63.7500024318696,2|0,1:2|0:2,0:0:0:0:
214,143,18786,2,0,P|237:122|249:92,1,63.7500024318696,2|0,1:2|0:2,0:0:0:0:
125,159,19120,2,0,P|131:189|152:214,1,63.7500024318696,2|0,1:2|0:2,0:0:0:0:
258,62,19453,6,0,B|290:40|325:51|325:51|341:78|372:82,1,127.500004863739,2|2,1:2|1:2,0:0:0:0:
439,24,19953,2,0,P|463:4|495:0,1,63.7500024318696,2|0,0:2|1:2,0:0:0:0:
494,86,20286,2,0,L|480:149,1,63.7500024318696,2|0,0:2|1:2,0:0:0:0:
454,254,20620,1,2,0:2:0:0:
454,254,20786,6,0,P|403:218|342:228,2,127.500004863739,0|0|0,1:2|1:2|1:2,0:0:0:0:
152,285,21786,1,0,1:2:0:0:
236,177,21953,1,4,3:0:0:0:
152,285,22120,6,0,P|122:294|91:290,1,63.7500024318696,2|0,1:2|0:2,0:0:0:0:
40,222,22453,1,2,1:2:0:0:
40,222,22620,2,0,P|46:191|66:166,1,63.7500024318696,2|0,0:2|1:2,0:0:0:0:
142,122,22953,2,0,L|129:59,1,63.7500024318696,2|0,0:2|1:2,0:0:0:0:
262,16,23286,6,0,L|236:140,1,127.500004863739,2|0,0:2|0:2,0:0:0:0:
388,168,23786,2,0,P|358:159|327:163,1,63.7500024318696,2|0,1:2|0:2,0:0:0:0:
319,299,24120,2,0,P|341:277|353:248,1,63.7500024318696,2|0,1:2|0:2,0:0:0:0:
236,177,24453,1,6,1:2:0:0:
447,312,24786,6,0,L|461:245,1,68,4|0,1:1|0:2,0:0:0:0:
373,101,25120,2,0,L|387:167,1,68,10|2,0:2|0:2,0:0:0:0:
298,329,25453,1,0,1:2:0:0:
236,177,25620,1,0,1:2:0:0:
183,344,25786,2,0,P|149:348|117:338,1,68,8|0,0:2|0:2,0:0:0:0:
47,216,26120,5,4,1:2:0:0:
166,260,26286,1,0,1:2:0:0:
18,309,26453,1,8,0:2:0:0:
144,172,26620,2,0,B|195:163|195:163|223:179|223:179|288:168,1,136,0|0,1:2|1:2,0:0:0:0:
350,94,27120,1,8,0:2:0:0:
236,20,27286,1,8,0:2:0:0:
236,20,27370,1,8,0:2:0:0:
236,20,27453,6,0,L|250:86,1,68,6|0,1:2|0:2,0:0:0:0:
285,253,27786,1,10,0:2:0:0:
144,172,27953,2,0,L|158:105,1,68,2|0,0:2|1:2,0:0:0:0:
100,30,28286,2,0,P|67:25|35:35,1,68,2|8,1:2|0:2,0:0:0:0:
51,279,28620,6,0,L|21:147,1,136,2|0,1:2|1:2,0:0:0:0:
201,261,29120,2,0,P|169:250|135:255,1,68,10|0,0:2|0:2,0:0:0:0:
3,365,29453,2,0,P|28:342|41:310,1,68,2|0,1:2|1:2,0:0:0:0:
20,146,29786,1,10,0:2:0:0:
252,97,30120,6,0,L|282:229,1,136,2|10,1:2|0:2,0:0:0:0:
342,343,30620,2,0,L|356:276,1,68,2|0,0:2|1:2,0:0:0:0:
425,179,30953,2,0,L|439:245,1,68,2|8,1:2|0:2,0:0:0:0:
457,330,31286,1,2,0:2:0:0:
342,157,31453,5,2,1:2:0:0:
342,157,31620,1,0,1:2:0:0:
261,306,31786,2,0,P|228:311|196:300,1,68,8|0,0:2|0:2,0:0:0:0:
99,233,32120,1,0,1:2:0:0:
99,233,32286,1,0,1:2:0:0:
255,148,32453,2,0,L|241:215,1,68,10|2,0:2|0:2,0:0:0:0:
53,315,32786,6,0,P|3:264|7:195,1,136,6|8,1:2|0:2,0:0:0:0:
145,161,33286,1,0,0:0:0:0:
3,49,33453,2,0,L|18:115,1,68,2|2,1:2|1:2,0:0:0:0:
145,161,33786,1,8,0:2:0:0:
145,161,34120,6,0,L|160:94,1,68,2|0,1:2|1:2,0:0:0:0:
198,14,34453,2,0,P|231:9|263:20,1,68,10|0,0:2|0:2,0:0:0:0:
273,163,34786,2,0,P|252:136|245:103,1,68,2|0,1:2|1:2,0:0:0:0:
374,21,35120,2,0,P|361:52|335:74,1,68,10|0,0:2|1:2,0:0:0:0:
290,234,35453,6,0,L|270:146,1,72.2500013780594,6|0,1:2|1:2,0:0:0:0:
399,255,35786,1,10,0:2:0:0:
335,74,35953,1,0,1:2:0:0:
499,169,36120,2,0,L|483:239,1,72.2500013780594,8|0,0:2|1:2,0:0:0:0:
479,374,36453,1,8,0:2:0:0:
398,254,36620,6,0,P|349:205|279:208,1,144.500002756119,4|0,1:2|1:2,0:0:0:0:
299,367,37120,2,0,L|314:296,1,72.2500013780594,12|0,0:2|1:2,0:0:0:0:
177,217,37453,1,8,0:2:0:0:
211,340,37620,1,4,3:0:0:0:
279,208,37786,1,8,0:2:0:0:
279,208,37870,1,8,0:2:0:0:
279,208,37953,1,0,1:2:0:0:
138,295,38120,5,4,1:1:0:0:
138,295,38453,2,0,L|71:281,1,59.4999981842042,2|0,0:2|1:2,0:0:0:0:
12,233,38786,2,0,P|6:174|39:126,1,118.999996368408,10|2,0:2|0:2,0:0:0:0:
109,79,39286,1,0,1:2:0:0:
109,79,39453,6,0,L|241:108,1,118.999996368408,4|2,3:0|1:2,0:0:0:0:
295,147,39953,1,2,0:2:0:0:
418,80,40120,1,8,0:2:0:0:
418,80,40453,2,0,P|426:108|423:137,1,59.4999981842042,2|8,1:2|0:2,0:0:0:0:
421,178,40703,1,8,0:2:0:0:
421,178,40786,6,0,L|449:311,1,118.999996368408,2|2,1:2|0:2,0:0:0:0:
352,278,41286,2,0,P|323:271|293:277,1,59.4999981842042,2|8,1:2|0:2,0:0:0:0:
259,362,41620,2,0,P|288:366|317:360,1,59.4999981842042,2|0,0:2|0:2,0:0:0:0:
209,290,41953,6,0,L|194:219,1,59.4999981842042,2|2,1:2|1:2,0:0:0:0:
115,159,42286,1,8,2:2:0:0:
115,159,42453,2,0,L|89:275,1,118.999996368408,0|10,1:2|0:2,0:0:0:0:
121,368,42953,1,2,1:2:0:0:
121,368,43036,1,2,1:2:0:0:
121,368,43120,1,6,1:2:0:0:
207,196,43286,1,2,0:2:0:0:
0,237,43453,6,0,P|-9:147|41:88,1,170,4|10,1:1|0:2,0:0:0:0:
185,222,43953,2,0,L|165:130,1,85,2|0,0:2|1:2,0:0:0:0:
287,11,44286,2,0,L|269:94,1,85,2|8,1:2|0:2,0:0:0:0:
185,222,44620,1,2,0:2:0:0:
347,145,44786,6,0,B|412:132|412:132|447:153|447:153|528:138,1,170,2|10,1:2|0:2,0:0:0:0:
393,305,45286,2,0,P|381:264|387:222,1,85,2|0,0:2|1:2,0:0:0:0:
503,60,45620,2,0,P|514:100|508:142,1,85,2|8,1:2|0:2,0:0:0:0:
393,305,45953,1,2,1:2:0:0:
347,145,46120,5,10,0:2:0:0:
470,252,46286,1,2,1:2:0:0:
503,60,46453,5,4,3:0:0:0:
306,218,46620,2,0,L|222:200,1,85,8|0,0:2|1:2,0:0:0:0:
67,94,46953,5,4,3:0:0:0:
251,11,47120,2,0,P|257:52|245:93,1,85,8|0,0:2|1:2,0:0:0:0:
50,185,47453,5,4,3:0:0:0:
141,0,47620,2,0,L|158:83,1,85,8|0,0:2|1:2,0:0:0:0:
273,302,47953,5,4,3:0:0:0:
132,190,48120,2,0,P|91:178|49:184,1,85,8|0,0:2|1:2,0:0:0:0:
25,201,48370,1,0,1:2:0:0:
25,201,48453,2,0,L|42:284,1,85,8|0,0:2|1:2,0:0:0:0:
159,359,48786,5,2,1:2:0:0:
189,367,49953,6,0,B|201:301|201:301|180:266|180:266|195:185,1,170,4|4,1:1|3:3,0:0:0:0:
304,83,50453,2,0,L|220:100,1,85,8|0,0:2|1:2,0:0:0:0:
38,97,50786,1,0,1:0:0:0:
105,209,50953,1,8,0:2:0:0:
106,38,51120,1,2,1:2:0:0:
31,253,51286,1,4,3:0:0:0:
190,52,51453,6,0,P|255:43|305:84,1,133.874995914459,4|0,1:1|0:0,0:0:0:0:
335,157,51786,2,0,L|422:139,1,89.2499972763062,8|2,0:2|0:2,0:0:0:0:
357,267,52120,1,2,1:2:0:0:
230,128,52286,1,0,1:2:0:0:
440,51,52453,2,0,L|422:138,1,89.2499972763062,8|2,0:2|0:2,0:0:0:0:
242,348,52786,6,0,P|231:305|248:264,1,89.2499972763062,2|0,1:2|0:0,0:0:0:0:
335,157,53120,1,10,0:2:0:0:
396,360,53286,2,0,P|406:317|389:276,1,89.2499972763062,2|0,0:2|1:2,0:0:0:0:
243,152,53620,1,0,1:2:0:0:
154,329,53786,2,0,L|241:347,1,89.2499972763062,10|0,0:2|1:2,0:0:0:0:
0,279,54120,6,0,L|131:251,1,133.874995914459,6|0,1:2|0:2,0:0:0:0:
209,229,54453,1,10,0:2:0:0:
101,76,54620,2,0,P|61:59|18:69,1,89.2499972763062,2|0,1:2|0:2,0:0:0:0:
0,279,54953,2,0,P|34:252|47:210,1,89.2499972763062,4|0,3:0|0:2,0:0:0:0:
276,134,55286,6,0,B|230:104|181:119|181:119|159:157|116:163,1,178.499994552612,4|0,1:1|1:2,0:0:0:0:
315,306,55786,2,0,L|297:219,1,89.2499972763062,8|0,0:2|1:2,0:0:0:0:
415,40,56120,1,0,1:0:0:0:
276,134,56286,1,0,1:2:0:0:
452,257,56453,2,0,P|469:217|459:174,1,89.2499972763062,8|0,0:2|1:2,0:0:0:0:
443,146,56703,1,0,1:2:0:0:
443,146,56786,6,0,L|356:164,1,89.2499972763062,4|0,1:1|0:2,0:0:0:0:
218,201,57120,1,10,0:2:0:0:
402,324,57286,2,0,L|315:306,1,89.2499972763062,2|0,0:2|1:2,0:0:0:0:
129,215,57620,2,0,L|223:200,1,89.2499972763062,2|8,1:2|0:2,0:0:0:0:
2,319,57953,6,0,B|69:308|69:308|106:329|106:329|190:315,1,178.499994552612,2|0,0:2|1:2,0:0:0:0:
135,131,58453,2,0,P|118:171|128:214,1,89.2499972763062,10|0,0:2|0:2,0:0:0:0:
235,62,58786,2,0,P|208:27|166:14,1,89.2499972763062,2|0,1:2|0:2,0:0:0:0:
250,186,59120,2,0,P|293:180|325:150,1,89.2499972763062,10|0,0:2|0:2,0:0:0:0:
49,111,59453,6,0,L|136:129,1,89.2499972763062,6|0,1:2|0:2,0:0:0:0:
322,43,59786,2,0,L|235:61,1,89.2499972763062,10|2,0:2|0:2,0:0:0:0:
34,208,60120,1,0,1:2:0:0:
150,49,60286,1,0,1:2:0:0:
205,275,60453,1,8,0:2:0:0:
49,111,60620,1,0,1:2:0:0:
49,111,60703,1,0,1:2:0:0:
49,111,60786,5,4,1:2:0:0:
250,186,60953,1,0,1:2:0:0:
39,297,61120,1,8,0:2:0:0:
244,363,61286,2,0,B|318:352|318:352|355:373|355:373|439:359,1,178.499994552612,4|0,1:2|1:2,0:0:0:0:
356,113,61786,1,8,0:2:0:0:
293,263,61953,1,4,3:0:0:0:
512,149,62120,6,0,L|484:280,1,133.874995914459,4|0,1:1|0:2,0:0:0:0:
481,315,62453,2,0,L|463:228,1,89.2499972763062,8|2,0:2|0:2,0:0:0:0:
488,68,62786,1,2,1:2:0:0:
397,185,62953,1,0,1:2:0:0:
347,31,63120,2,0,P|307:14|264:24,1,89.2499972763062,8|2,0:2|0:2,0:0:0:0:
193,149,63453,6,0,L|280:131,1,89.2499972763062,2|0,1:2|0:2,0:0:0:0:
397,185,63786,1,10,0:2:0:0:
202,255,63953,2,0,L|289:273,1,89.2499972763062,2|0,0:2|1:2,0:0:0:0:
397,185,64286,1,0,1:2:0:0:
199,65,64453,2,0,P|182:105|192:148,1,89.2499972763062,10|0,0:2|0:2,0:0:0:0:
291,358,64786,6,0,B|240:349|240:349|212:366|212:366|150:355,1,133.874995914459,6|0,1:2|0:2,0:0:0:0:
87,339,65120,1,10,0:2:0:0:
289,273,65286,1,2,1:2:0:0:
289,273,65370,1,0,1:2:0:0:
289,273,65453,1,8,0:2:0:0:
55,175,65620,1,2,1:2:0:0:
55,175,65953,6,0,P|50:89|116:33,1,178.499994552612,4|0,1:1|1:2,0:0:0:0:
143,169,66453,2,0,L|125:256,1,89.2499972763062,8|0,0:2|0:2,0:0:0:0:
208,106,66786,1,0,1:2:0:0:
55,175,66953,1,0,1:2:0:0:
257,307,67120,2,0,L|239:220,1,89.2499972763062,10|2,0:2|0:2,0:0:0:0:
193,9,67453,6,0,L|324:36,1,133.874995914459,6|0,1:2|0:2,0:0:0:0:
401,56,67786,2,0,P|411:98|394:139,1,89.2499972763062,8|2,0:2|0:2,0:0:0:0:
235,216,68120,1,2,1:2:0:0:
408,259,68286,1,0,1:2:0:0:
306,114,68453,2,0,L|324:201,1,89.2499972763062,12|0,0:2|0:2,0:0:0:0:
167,327,68786,6,0,B|213:297|262:312|262:312|284:350|327:356,1,178.499994552612,6|10,1:2|0:2,0:0:0:0:
151,189,69286,2,0,P|110:171|67:181,1,89.2499972763062,2|0,0:2|1:2,0:0:0:0:
4,369,69620,2,0,L|22:282,1,89.2499972763062,2|8,1:2|0:2,0:0:0:0:
69,93,69953,1,2,0:2:0:0:
167,327,70120,5,4,1:1:0:0:
228,139,70286,1,0,1:2:0:0:
255,366,70453,5,8,0:2:0:0:
151,189,70620,1,0,1:2:0:0:
339,324,70786,5,8,0:2:0:0:
301,92,70953,1,0,1:2:0:0:
167,327,71120,5,8,0:2:0:0:
366,148,71286,6,0,P|452:143|508:209,1,178.499994552612,4|0,1:2|1:2,0:0:0:0:
394,384,71786,5,8,0:2:0:0:
289,204,71953,1,0,1:2:0:0:
512,292,72120,2,0,L|425:310,1,89.2499972763062,8|0,0:2|1:2,0:0:0:0:
289,204,72453,1,10,0:2:0:0:
219,373,72620,1,10,0:2:0:0:
219,373,72703,1,10,0:2:0:0:
219,373,72786,6,0,B|163:354|129:300|129:300|73:338|1:339,1,237.999992736817,6|2,1:2|0:2,0:0:0:0:
166,104,74120,6,0,L|140:229,1,118.999996368408,6|2,1:2|0:2,0:0:0:0:
46,241,74620,2,0,L|70:124,1,118.999996368408,2|2,0:2|1:2,0:0:0:0:
166,104,75120,1,4,3:0:0:0:
348,248,75453,5,4,1:1:0:0:
256,192,75536,12,0,76786,0:2:0:0:
310,157,76953,5,0,1:2:0:0:
407,73,77120,1,0,1:2:0:0:
430,204,77286,1,0,1:2:0:0:
318,67,77453,1,0,1:2:0:0:
348,238,77620,1,2,1:2:0:0:
476,126,77786,1,8,3:0:0:0:
416,289,77953,1,4,3:0:0:0:
239,100,78120,6,0,P|177:91|129:130,1,127.5,4|0,1:1|0:2,0:0:0:0:
128,209,78453,2,0,L|146:296,1,85,8|0,0:2|0:2,0:0:0:0:
51,165,78786,1,2,1:2:0:0:
218,189,78953,1,0,1:2:0:0:
44,327,79120,2,0,P|34:286|50:247,1,85,8|0,0:2|0:2,0:0:0:0:
166,367,79453,6,0,L|305:338,1,127.5,2|0,1:2|0:2,0:0:0:0:
369,317,79786,2,0,P|378:276|362:237,1,85,8|0,0:2|0:2,0:0:0:0:
306,110,80120,1,2,1:2:0:0:
456,209,80286,1,0,1:2:0:0:
415,48,80453,2,0,L|397:131,1,85,8|0,0:2|0:2,0:0:0:0:
119,96,80786,6,0,P|166:56|228:65,1,127.5,6|0,1:2|0:2,0:0:0:0:
306,110,81120,1,10,0:2:0:0:
152,262,81286,2,0,L|136:191,1,42.5,2|0,1:2|0:0,0:0:0:0:
351,356,81620,2,0,L|365:283,1,42.5,2|0,1:2|0:0,0:0:0:0:
34,345,81953,6,0,B|97:334|97:334|132:354|132:354|211:341,1,170,4|0,1:1|1:2,0:0:0:0:
158,182,82453,2,0,P|141:220|151:261,1,85,8|0,0:2|0:2,0:0:0:0:
351,356,82786,1,2,1:2:0:0:
236,269,82953,1,2,1:2:0:0:
385,189,83120,2,0,L|367:272,1,85,10|2,0:2|0:2,0:0:0:0:
240,141,83453,6,0,P|287:101|349:110,1,127.5,6|0,1:2|0:2,0:0:0:0:
385,189,83786,2,0,L|367:272,1,85,8|0,0:2|0:2,0:0:0:0:
348,109,84120,1,2,1:2:0:0:
469,226,84286,1,2,1:2:0:0:
499,58,84453,2,0,P|461:41|420:51,1,85,8|2,0:2|0:2,0:0:0:0:
291,205,84786,5,2,1:2:0:0:
452,126,84953,1,0,1:2:0:0:
329,25,85120,2,0,L|347:108,1,85,8|0,0:2|0:2,0:0:0:0:
274,358,85453,1,2,1:2:0:0:
385,189,85620,1,0,1:2:0:0:
222,276,85786,2,0,L|139:258,1,85,8|0,0:2|0:2,0:0:0:0:
0,72,86120,6,0,L|83:54,1,85,6|0,1:2|0:2,0:0:0:0:
291,205,86453,1,8,0:2:0:0:
166,11,86620,1,0,1:2:0:0:
166,11,86703,1,8,0:2:0:0:
166,11,86786,1,8,0:2:0:0:
40,235,86953,1,0,1:2:0:0:
245,71,87120,1,4,3:0:0:0:
129,319,87286,6,0,B|126:262|151:228|188:235|219:224|245:183|228:133|177:100|123:141|116:174,1,299.2,6|2,1:2|0:2,0:0:0:0:
