osu file format v14

[General]
AudioFilename: audio.mp3
AudioLeadIn: 0
PreviewTime: 48125
Countdown: 0
SampleSet: Soft
StackLeniency: 0.7
Mode: 0
LetterboxInBreaks: 0
WidescreenStoryboard: 1

[Editor]
Bookmarks: 47833,80666
DistanceSpacing: 1
BeatDivisor: 4
GridSize: 4
TimelineZoom: 1

[Metadata]
Title:Haru Urara, Kimi to Sakihokoru
TitleUnicode:春ウララ、君ト咲キ誇ル
Artist:Konohana-tei Nakai no Kai
ArtistUnicode:此花亭仲居の会
Creator:Rizia
Version:Normal
Source:このはな綺譚
Tags:Konohana Kitan anime tv size ending 柚 Yuzu 大野柚布子 Ono Yuko 皐 Satsuki 秦佐和子 Hata Sawako 棗 Natsume 諏訪彩花 Suwa Ayaka 蓮 Hasu 久保田梨沙 Kubota Risa 櫻 Sakura 加隈亞衣 Kakuma Ai 桐 Kiri 沼倉愛美 Numakura Manami kawaiwkyik
BeatmapID:1437744
BeatmapSetID:677314

[Difficulty]
HPDrainRate:3
CircleSize:3.5
OverallDifficulty:4
ApproachRate:4.5
SliderMultiplier:1.1
SliderTickRate:1

[Events]
//Background and Video events
Video,-484,"optc (3).flv"
0,0,"bg.jpg",0,0
//Break Periods
//Storyboard Layer 0 (Background)
//Storyboard Layer 1 (Fail)
//Storyboard Layer 2 (Pass)
//Storyboard Layer 3 (Foreground)
//Storyboard Sound Samples

[TimingPoints]
167,333.333333333333,4,2,1,40,1,0
10833,-100,4,2,1,40,0,0
16166,-100,4,2,1,40,0,0
24166,-100,4,2,1,50,0,0
37500,-100,4,2,1,40,0,0
42833,-100,4,2,1,50,0,0
46000,-100,4,2,1,55,0,0
46500,-100,4,2,1,60,0,0
47000,-100,4,2,1,65,0,0
47500,-100,4,2,1,70,0,0
49166,-100,4,2,1,40,0,0
50833,-100,4,2,1,60,0,1
72166,-100,4,2,1,40,0,0
73500,-100,4,2,1,40,0,0
76333,-100,4,2,1,40,0,0
76500,-100,4,2,1,50,0,0
76666,-100,4,2,1,55,0,0
76833,-100,4,2,1,60,0,0
77000,-100,4,2,1,65,0,0
77166,-100,4,2,1,70,0,0
77333,-100,4,2,1,75,0,0
77500,-100,4,2,1,60,0,1
88833,-100,4,2,1,5,0,0

[Colours]
Combo1 : 136,85,82
Combo2 : 247,231,198
Combo3 : 130,107,163
Combo4 : 101,78,84
Combo5 : 251,221,223

[HitObjects]
88,120,167,6,0,P|128:116|196:156,1,110,2|0,0:0|0:0,0:0:0:0:
216,196,666,2,0,P|212:248|236:324,1,110,2|2,0:0|0:0,0:0:0:0:
320,360,1333,2,0,P|372:364|448:340,1,110,2|2,0:0|0:0,0:0:0:0:
508,276,2000,2,0,P|514:249|512:221,1,55,0|2,0:0|0:0,0:0:0:0:
332,100,2833,6,0,P|296:52|240:24,1,110,2|0,0:0|0:0,0:0:0:0:
200,20,3333,2,0,P|147:34|105:69,1,110,2|2,0:0|0:0,0:0:0:0:
36,156,4000,2,0,P|52:200|56:284,1,110,2|2,0:0|0:0,0:0:0:0:
144,328,4666,2,0,P|141:355|132:381,1,55,0|2,0:0|0:0,0:0:0:0:
256,192,5500,12,0,7500,0:0:0:0:
168,88,8166,6,0,L|100:80,2,55,8|0|8,0:0|0:0|0:0,0:0:0:0:
216,112,8666,2,0,B|272:120|272:120|324:96,1,110,8|8,0:0|0:0,0:0:0:0:
400,24,9333,2,0,B|468:72|468:72|444:176,1,165,4|8,0:0|0:0,0:0:0:0:
352,200,10166,2,0,B|326:311|326:311,1,110,8|8,0:0|0:0,0:0:0:0:
236,368,10833,6,0,P|188:352|112:356,1,110,4|2,0:0|0:0,0:0:0:0:
24,316,11500,2,0,P|23:261|39:209,1,110,0|0,0:0|0:0,0:0:0:0:
80,108,12166,2,0,P|120:128|232:76,2,165,2|2|2,0:0|0:0|0:0,0:0:0:0:
39,209,13500,6,0,P|38:263|54:315,1,110,0|2,0:0|0:0,0:0:0:0:
152,368,14166,1,0,0:0:0:0:
152,368,14333,2,0,P|192:340|272:348,1,110,2|8,0:0|0:0,0:0:0:0:
304,360,14833,1,2,0:0:0:0:
396,296,15166,2,0,L|414:244,1,55,0|2,0:0|0:0,0:0:0:0:
380,140,15666,1,0,0:0:0:0:
380,140,15833,1,8,0:0:0:0:
288,196,16166,6,0,P|236:200|176:176,1,110,4|0,0:0|1:0,0:0:0:0:
120,88,16833,2,0,P|84:129|69:181,1,110,0|0,1:0|1:0,0:0:0:0:
56,292,17500,1,0,1:0:0:0:
160,256,17833,2,0,P|200:240|272:248,2,110,0|0|0,1:0|1:0|1:0,0:0:0:0:
168,364,18833,6,0,P|222:371|273:353,1,110,0|0,1:0|1:0,0:0:0:0:
368,296,19500,2,0,P|408:300|476:344,1,110,0|0,1:0|1:0,0:0:0:0:
508,232,20166,2,0,L|496:116,1,110,2|2,1:2|1:2,0:0:0:0:
392,84,20833,2,0,L|403:193,1,110,2|8,1:2|0:0,0:0:0:0:
368,296,21500,6,0,P|324:288|240:280,1,110,4|0,0:0|1:0,0:0:0:0:
152,304,22166,2,0,P|160:260|168:176,1,110,0|0,1:0|1:0,0:0:0:0:
144,88,22833,2,0,P|188:96|272:104,2,110,0|0|0,1:0|1:0|1:0,0:0:0:0:
52,148,23833,1,8,1:2:0:0:
40,256,24166,5,4,0:0:0:0:
120,332,24500,2,0,P|160:312|240:324,1,110,8|0,0:0|1:0,0:0:0:0:
268,352,25000,1,0,1:0:0:0:
268,352,25166,2,0,L|400:344,1,110,8|4,0:0|0:0,0:0:0:0:
460,272,25833,1,8,0:0:0:0:
460,272,26000,2,0,B|480:220|480:220|432:192|424:116,1,165,4|8,0:0|0:0,0:0:0:0:
352,48,26833,6,0,P|316:32|240:32,1,110,4|8,0:0|0:0,0:0:0:0:
140,52,27500,1,0,1:0:0:0:
192,148,27833,1,8,0:0:0:0:
84,140,28166,2,0,P|68:176|68:252,1,110,0|8,1:0|0:0,0:0:0:0:
92,352,28833,2,0,P|143:332|197:334,1,110,0|8,1:0|0:0,0:0:0:0:
304,300,29500,6,0,P|344:320|424:312,1,110,0|8,1:0|0:0,0:0:0:0:
464,324,30000,2,0,L|484:200,1,110,0|0,0:0|1:0,0:0:0:0:
488,160,30500,1,8,0:0:0:0:
488,160,30666,2,0,B|420:168|376:128|376:128|320:148,1,165,0|8,0:0|0:0,0:0:0:0:
256,64,31500,1,0,1:0:0:0:
156,112,31833,2,0,L|96:100,1,55,8|0,0:0|0:0,0:0:0:0:
48,88,32166,6,0,L|68:212,1,110,4|8,0:0|0:0,0:0:0:0:
32,240,32666,1,0,0:0:0:0:
32,240,32833,2,0,P|64:276|148:284,1,110,0|8,1:0|0:0,0:0:0:0:
228,264,33500,5,0,1:0:0:0:
336,248,33833,1,8,0:0:0:0:
400,336,34166,1,0,1:0:0:0:
496,280,34500,1,8,0:0:0:0:
472,172,34833,6,0,L|484:112,2,55,4|0|8,0:0|1:0|0:0,0:0:0:0:
368,212,35500,2,0,P|332:212|308:200,2,55,4|0|8,0:0|1:0|0:0,0:0:0:0:
388,264,36000,2,0,P|356:280|260:276,1,110,4|0,0:0|1:0,0:0:0:0:
232,264,36500,1,12,0:0:0:0:
124,280,36833,2,0,L|120:344,1,55,8|8,0:0|0:3,0:0:0:0:
80,372,37166,2,0,L|16:368,1,55,8|8,0:0|0:3,0:0:0:0:
8,316,37500,5,4,0:0:0:0:
40,212,37833,2,0,P|60:172|64:96,2,110,2|8|2,0:0|0:0|0:0,0:0:0:0:
124,279,38833,2,0,P|101:329|98:384,1,110,0|2,0:0|0:0,0:0:0:0:
204,352,39500,2,0,P|253:329|308:326,1,110,8|2,0:0|0:0,0:0:0:0:
416,344,40166,6,0,P|464:320|452:156,1,220,0|8,1:0|0:0,0:0:0:0:
416,76,41166,1,2,0:0:0:0:
312,108,41500,2,0,P|288:128|204:124,1,110,0|2,1:0|0:0,0:0:0:0:
108,92,42166,2,0,L|116:28,2,55,8|0|12,0:0|0:0|0:0,0:0:0:0:
32,172,42833,6,0,P|40:216|44:296,1,110,4|8,0:0|0:0,0:0:0:0:
40,336,43333,2,0,P|88:328|156:348,1,110,0|0,0:0|1:0,0:0:0:0:
192,372,43833,1,8,0:0:0:0:
192,372,44000,2,0,B|280:384|264:332|376:340,1,165,0|8,0:0|0:0,0:0:0:0:
404,348,44666,2,0,P|420:312|416:232,1,110,0|0,0:0|1:0,0:0:0:0:
384,200,45166,1,8,0:0:0:0:
416,96,45500,6,0,B|344:52|344:52|260:72,1,165,4|4,0:0|0:0,0:0:0:0:
192,152,46333,1,0,0:0:0:0:
192,152,46500,2,0,P|144:156|80:128,1,110,4|0,0:0|0:0,0:0:0:0:
40,104,47000,6,0,L|64:284,1,165,4|8,0:0|0:0,0:0:0:0:
92,312,47666,2,0,L|156:332,1,55,0|8,0:0|0:0,0:0:0:0:
256,192,48166,12,4,49333,0:0:0:0:
168,68,50833,6,0,L|52:88,1,110,4|8,0:0|0:0,0:0:0:0:
128,172,51500,2,0,L|37:247,1,110,0|8,1:0|0:0,0:0:0:0:
80,344,52166,2,0,P|132:332|200:324,1,110,0|8,1:0|0:0,0:0:0:0:
292,292,52833,1,0,1:0:0:0:
380,356,53166,1,8,0:0:0:0:
480,304,53500,6,0,P|504:256|496:188,1,110,4|8,0:0|0:0,0:0:0:0:
472,156,54000,1,4,1:0:0:0:
364,172,54333,1,4,1:0:0:0:
304,80,54666,2,0,B|268:68|248:48|248:48|200:44|136:72,1,165,4|8,1:0|0:0,0:0:0:0:
44,48,55500,2,0,P|24:88|36:168,1,110,0|8,1:0|0:0,0:0:0:0:
136,172,56166,6,0,P|141:226|119:275,1,110,4|8,0:0|0:0,0:0:0:0:
208,344,56833,2,0,P|256:319|310:321,1,110,0|8,1:0|0:0,0:0:0:0:
420,308,57500,2,0,L|480:328,2,55,0|0|8,1:0|1:0|0:0,0:0:0:0:
348,224,58166,2,0,L|336:100,1,110,0|8,1:0|0:0,0:0:0:0:
248,48,58833,5,4,1:2:0:0:
180,136,59166,1,8,0:0:0:0:
84,80,59500,2,0,P|64:44|64:12,2,55,0|0|8,1:0|1:0|0:0,0:0:0:0:
100,188,60166,2,0,P|88:236|56:292,1,110,4|8,1:2|0:0,0:0:0:0:
32,336,60666,2,0,P|79:322|144:322,1,110,4|0,0:0|0:0,0:0:0:0:
192,340,61166,1,8,0:0:0:0:
300,368,61500,6,0,L|428:356,1,110,4|8,0:0|0:0,0:0:0:0:
492,284,62166,2,0,P|504:240|476:172,1,110,0|8,1:0|0:0,0:0:0:0:
412,96,62833,2,0,P|368:112|288:112,1,110,0|8,1:0|0:0,0:0:0:0:
200,80,63500,2,0,L|208:12,2,55,0|0|8,1:0|1:0|0:0,0:0:0:0:
92,96,64166,6,0,L|104:224,1,110,4|8,1:2|0:0,0:0:0:0:
72,252,64666,2,0,P|112:260|164:316,1,110,8|4,0:0|1:2,0:0:0:0:
252,368,65333,2,0,P|300:372|360:272,1,165,4|8,1:2|0:0,0:0:0:0:
320,184,66166,2,0,L|308:112,2,55,0|0|8,1:0|1:0|0:0,0:0:0:0:
428,208,66833,5,4,1:2:0:0:
496,120,67166,1,8,0:0:0:0:
420,40,67500,2,0,L|360:60,1,55,0|0,1:0|1:0,0:0:0:0:
340,104,67833,2,0,L|208:92,1,110,4|4,0:0|1:2,0:0:0:0:
124,60,68500,1,8,0:0:0:0:
124,60,68666,2,0,P|92:96|88:168,1,110,0|0,0:0|1:0,0:0:0:0:
112,204,69166,1,8,0:0:0:0:
96,312,69500,6,0,P|136:312|208:360,1,110,12|8,0:0|0:0,0:0:0:0:
256,252,70166,2,0,L|256:132,1,110,8|8,0:0|0:0,0:0:0:0:
284,96,70666,2,0,P|320:124|428:72,1,165,4|8,0:0|0:0,0:0:0:0:
512,152,71500,1,8,0:0:0:0:
456,248,71833,1,8,0:0:0:0:
484,356,72166,5,4,0:0:0:0:
256,192,73500,12,0,76166,0:0:0:0:
196,84,77500,6,0,L|72:72,1,110,4|8,0:0|0:0,0:0:0:0:
80,184,78166,2,0,L|12:177,2,55,0|0|8,1:0|1:0|0:0,0:0:0:0:
164,256,78833,6,0,P|184:308|176:380,1,110,0|8,1:0|0:0,0:0:0:0:
288,336,79500,2,0,P|316:328|348:328,2,55,0|0|8,1:0|1:0|0:0,0:0:0:0:
268,228,80166,2,0,P|266:173|285:122,1,110,4|8,1:2|0:0,0:0:0:0:
324,84,80666,1,8,0:0:0:0:
424,132,81000,1,8,0:0:0:0:
468,232,81333,2,0,B|488:308|488:308|436:300|388:348,1,165,4|8,1:2|0:0,0:0:0:0:
300,304,82166,2,0,L|292:248,2,55,0|0|8,1:0|1:0|0:0,0:0:0:0:
208,368,82833,6,0,L|88:360,1,110,4|8,0:0|0:0,0:0:0:0:
40,268,83500,2,0,P|28:232|40:200,1,55,0|0,1:0|1:0,0:0:0:0:
52,164,83833,2,0,P|77:135|110:130,1,55,8|0,0:0|0:0,0:0:0:0:
148,140,84166,2,0,P|176:148|272:112,1,110,4|8,1:2|0:0,0:0:0:0:
332,56,84833,2,0,L|392:44,2,55,0|0|8,1:0|1:0|0:0,0:0:0:0:
352,164,85500,6,0,L|340:280,1,110,4|8,1:2|0:0,0:0:0:0:
316,324,86000,1,8,0:0:0:0:
316,324,86166,2,0,L|240:336,1,55,8|8,0:0|0:3,0:0:0:0:
212,308,86500,2,0,L|184:364,1,55,8|4,0:3|0:0,0:0:0:0:
256,192,86833,12,0,88833,0:0:0:0:
