osu file format v14

[General]
AudioFilename: audio.mp3
AudioLeadIn: 0
PreviewTime: 60602
Countdown: 0
SampleSet: Soft
StackLeniency: 0.5
Mode: 0
LetterboxInBreaks: 0
WidescreenStoryboard: 1

[Editor]
DistanceSpacing: 1
BeatDivisor: 4
GridSize: 16
TimelineZoom: 2.1

[Metadata]
Title:Silent Blaze
TitleUnicode:Silent Blaze
Artist:Konoe Kanata (CV: Kito Akari)
ArtistUnicode:近江彼方 (CV: 鬼頭明里)
Creator:Liyuu
Version:Beyond
Source:ラブライブ!虹ヶ咲学園スクールアイドル同好会
Tags:Shikibe Mayu Shizuku- Kazato Asa Onegai Uehara Ayumu Elanie Aquivery -rielle- LoveLive! Love Live! Nijigasaki High School Idol Club Gakuen Doukoukai Dokokai NijiGaku ニジガク pop jpop j-pop video game anime japanese スクールアイドルフェスティバル ALL STARS festival オールスターズ スクスタ j-rock jrock rock L!L!L!Love the Life We Live 鈴木エレカ Ereca Suzuki 田中マッシュ Tanaka Mush
BeatmapID:3349833
BeatmapSetID:1641274

[Difficulty]
HPDrainRate:6
CircleSize:4
OverallDifficulty:8.7
ApproachRate:9.2
SliderMultiplier:1.92
SliderTickRate:1

[Events]
//Background and Video events
0,0,"a.jpg",0,0
//Break Periods
//Storyboard Layer 0 (Background)
//Storyboard Layer 1 (Fail)
//Storyboard Layer 2 (Pass)
//Storyboard Layer 3 (Foreground)
//Storyboard Layer 4 (Overlay)
//Storyboard Sound Samples

[TimingPoints]
359,324.324324324324,4,2,1,35,1,0
1656,-142.857142857143,4,2,1,35,0,0
6196,-400,4,2,1,35,0,0
6602,-400,4,2,1,5,0,0
6683,-62.5,4,2,1,45,0,0
6926,-62.5,4,2,1,5,0,0
7007,-76.9230769230769,4,2,1,45,0,0
7088,-76.9230769230769,4,2,1,5,0,0
7980,-62.5,4,2,1,45,0,0
8223,-62.5,4,2,1,5,0,0
8304,-76.9230769230769,4,2,1,45,0,0
8386,-76.9230769230769,4,2,1,5,0,0
9277,-62.5,4,2,1,45,0,0
9521,-62.5,4,2,1,5,0,0
9602,-76.9230769230769,4,2,1,45,0,0
9683,-76.9230769230769,4,2,1,5,0,0
10575,-62.5,4,2,1,45,0,0
10818,-62.5,4,2,1,5,0,0
10899,-76.9230769230769,4,2,1,45,0,0
10980,-76.9230769230769,4,2,1,5,0,0
11386,-76.9230769230769,4,2,1,45,0,0
11872,-100,4,2,1,45,0,0
14629,-100,4,2,1,55,0,0
17061,-66.6666666666667,4,2,1,75,0,1
17304,-66.6666666666667,4,2,1,5,0,1
17386,-66.6666666666667,4,2,1,75,0,1
17548,-76.9230769230769,4,2,1,75,0,1
22250,-66.6666666666667,4,2,1,75,0,1
22494,-66.6666666666667,4,2,1,5,0,1
22575,-66.6666666666667,4,2,1,75,0,1
22737,-76.9230769230769,4,2,1,75,0,1
27602,-142.857142857143,4,2,1,45,0,0
37169,-142.857142857143,4,2,1,45,0,0
37980,-142.857142857143,4,2,2,45,0,0
38142,-125,4,2,2,45,0,0
47548,-125,4,2,1,55,0,0
47710,-125,4,2,1,55,0,0
48358,-125,4,2,1,55,0,0
53548,-100,4,2,1,65,0,0
60115,-100,4,2,1,5,0,0
60683,-400,4,2,2,65,0,0
61088,-400,4,2,2,5,0,0
61169,-66.6666666666667,4,2,1,75,0,1
61413,-66.6666666666667,4,2,1,5,0,1
61494,-66.6666666666667,4,2,1,75,0,1
61656,-76.9230769230769,4,2,1,75,0,1
66358,-66.6666666666667,4,2,1,75,0,1
66602,-66.6666666666667,4,2,1,5,0,1
66683,-66.6666666666667,4,2,1,75,0,1
66845,-76.9230769230769,4,2,1,75,0,1
75440,-71.4285714285714,4,2,1,75,0,1
76737,-76.9230769230769,4,2,1,75,0,1
77710,-76.9230769230769,4,2,1,75,0,1
80791,-76.9230769230769,4,2,1,75,0,1
81926,-66.6666666666667,4,2,1,75,0,1
82169,-66.6666666666667,4,2,1,5,0,1
82250,-66.6666666666667,4,2,1,75,0,1
82413,-76.9230769230769,4,2,1,75,0,1
87115,-66.6666666666667,4,2,1,75,0,1
87358,-66.6666666666667,4,2,1,5,0,1
87440,-66.6666666666667,4,2,1,75,0,1
87602,-76.9230769230769,4,2,1,75,0,1
92467,-210.526315789474,4,2,1,75,0,0
92791,-210.526315789474,4,2,1,65,0,0
93115,-210.526315789474,4,2,1,60,0,0
93440,-210.526315789474,4,2,1,55,0,0
93764,-210.526315789474,4,2,1,50,0,0
94088,-210.526315789474,4,2,1,45,0,0
94413,-210.526315789474,4,2,1,40,0,0
94737,-210.526315789474,4,2,1,35,0,0
95061,-210.526315789474,4,2,1,30,0,0
95386,-210.526315789474,4,2,1,25,0,0
95710,-210.526315789474,4,2,1,20,0,0
96034,-210.526315789474,4,2,1,15,0,0
96358,-210.526315789474,4,2,1,10,0,0
96683,-212.765957446809,4,2,1,5,0,0

[Colours]
Combo1 : 168,254,90
Combo2 : 255,159,64
Combo3 : 180,78,143

[HitObjects]
83,341,1656,6,0,P|88:307|96:275,1,67.1999979492188,2|2,2:0|2:0,0:0:0:0:
47,204,1980,1,2,2:0:0:0:
47,204,2142,2,0,P|111:191|167:226,1,134.399995898438,2|2,2:0|2:0,0:0:0:0:
256,192,2629,1,2,2:0:0:0:
427,341,2953,6,0,P|422:308|416:275,1,67.1999979492188,2|2,2:0|2:0,0:0:0:0:
465,204,3277,1,2,2:0:0:0:
465,204,3440,2,0,P|401:191|345:226,1,134.399995898438,2|2,2:0|2:0,0:0:0:0:
256,192,3926,1,2,2:0:0:0:
87,1,4250,6,0,P|92:34|98:67,1,67.1999979492188,2|2,2:0|2:0,0:0:0:0:
43,164,4575,1,2,2:0:0:0:
43,164,4737,2,0,P|105:152|174:140,1,134.399995898438,2|2,2:0|2:0,0:0:0:0:
256,192,5223,2,0,P|261:158|267:125,1,67.1999979492188,2|0,2:0|0:0,0:0:0:0:
287,37,5548,5,2,2:0:0:0:
483,317,6196,6,0,L|472:257,1,60,2|0,2:0|0:0,0:0:0:0:
498,181,6683,6,0,B|434:157|386:213|410:221|370:277|298:261,1,230.4,14|0,2:0|0:0,0:0:0:0:
256,192,7007,2,0,P|284:179|315:181,1,62.3999971435548,8|0,2:0|0:0,0:0:0:0:
28,32,7980,6,0,B|92:8|140:64|116:72|156:128|228:112,1,230.4,14|0,2:0|0:0,0:0:0:0:
270,43,8304,2,0,P|241:30|210:32,1,62.3999971435548,8|0,2:0|0:0,0:0:0:0:
16,349,9277,6,0,B|108:332|108:332|144:350|144:350|239:334,1,230.4,14|0,2:2|0:0,0:0:0:0:
315,302,9602,2,0,B|346:306|346:306|320:323,1,62.3999971435548,10|0,2:0|0:0,0:0:0:0:
505,97,10575,6,0,B|412:80|412:80|376:98|376:98|281:82,1,230.4,14|0,2:0|0:0,0:0:0:0:
205,50,10899,2,0,B|174:54|174:54|201:71,1,62.3999971435548,10|0,2:0|0:0,0:0:0:0:
280,309,11386,5,10,2:0:0:0:
359,274,11548,1,10,2:3:0:0:
289,224,11710,1,4,2:3:0:0:
440,250,11872,6,0,P|374:189|290:224,1,192,6|0,1:2|0:0,0:0:0:0:
195,327,12358,2,0,P|148:332|106:310,1,96,8|0,2:0|0:0,0:0:0:0:
37,384,12683,2,0,P|8:346|6:298,1,96,2|0,2:0|1:1,0:0:0:0:
163,247,13007,1,8,2:0:0:0:
73,215,13169,1,0,0:0:0:0:
221,67,13331,6,0,P|223:114|238:160,1,96,2|0,1:2|0:0,0:0:0:0:
37,107,13656,2,0,P|76:80|109:45,1,96,10|0,2:0|0:0,0:0:0:0:
163,247,13980,2,0,P|120:225|73:215,1,96,2|0,2:0|1:1,0:0:0:0:
302,106,14304,5,10,2:0:0:0:
386,305,14467,1,2,1:2:0:0:
512,40,14629,5,8,2:0:0:0:
432,230,14791,1,2,1:2:0:0:
372,45,14953,2,0,P|381:92|388:139,1,96,10|0,2:0|1:1,0:0:0:0:
512,303,15277,1,8,2:0:0:0:
331,205,15440,1,0,1:1:0:0:
331,205,15521,1,0,1:1:0:0:
331,205,15602,1,2,1:2:0:0:
253,361,15764,1,2,1:2:0:0:
188,119,15926,5,8,2:0:0:0:
358,317,16088,1,2,1:2:0:0:
128,384,16413,5,10,2:0:0:0:
298,35,16737,5,10,2:0:0:0:
4,121,17061,6,0,B|68:97|116:153|112:161|108:169|145:228|220:209,1,216.000008239746,6|0,1:2|0:0,0:0:0:0:
215,210,17386,1,2,2:0:0:0:
0,320,17548,2,0,P|23:262|31:200,1,124.79999428711,8|2,2:0|2:0,0:0:0:0:
196,126,17872,1,2,1:1:0:0:
1,33,18034,2,0,P|62:24|120:2,1,124.79999428711,2|8,3:1|2:0,0:0:0:0:
332,281,18358,6,0,P|306:159|297:34,1,249.599988574219,2|2,1:1|1:1,0:0:0:0:
202,271,18845,1,8,2:0:0:0:
344,154,19007,1,2,2:0:0:0:
402,338,19169,1,0,1:1:0:0:
217,105,19331,2,0,P|159:128|97:136,1,124.79999428711,2|8,3:1|2:0,0:0:0:0:
6,362,19656,6,0,P|84:275|186:330,1,249.599988574219,2|2,2:0|2:0,0:0:0:0:
322,384,20142,2,0,P|329:322|352:264,1,124.79999428711,10|2,2:0|2:0,0:0:0:0:
99,368,20467,1,2,1:1:0:0:
197,124,20629,2,0,P|219:182|227:243,1,124.79999428711,2|8,3:1|2:0,0:0:0:0:
512,90,20953,6,0,B|411:71|411:71|372:91|372:91|270:73,1,249.599988574219,2|0,1:1|1:1,0:0:0:0:
114,45,21440,1,10,2:0:0:0:
351,7,21602,1,2,2:0:0:0:
250,217,21764,1,2,1:1:0:0:
189,0,21926,1,2,3:1:0:0:
330,183,22088,1,10,2:0:0:0:
512,44,22250,6,0,B|542:-37|393:-66|401:101|499:123,1,216.000008239746,6|0,3:2|0:0,0:0:0:0:
469,121,22575,1,2,2:0:0:0:
512,271,22737,2,0,P|454:248|392:240,1,124.79999428711,10|2,2:0|2:0,0:0:0:0:
226,365,23061,1,2,1:1:0:0:
294,255,23223,2,0,P|317:313|325:375,1,124.79999428711,2|8,3:1|2:0,0:0:0:0:
0,179,23548,6,0,B|64:155|112:211|108:219|104:227|136:291|216:267,1,249.599988574219,2|2,1:1|1:1,0:0:0:0:
23,270,24034,1,10,2:0:0:0:
193,173,24196,1,2,2:0:0:0:
119,357,24358,1,2,1:1:0:0:
65,98,24521,2,0,P|126:89|187:77,1,124.79999428711,2|8,3:1|2:0,0:0:0:0:
380,16,24845,6,0,P|357:75|348:136,1,124.79999428711,2|2,2:0|1:1,0:0:0:0:
397,320,25169,1,2,2:0:0:0:
480,258,25331,2,0,P|422:235|360:226,1,124.79999428711,8|2,2:0|2:0,0:0:0:0:
295,0,25656,2,0,P|272:59|263:120,1,124.79999428711,2|2,1:1|3:1,0:0:0:0:
95,342,25980,5,8,2:0:0:0:
219,261,26142,2,0,P|207:323|199:384,1,124.79999428711,2|0,1:1|0:0,0:0:0:0:
13,242,26467,5,0,1:1:0:0:
13,242,26548,1,0,3:1:0:0:
13,242,26629,2,0,P|8:211|2:180,1,62.3999971435548,8|0,2:0|1:1,0:0:0:0:
95,43,26791,5,0,3:1:0:0:
135,14,26872,1,0,1:1:0:0:
184,14,26953,1,8,2:0:0:0:
229,34,27034,1,0,3:1:0:0:
252,78,27115,5,0,1:1:0:0:
258,96,27196,1,0,3:1:0:0:
255,114,27277,2,0,P|240:140|215:159,1,62.3999971435548,8|0,2:0|1:1,0:0:0:0:
91,204,27440,2,0,P|121:203|149:214,1,62.3999971435548,0|0,3:1|1:1,0:0:0:0:
307,345,27602,5,4,1:2:0:0:
307,345,27764,2,0,P|362:310|426:323,1,134.399995898438,2|2,2:0|2:0,0:0:0:0:
434,238,28250,2,0,P|491:268|512:331,1,134.399995898438,2|2,2:0|2:0,0:0:0:0:
485,151,28737,1,2,2:0:0:0:
485,151,28818,1,2,2:0:0:0:
485,151,28899,6,0,P|418:140|352:127,1,134.399995898438,2|2,2:0|2:0,0:0:0:0:
431,64,29386,1,2,2:0:0:0:
275,161,29548,2,0,P|269:128|263:95,2,67.1999979492188,2|2|2,2:0|2:0|2:0,0:0:0:0:
188,0,30034,1,2,2:0:0:0:
188,0,30115,1,2,2:0:0:0:
188,0,30196,5,2,2:0:0:0:
98,115,30358,1,2,2:0:0:0:
195,176,30521,2,0,P|190:142|183:109,1,67.1999979492188,2|2,2:0|2:0,0:0:0:0:
58,233,30845,2,0,P|124:243|190:256,1,134.399995898438,2|2,2:0|2:0,0:0:0:0:
291,384,31331,1,2,2:0:0:0:
363,339,31494,6,0,P|308:304|244:317,1,134.399995898438,2|2,2:0|2:0,0:0:0:0:
287,155,31980,2,0,P|279:188|275:222,1,67.1999979492188,2|2,2:0|2:0,0:0:0:0:
422,163,32304,1,2,2:0:0:0:
347,259,32467,1,2,2:0:0:0:
446,332,32629,1,2,2:0:0:0:
446,332,32710,1,2,2:0:0:0:
446,332,32791,5,2,2:0:0:0:
395,166,32953,1,2,2:0:0:0:
395,166,33115,2,0,P|401:132|406:99,1,67.1999979492188,2|2,2:0|2:0,0:0:0:0:
476,53,33440,2,0,P|420:17|356:31,1,134.399995898438,2|2,2:0|2:0,0:0:0:0:
200,85,33926,1,2,2:0:0:0:
268,0,34088,6,0,P|280:65|290:132,1,134.399995898438,2|2,2:0|2:0,0:0:0:0:
172,194,34575,2,0,P|204:200|238:205,1,67.1999979492188,2|2,2:0|2:0,0:0:0:0:
352,270,34899,2,0,P|319:276|286:281,1,67.1999979492188,2|0,2:0|0:0,0:0:0:0:
155,345,35223,1,2,2:0:0:0:
155,345,35304,1,2,2:0:0:0:
155,345,35386,6,0,P|165:313|165:279,1,67.1999979492188,2|0,2:0|0:0,0:0:0:0:
32,255,35710,2,0,P|54:279|83:297,1,67.1999979492188,2|0,2:0|0:0,0:0:0:0:
172,194,36034,2,0,P|139:201|109:217,1,67.1999979492188,2|0,2:0|0:0,0:0:0:0:
337,239,36358,1,2,2:0:0:0:
267,158,36521,2,0,P|253:223|243:290,1,134.399995898438,2|0,2:0|0:0,0:0:0:0:
301,371,37007,1,0,0:0:0:0:
418,234,37169,5,10,2:0:0:0:
418,234,37250,1,8,2:0:0:0:
418,234,37331,1,10,2:0:0:0:
375,321,37494,1,10,0:3:0:0:
364,154,37656,1,6,0:3:0:0:
512,242,37818,1,4,0:3:0:0:
476,41,37980,1,4,1:2:0:0:
512,131,38142,6,0,P|474:125|437:118,1,76.8,2|2,2:0|1:2,0:0:0:0:
287,0,38467,1,2,2:0:0:0:
365,41,38629,2,0,P|402:33|440:28,1,76.8,2|0,1:2|0:0,0:0:0:0:
286,107,38953,1,2,1:2:0:0:
286,107,39115,1,10,2:0:0:0:
192,1,39277,6,0,P|186:38|179:76,1,76.8,2|0,1:2|0:0,0:0:0:0:
136,241,39602,1,2,1:2:0:0:
80,168,39764,2,0,P|117:162|155:155,1,76.8,2|0,2:0|1:1,0:0:0:0:
288,208,40088,1,0,1:1:0:0:
288,208,40169,1,10,2:0:0:0:
288,208,40250,1,0,3:1:0:0:
141,272,40413,1,10,2:0:0:0:
249,380,40575,6,0,P|254:342|261:304,1,76.8,2|0,1:2|0:0,0:0:0:0:
366,159,40899,2,0,P|371:196|378:234,1,76.8,2|0,1:2|0:0,0:0:0:0:
419,327,41223,2,0,P|381:319|343:314,1,76.8,8|0,1:2|0:0,0:0:0:0:
213,222,41548,2,0,P|250:216|288:209,1,76.8,2|0,1:2|0:0,0:0:0:0:
489,101,41872,6,0,P|472:176|461:252,1,153.6,2|0,1:2|1:1,0:0:0:0:
319,42,42521,1,2,1:2:0:0:
390,147,42683,1,10,2:0:0:0:
390,147,42764,1,0,1:1:0:0:
390,147,42845,1,0,3:1:0:0:
302,284,43007,1,10,2:0:0:0:
302,284,43088,1,0,3:1:0:0:
302,284,43169,6,0,P|297:245|287:208,1,76.8,0|0,3:1|0:0,0:0:0:0:
195,265,43494,1,2,1:2:0:0:
112,156,43656,2,0,P|151:161|188:171,1,76.8,2|0,2:0|1:1,0:0:0:0:
312,72,43980,2,0,P|274:81|236:86,1,76.8,2|0,2:0|1:1,0:0:0:0:
45,33,44304,6,0,B|61:113|13:97|29:185,1,153.6,10|0,2:0|0:0,0:0:0:0:
112,156,44791,1,2,1:2:0:0:
60,263,44953,2,0,P|97:253|135:248,1,76.8,2|8,2:0|1:2,0:0:0:0:
194,332,45277,1,2,2:0:0:0:
194,332,45358,1,8,1:2:0:0:
194,332,45440,1,0,3:2:0:0:
249,204,45602,1,10,2:0:0:0:
289,384,45764,6,0,P|278:308|262:233,1,153.6,2|0,1:2|1:1,0:0:0:0:
478,87,46413,2,0,P|461:162|450:238,1,153.6,10|0,1:2|1:1,0:0:0:0:
376,64,46899,1,2,2:0:0:0:
369,190,47061,6,0,P|310:144|239:166,1,153.6,2|0,1:2|1:1,0:0:0:0:
169,100,47548,1,8,2:0:0:0:
169,100,47629,1,0,3:2:0:0:
169,100,47710,1,2,1:2:0:0:
296,223,47872,1,8,2:0:0:0:
272,41,48034,1,2,1:2:0:0:
149,194,48196,1,8,2:0:0:0:
88,13,48358,5,6,1:2:0:0:
88,13,48683,1,0,1:1:0:0:
0,204,48845,2,0,B|63:192|63:192|89:204|89:204|152:193,1,153.6,10|0,2:0|3:1,0:0:0:0:
67,354,49331,2,0,P|62:315|51:278,1,76.8,2|8,2:0|2:0,0:0:0:0:
224,246,49656,6,0,P|214:283|209:321,1,76.8,2|0,2:0|3:1,0:0:0:0:
148,193,49980,1,8,2:0:0:0:
302,168,50142,1,2,2:0:0:0:
135,275,50304,1,0,3:1:0:0:
220,149,50467,1,0,1:1:0:0:
296,286,50629,2,0,P|333:276|371:271,1,76.8,10|0,2:0|0:0,0:0:0:0:
442,163,50953,5,2,1:2:0:0:
442,163,51277,1,0,1:0:0:0:
512,27,51440,2,0,P|436:15|361:0,1,153.6,10|0,0:0|3:1,0:0:0:0:
302,119,51926,2,0,P|297:80|286:43,1,76.8,2|8,2:0|2:0,0:0:0:0:
183,190,52250,5,2,2:0:0:0:
42,52,52413,1,2,1:2:0:0:
86,217,52575,1,10,2:0:0:0:
212,88,52737,2,0,P|174:77|136:72,1,76.8,2|0,2:0|1:1,0:0:0:0:
22,31,53061,1,0,3:1:0:0:
164,166,53223,1,10,2:0:0:0:
309,24,53386,1,0,1:1:0:0:
309,24,53467,1,0,3:1:0:0:
309,24,53548,6,0,P|355:18|397:40,1,96,6|0,1:2|0:0,0:0:0:0:
366,190,53872,2,0,P|337:152|335:104,1,96,10|0,2:0|1:1,0:0:0:0:
481,57,54196,2,0,P|462:100|422:125,1,96,2|0,3:2|1:1,0:0:0:0:
235,84,54521,2,0,P|247:129|253:177,1,96,10|0,2:0|1:1,0:0:0:0:
352,297,54845,6,0,P|268:260|202:322,1,192,2|10,3:2|2:0,0:0:0:0:
282,343,55331,1,0,1:1:0:0:
105,243,55494,2,0,P|117:288|123:336,1,96,2|0,3:2|1:1,0:0:0:0:
7,195,55818,1,8,2:0:0:0:
146,67,55980,1,2,1:2:0:0:
146,67,56061,1,0,3:1:0:0:
146,67,56142,6,0,P|192:61|234:83,1,96,2|0,1:2|3:1,0:0:0:0:
310,249,56467,2,0,P|281:212|279:164,1,96,10|0,2:0|1:1,0:0:0:0:
385,15,56791,2,0,P|367:57|327:83,1,96,2|0,3:2|1:1,0:0:0:0:
194,240,57115,2,0,P|188:192|175:146,1,96,10|0,2:0|1:1,0:0:0:0:
305,6,57440,5,0,3:1:0:0:
305,6,57602,1,0,1:1:0:0:
466,141,57764,2,0,P|418:146|372:159,1,96,10|0,2:0|1:1,0:0:0:0:
291,342,58088,2,0,P|303:295|309:248,1,96,2|0,3:2|1:1,0:0:0:0:
264,142,58413,1,10,2:0:0:0:
79,284,58575,1,2,3:1:0:0:
79,284,58656,1,0,1:1:0:0:
79,284,58737,2,0,L|70:236,1,48,8|0,2:0|3:1,0:0:0:0:
18,42,58899,5,0,1:1:0:0:
65,37,58980,1,0,3:1:0:0:
109,55,59061,1,8,2:0:0:0:
141,90,59142,1,0,1:1:0:0:
173,126,59223,1,0,3:1:0:0:
216,145,59304,1,0,1:1:0:0:
264,142,59386,6,0,L|272:94,1,48,8|0,2:0|3:1,0:0:0:0:
365,9,59548,2,0,L|373:56,1,48,0|0,1:1|3:1,0:0:0:0:
404,266,59710,5,8,2:0:0:0:
375,227,59791,1,0,1:1:0:0:
328,215,59872,1,0,3:1:0:0:
282,230,59953,1,0,1:1:0:0:
254,269,60034,2,0,L|245:316,1,48,8|0,2:0|0:0,0:0:0:0:
253,348,60683,6,0,L|263:288,1,60,2|0,1:1|0:0,0:0:0:0:
234,210,61169,22,0,B|298:186|346:242|342:250|338:258|381:322|450:298,1,216.000008239746,6|0,1:2|0:0,0:0:0:0:
445,299,61494,1,0,0:0:0:0:
512,142,61656,2,0,P|455:164|423:217,1,124.79999428711,8|0,2:0|0:0,0:0:0:0:
377,11,61980,2,0,P|425:48|486:50,1,124.79999428711,2|0,1:2|3:1,0:0:0:0:
331,193,62304,1,8,2:0:0:0:
310,78,62467,1,0,1:1:0:0:
36,256,62629,6,0,P|97:264|155:287,1,124.79999428711,2|0,2:0|3:1,0:0:0:0:
94,62,62953,2,0,P|55:110|7:150,1,124.79999428711,10|0,2:0|0:0,0:0:0:0:
234,210,63277,2,0,P|210:152|201:90,1,124.79999428711,2|0,1:2|3:1,0:0:0:0:
155,287,63602,1,10,2:0:0:0:
392,327,63764,6,0,P|404:263|413:204,1,124.79999428711,2|0,2:0|1:1,0:0:0:0:
485,278,64088,1,0,0:0:0:0:
297,365,64250,2,0,P|321:238|341:120,1,249.599988574219,10|0,2:0|3:1,0:0:0:0:
512,22,64737,1,2,1:2:0:0:
412,204,64899,1,10,2:0:0:0:
310,29,65061,6,0,P|252:52|190:60,1,124.79999428711,2|0,3:2|0:0,0:0:0:0:
287,209,65386,1,2,1:2:0:0:
179,265,65548,2,0,P|188:203|212:145,1,124.79999428711,8|0,2:0|0:0,0:0:0:0:
32,137,65872,1,2,3:2:0:0:
41,33,66034,2,0,P|89:71|127:121,1,124.79999428711,0|8,1:1|2:0,0:0:0:0:
0,300,66358,6,0,P|78:213|180:268,1,216.000008239746,6|0,1:2|0:0,0:0:0:0:
179,266,66683,1,0,0:0:0:0:
238,384,66845,2,0,P|246:322|268:264,1,124.79999428711,8|0,2:0|0:0,0:0:0:0:
93,300,67169,1,2,3:2:0:0:
211,145,67331,1,0,1:1:0:0:
325,336,67494,2,0,P|383:313|444:306,1,124.79999428711,8|0,2:0|3:1,0:0:0:0:
365,7,67818,6,0,P|394:60|382:121,1,124.79999428711,2|0,2:0|1:1,0:0:0:0:
211,145,68142,2,0,P|243:92|300:73,1,124.79999428711,10|0,2:0|0:0,0:0:0:0:
407,208,68467,2,0,P|345:206|299:165,1,124.79999428711,2|0,3:2|1:1,0:0:0:0:
226,6,68791,1,10,2:0:0:0:
67,232,68953,6,0,P|128:241|190:253,1,124.79999428711,2|0,2:0|3:1,0:0:0:0:
109,322,69277,1,2,2:0:0:0:
28,139,69440,2,0,P|144:158|273:182,1,249.599988574219,10|0,2:0|1:1,0:0:0:0:
372,354,69926,1,2,3:2:0:0:
189,252,70088,1,10,2:0:0:0:
357,137,70250,6,0,P|380:195|388:256,1,124.79999428711,2|0,1:2|0:0,0:0:0:0:
512,75,70575,1,2,3:2:0:0:
476,298,70737,1,10,2:0:0:0:
276,102,70899,1,0,1:2:0:0:
276,102,70980,1,0,3:2:0:0:
276,102,71061,1,2,1:2:0:0:
474,199,71223,1,8,2:0:0:0:
277,367,71386,5,8,2:0:0:0:
277,367,71467,1,8,2:0:0:0:
277,367,71548,2,0,B|213:391|165:335|169:327|173:319|134:256|61:279,1,249.599988574219,6|2,1:2|2:0,0:0:0:0:
251,276,72034,1,10,2:0:0:0:
85,370,72196,1,2,2:0:0:0:
9,201,72358,1,2,3:2:0:0:
184,182,72521,2,0,P|161:240|153:302,1,124.79999428711,2|8,1:2|2:0,0:0:0:0:
78,34,72845,6,0,B|-11:1|-43:163|141:155|165:48,1,249.599988574219,2|2,3:2|1:2,0:0:0:0:
310,12,73331,1,8,2:0:0:0:
184,182,73494,1,2,2:0:0:0:
399,73,73656,1,2,3:2:0:0:
301,247,73818,2,0,P|292:185|269:127,1,124.79999428711,2|8,1:2|2:0,0:0:0:0:
444,369,74142,6,0,P|453:240|480:120,1,249.599988574219,2|2,2:0|2:0,0:0:0:0:
350,329,74629,1,10,2:0:0:0:
269,127,74791,1,2,2:0:0:0:
478,256,74953,1,2,1:2:0:0:
255,331,75115,2,0,P|197:308|135:300,1,124.79999428711,2|8,3:2|2:0,0:0:0:0:
72,6,75440,6,0,P|84:71|94:137,1,134.399995898438,6|0,1:2|0:0,0:0:0:0:
222,228,75764,2,0,P|231:161|244:95,1,134.399995898438,2|8,1:2|2:0,0:0:0:0:
9,238,76088,2,0,P|74:225|141:215,1,134.399995898438,6|0,2:0|1:1,0:0:0:0:
286,22,76413,2,0,P|219:12|153:0,1,134.399995898438,2|8,1:1|2:0,0:0:0:0:
349,311,76737,6,0,B|325:247|381:199|389:203|397:207|461:175|437:95,1,249.599988574219,6|0,3:2|1:1,0:0:0:0:
458,346,77223,2,0,B|466:278|401:244|394:249|387:255|318:238|323:155,1,249.599988574219,8|0,2:0|3:1,0:0:0:0:
31,116,77710,5,2,1:2:0:0:
31,116,77872,1,10,2:0:0:0:
107,332,78034,2,0,P|116:270|128:209,1,124.79999428711,2|0,3:2|0:0,0:0:0:0:
315,20,78358,5,2,1:1:0:0:
315,20,78521,1,10,2:0:0:0:
239,236,78683,2,0,P|229:174|217:113,1,124.79999428711,2|0,2:0|1:1,0:0:0:0:
321,384,79007,2,0,P|330:322|342:261,1,124.79999428711,2|8,3:2|2:0,0:0:0:0:
127,209,79331,1,2,2:0:0:0:
315,20,79494,6,0,P|391:106|494:53,1,249.599988574219,0|8,1:1|2:0,0:0:0:0:
312,174,79980,1,0,0:0:0:0:
410,10,80142,1,0,3:1:0:0:
410,10,80304,1,0,1:1:0:0:
220,98,80467,1,10,2:0:0:0:
360,256,80629,1,2,3:1:0:0:
84,333,80791,5,8,2:0:0:0:
84,333,80872,1,0,3:1:0:0:
84,333,80953,2,0,L|72:269,1,62.3999971435548,2|0,1:1|3:1,0:0:0:0:
23,91,81115,5,10,2:0:0:0:
70,86,81196,1,0,1:1:0:0:
114,104,81277,1,2,3:1:0:0:
146,139,81358,1,0,1:1:0:0:
178,175,81439,1,8,2:0:0:0:
221,194,81520,1,0,3:1:0:0:
269,191,81602,6,0,P|271:158|277:128,1,62.3999971435548,2|0,1:1|3:1,0:0:0:0:
467,17,81764,2,0,P|469:49|475:79,1,62.3999971435548,8|0,2:0|3:1,0:0:0:0:
349,293,81926,6,0,P|358:164|385:44,1,216.000008239746,6|0,1:2|0:0,0:0:0:0:
384,46,82250,1,2,2:0:0:0:
503,215,82413,2,0,P|445:192|383:184,1,124.79999428711,8|2,2:0|2:0,0:0:0:0:
186,278,82737,1,2,1:1:0:0:
243,119,82899,2,0,P|266:177|274:239,1,124.79999428711,2|8,3:1|2:0,0:0:0:0:
56,120,83223,6,0,B|120:144|168:88|164:80|160:72|192:8|272:32,1,249.599988574219,2|2,1:1|1:1,0:0:0:0:
383,184,83710,1,8,2:0:0:0:
512,0,83872,1,2,2:0:0:0:
326,114,84034,1,0,1:1:0:0:
480,258,84196,2,0,P|488:196|510:138,1,124.79999428711,2|8,3:1|2:0,0:0:0:0:
248,307,84521,6,0,P|351:254|427:341,1,249.599988574219,2|2,2:0|2:0,0:0:0:0:
226,384,85007,2,0,P|168:362|107:353,1,124.79999428711,10|2,2:0|2:0,0:0:0:0:
0,258,85331,1,2,1:1:0:0:
142,160,85494,2,0,P|164:218|173:279,1,124.79999428711,2|8,3:1|2:0,0:0:0:0:
36,37,85818,6,0,B|-53:4|-85:166|99:158|123:51,1,249.599988574219,2|0,1:1|1:1,0:0:0:0:
303,0,86304,1,10,2:0:0:0:
224,167,86467,1,2,2:0:0:0:
145,0,86629,1,2,1:1:0:0:
301,194,86791,1,2,3:1:0:0:
413,2,86953,1,10,2:0:0:0:
493,199,87115,6,0,B|429:223|381:167|385:159|389:151|346:87|277:111,1,216.000008239746,6|0,3:2|0:0,0:0:0:0:
282,110,87440,1,2,2:0:0:0:
498,0,87602,2,0,P|475:58|467:120,1,124.79999428711,10|2,2:0|2:0,0:0:0:0:
301,194,87926,1,2,1:1:0:0:
496,287,88088,2,0,P|434:295|377:318,1,124.79999428711,2|8,3:1|2:0,0:0:0:0:
146,384,88413,6,0,P|233:306|178:204,1,249.599988574219,2|2,1:1|1:1,0:0:0:0:
0,107,88899,1,10,2:0:0:0:
144,292,89061,1,2,2:0:0:0:
0,220,89223,1,2,1:1:0:0:
138,23,89386,2,0,P|115:81|107:143,1,124.79999428711,2|8,3:1|2:0,0:0:0:0:
445,63,89710,6,0,P|323:89|198:98,1,249.599988574219,2|2,2:0|2:0,0:0:0:0:
493,206,90196,2,0,P|435:183|373:175,1,124.79999428711,8|2,2:0|2:0,0:0:0:0:
217,328,90521,1,2,1:1:0:0:
272,182,90683,2,0,P|295:240|303:302,1,124.79999428711,2|8,3:1|2:0,0:0:0:0:
501,120,91007,5,2,1:1:0:0:
402,273,91169,1,8,2:0:0:0:
307,59,91331,1,0,1:1:0:0:
115,303,91494,5,8,2:0:0:0:
75,290,91575,1,0,1:1:0:0:
41,272,91656,1,0,3:1:0:0:
21,234,91737,1,0,1:1:0:0:
13,197,91818,1,8,2:0:0:0:
18,160,91899,1,0,3:1:0:0:
30,124,91980,6,0,P|46:97|68:75,1,62.3999971435548,0|0,1:1|3:1,0:0:0:0:
181,164,92142,2,0,P|150:163|120:155,1,62.3999971435548,8|0,2:0|1:1,0:0:0:0:
140,13,92304,2,0,P|154:40|162:70,1,62.3999971435548,0|0,3:1|1:1,0:0:0:0:
309,316,92467,22,0,B|286:352|227:332|227:332|216:278|257:228|319:221|319:221|260:191|260:191|271:140|235:106|235:106|290:73|369:115|381:172|381:172|416:127|508:126|540:180|540:180|494:193|478:244|478:244|412:243|412:243|464:278|476:342|442:384|442:384|380:374|378:331,1,1185.40797142113,6|0,0:2|0:0,0:0:0:0:
