osu file format v14

[General]
AudioFilename: Butterfly.ogg
AudioLeadIn: 0
PreviewTime: 51353
Countdown: 0
SampleSet: Soft
StackLeniency: 0.3
Mode: 0
LetterboxInBreaks: 0
WidescreenStoryboard: 1

[Editor]
Bookmarks: 1805,7998,14192,26579,38966,52902,65289,77676
DistanceSpacing: 0.6
BeatDivisor: 4
GridSize: 32
TimelineZoom: 2.3

[Metadata]
Title:Butterfly (TV Size)
TitleUnicode:Butterfly (TV Size)
Artist:Konoe Kanata (CV: Kito Akari)
ArtistUnicode:近江彼方 (CV: 鬼頭明里)
Creator:Lulu-
Version:Beyond
Source:ラブライブ!虹ヶ咲学園スクールアイドル同好会
Tags:Victorica Miriko caps STCapricorn Uehara Ayumu MBMasher Konoe Kanata jamimc2 Japanese Pop J-Pop JPop future bass video game anime Ayaka Miyake em.me LoveLive! Love Live! School idol festival all stars sifas オールスターズ スクスタ sukusuta Nijigasaki High Club Gakuen ニジガク NijiGaku Doukoukai Dokokai Dōkōkai Kitou Kitō
BeatmapID:2706197
BeatmapSetID:1302533

[Difficulty]
HPDrainRate:6
CircleSize:4
OverallDifficulty:8.8
ApproachRate:9.3
SliderMultiplier:2
SliderTickRate:1

[Events]
//Background and Video events
Video,1014,"butterfly.mp4"
0,0,"suyapi.jpg",0,0
//Break Periods
//Storyboard Layer 0 (Background)
//Storyboard Layer 1 (Fail)
//Storyboard Layer 2 (Pass)
//Storyboard Layer 3 (Foreground)
//Storyboard Layer 4 (Overlay)
//Storyboard Sound Samples

[TimingPoints]
257,387.096774193548,4,2,1,60,1,0
3353,-133.333333333333,4,2,1,60,0,0
4902,-100,4,2,1,60,0,0
6643,-100,4,2,1,5,0,0
6740,-80,4,2,1,60,0,0
6933,-80,4,2,1,5,0,0
7031,-66.6666666666667,4,2,1,60,0,0
7224,-66.6666666666667,4,2,1,5,0,0
7418,-50,4,2,1,60,0,0
7611,-66.6666666666667,4,2,1,60,0,0
7805,-100,4,2,1,60,0,0
7998,-40,4,2,1,80,0,1
8386,-40,4,2,1,5,0,0
8579,-100,4,2,1,80,0,0
8773,-50,4,2,2,80,0,1
9063,-44.4444444444445,4,2,1,80,0,1
9353,-40,4,2,1,80,0,1
9740,-44.4444444444445,4,2,1,80,0,1
9934,-50,4,2,1,80,0,1
10127,-57.1428571428571,4,2,1,80,0,1
10321,-57.1428571428571,4,2,3,80,0,1
10515,-66.6666666666667,4,2,3,80,0,1
10902,-50,4,2,3,80,0,1
11095,-40,4,2,3,80,0,1
11433,-40,4,2,3,5,0,1
11482,-40,4,2,1,80,0,1
11676,-100,4,2,1,80,0,1
11869,-44.4444444444445,4,2,2,80,0,1
12160,-40,4,2,1,80,0,1
12644,-57.1428571428571,4,2,1,80,0,1
12934,-57.1428571428571,4,2,1,5,0,1
13031,-66.6666666666667,4,2,1,80,0,1
13321,-66.6666666666667,4,2,1,5,0,1
13418,-80,4,2,1,80,0,1
13708,-80,4,2,1,5,0,1
13805,-100,4,2,1,80,0,1
14095,-100,4,2,1,5,0,1
14192,-133.333333333333,4,2,2,60,0,0
14966,-133.333333333333,4,2,4,60,0,0
15353,-66.6666666666667,4,2,2,60,0,0
15934,-33.3333333333333,4,2,2,60,0,0
16127,-40,4,2,2,60,0,0
16514,-40,4,2,5,60,0,0
16902,-40,4,2,2,60,0,0
17289,-133.333333333333,4,2,2,60,0,0
17869,-133.333333333333,4,2,1,60,0,0
18063,-133.333333333333,4,2,4,60,0,0
18450,-66.6666666666667,4,2,2,60,0,0
19031,-33.3333333333333,4,2,2,60,0,0
19224,-40,4,2,2,60,0,0
19611,-40,4,2,6,60,0,0
19805,-40,4,2,2,60,0,0
20386,-133.333333333333,4,2,2,60,0,0
21160,-133.333333333333,4,2,4,60,0,0
21547,-66.6666666666667,4,2,3,60,0,0
22127,-33.3333333333333,4,2,3,60,0,0
22321,-40,4,2,3,60,0,0
23482,-133.333333333333,4,2,3,60,0,0
24062,-133.333333333333,4,2,1,60,0,0
24256,-133.333333333333,4,2,4,60,0,0
24644,-66.6666666666667,4,2,2,60,0,0
25224,-33.3333333333333,4,2,2,60,0,0
25805,-33.3333333333333,4,2,6,60,0,0
25998,-66.6666666666667,4,2,2,60,0,0
26192,-44.4444444444445,4,2,2,60,0,0
26385,-44.4444444444445,4,2,6,60,0,0
26579,-40,4,2,2,60,0,0
27353,-66.6666666666667,4,2,4,60,0,0
27740,-66.6666666666667,4,2,2,60,0,0
28321,-33.3333333333333,4,2,2,60,0,0
28515,-40,4,2,2,60,0,0
28805,-40,4,2,2,5,0,0
28902,-88.4955752212389,4,2,5,40,0,0
29289,-133.333333333333,4,2,2,40,0,0
29676,-40,4,2,2,60,0,0
30256,-40,4,2,1,60,0,0
30450,-66.6666666666667,4,2,4,60,0,0
30837,-66.6666666666667,4,2,2,60,0,0
31127,-66.6666666666667,4,2,2,5,0,0
31224,-66.6666666666667,4,2,2,60,0,0
31418,-33.3333333333333,4,2,2,60,0,0
31611,-40,4,2,2,60,0,0
31901,-40,4,2,2,5,0,0
31998,-40,4,2,6,60,0,0
32192,-40,4,2,2,60,0,0
32579,-40,4,2,6,60,0,0
32773,-100,4,2,2,60,0,0
33063,-100,4,2,2,5,0,0
33160,-40,4,2,6,60,0,0
33450,-40,4,2,6,5,0,0
33547,-100,4,2,2,60,0,0
33837,-100,4,2,2,5,0,0
33934,-40,4,2,6,60,0,0
34224,-40,4,2,6,5,0,0
34321,-100,4,2,2,60,0,0
34466,-100,4,2,2,5,0,0
34515,-33.3333333333333,4,2,2,60,0,0
34708,-40,4,2,6,60,0,0
34998,-40,4,2,6,5,0,0
35095,-100,4,2,1,60,0,0
35385,-100,4,2,1,5,0,0
35482,-40,4,2,6,60,0,0
35869,-50,4,2,2,60,0,0
36159,-50,4,2,2,5,0,0
36256,-50,4,2,2,60,0,0
36450,-50,4,2,1,60,0,0
36740,-50,4,2,1,5,0,0
36837,-50,4,2,1,60,0,0
37031,-50,4,2,2,60,0,0
37321,-50,4,2,2,5,0,0
37418,-50,4,2,2,60,0,0
37611,-33.3333333333333,4,2,2,60,0,0
37805,-50,4,2,2,60,0,0
38095,-50,4,2,2,5,0,0
38192,-50,4,2,6,50,0,0
38386,-50,4,2,2,50,0,0
38966,-66.6666666666667,4,2,2,70,0,0
39353,-66.6666666666667,4,2,4,70,0,0
39547,-66.6666666666667,4,2,2,70,0,0
39934,-33.3333333333333,4,2,2,70,0,0
40127,-45.4545454545455,4,2,4,70,0,0
40515,-50,4,2,4,70,0,0
40708,-50,4,2,2,70,0,0
40902,-50,4,2,4,70,0,0
41289,-50,4,2,2,70,0,0
41676,-33.3333333333333,4,2,4,70,0,0
41869,-50,4,2,4,70,0,0
42063,-66.6666666666667,4,2,2,70,0,0
42353,-66.6666666666667,4,2,2,5,0,0
42450,-66.6666666666667,4,2,4,70,0,0
42644,-66.6666666666667,4,2,1,70,0,0
42934,-66.6666666666667,4,2,1,5,0,0
43031,-33.3333333333333,4,2,2,70,0,0
43224,-66.6666666666667,4,2,4,70,0,0
43805,-66.6666666666667,4,2,2,70,0,0
43998,-66.6666666666667,4,2,4,70,0,0
44288,-66.6666666666667,4,2,4,5,0,0
44386,-33.3333333333333,4,2,2,70,0,0
44773,-33.3333333333333,4,2,4,70,0,0
45160,-40,4,2,1,70,0,0
45450,-40,4,2,6,70,0,0
45547,-50,4,2,1,70,0,0
45740,-50,4,2,6,70,0,0
45934,-40,4,2,1,70,0,0
46224,-40,4,2,6,70,0,0
46321,-50,4,2,1,70,0,0
46515,-50,4,2,6,70,0,0
46708,-40,4,2,1,70,0,0
46998,-40,4,2,6,70,0,0
47095,-40,4,2,1,70,0,0
47289,-50,4,2,6,70,0,0
47482,-40,4,2,1,70,0,0
47773,-40,4,2,6,70,0,0
47869,-50,4,2,1,70,0,0
48063,-50,4,2,6,70,0,0
48256,-40,4,2,1,70,0,0
48546,-40,4,2,6,70,0,0
48644,-40,4,2,1,70,0,0
48837,-50,4,2,6,70,0,0
49031,-40,4,2,1,70,0,0
49321,-40,4,2,6,70,0,0
49418,-40,4,2,1,70,0,0
49611,-50,4,2,6,70,0,0
49805,-40,4,2,2,70,0,0
50192,-50,4,2,2,70,0,0
50579,-33.3333333333333,4,2,2,70,0,0
50773,-50,4,2,2,70,0,0
50966,-33.3333333333333,4,2,2,70,0,0
51160,-50,4,2,2,70,0,0
51740,-100,4,2,2,70,0,0
51934,-100,4,2,4,70,0,0
52321,-100,4,2,1,70,0,0
52515,-40,4,2,2,70,0,0
52805,-40,4,2,2,5,0,0
52902,-33.3333333333333,4,2,3,100,0,1
53676,-33.3333333333333,4,2,2,100,0,1
54256,-50,4,2,2,100,0,1
54450,-33.3333333333333,4,2,2,100,0,1
54740,-33.3333333333333,4,2,1,100,0,1
55031,-33.3333333333333,4,2,3,100,0,1
55611,-50,4,2,3,100,0,1
56386,-33.3333333333333,4,2,3,100,0,1
56676,-33.3333333333333,4,2,3,5,0,1
56773,-33.3333333333333,4,2,2,100,0,1
57063,-33.3333333333333,4,2,1,100,0,1
57353,-33.3333333333333,4,2,2,100,0,1
57547,-33.3333333333333,4,2,4,100,0,1
58321,-33.3333333333333,4,2,5,100,0,1
59385,-33.3333333333333,4,2,5,5,0,1
59482,-33.3333333333333,4,2,5,100,0,1
59675,-33.3333333333333,4,2,1,100,0,1
59869,-33.3333333333333,4,2,5,100,0,1
60837,-33.3333333333333,4,2,1,100,0,1
61031,-33.3333333333333,4,2,5,100,0,1
61224,-33.3333333333333,4,2,2,100,0,1
61418,-33.3333333333333,4,2,5,100,0,1
62192,-33.3333333333333,4,2,7,100,0,1
62966,-33.3333333333333,4,2,2,100,0,1
63160,-33.3333333333333,4,2,5,100,0,1
63353,-33.3333333333333,4,2,4,100,0,1
63740,-50,4,2,4,70,0,0
64515,-66.6666666666667,4,2,4,70,0,0
64902,-100,4,2,4,70,0,0
65192,-100,4,2,4,5,0,0
65289,-33.3333333333333,4,2,3,100,0,1
66063,-33.3333333333333,4,2,2,100,0,1
67127,-33.3333333333333,4,2,1,100,0,1
67418,-33.3333333333333,4,2,3,100,0,1
67998,-50,4,2,3,100,0,1
68773,-33.3333333333333,4,2,3,100,0,1
69063,-33.3333333333333,4,2,3,5,0,1
69160,-33.3333333333333,4,2,2,100,0,1
69450,-33.3333333333333,4,2,1,100,0,1
69740,-33.3333333333333,4,2,2,100,0,1
69934,-33.3333333333333,4,2,4,100,0,1
70224,-33.3333333333333,4,2,4,5,0,1
70321,-33.3333333333333,4,2,4,100,0,1
70708,-33.3333333333333,4,2,5,100,0,1
71772,-33.3333333333333,4,2,5,5,0,1
71869,-33.3333333333333,4,2,5,100,0,1
72062,-33.3333333333333,4,2,1,100,0,1
72256,-33.3333333333333,4,2,5,100,0,1
73224,-33.3333333333333,4,2,1,100,0,1
73418,-33.3333333333333,4,2,5,100,0,1
73611,-33.3333333333333,4,2,1,100,0,1
73805,-33.3333333333333,4,2,5,100,0,1
74579,-33.3333333333333,4,2,7,100,0,1
75353,-33.3333333333333,4,2,2,100,0,1
75547,-33.3333333333333,4,2,5,100,0,1
75740,-33.3333333333333,4,2,4,100,0,1
76127,-40,4,2,4,70,0,0
76515,-50,4,2,4,70,0,0
76902,-66.6666666666667,4,2,4,70,0,0
77289,-100,4,2,4,70,0,0
77676,-31.7460317460317,4,2,3,80,0,1
78063,-31.7460317460317,4,2,3,5,0,0
78256,-100,4,2,1,80,0,0
78450,-50,4,2,2,80,0,1
78740,-44.4444444444445,4,2,1,80,0,1
79031,-40,4,2,1,80,0,1
79418,-44.4444444444445,4,2,1,80,0,1
79611,-50,4,2,1,80,0,1
79805,-57.1428571428571,4,2,1,80,0,1
79998,-57.1428571428571,4,2,3,80,0,1
80192,-100,4,2,3,80,0,1
80386,-66.6666666666667,4,2,3,80,0,1
80579,-50,4,2,3,80,0,1
80773,-40,4,2,3,80,0,1
81111,-40,4,2,3,5,0,1
81160,-50,4,2,1,80,0,1
81353,-100,4,2,1,80,0,1
81547,-44.4444444444445,4,2,2,80,0,1
81837,-40,4,2,1,80,0,1
82321,-57.1428571428571,4,2,1,80,0,1
82611,-57.1428571428571,4,2,1,5,0,1
82708,-66.6666666666667,4,2,1,75,0,1
82998,-66.6666666666667,4,2,1,5,0,1
83095,-80,4,2,1,70,0,1
83385,-80,4,2,1,5,0,1
83482,-100,4,2,1,65,0,1
83772,-100,4,2,1,5,0,1
83869,-133.333333333333,4,2,99,60,0,0
84256,-133.333333333333,4,2,99,55,0,0
84644,-133.333333333333,4,2,99,50,0,0
85031,-133.333333333333,4,2,99,45,0,0
85418,-133.333333333333,4,2,99,40,0,0
85805,-133.333333333333,4,2,99,35,0,0
86192,-133.333333333333,4,2,99,30,0,0
86579,-133.333333333333,4,2,99,25,0,0
86965,-133.333333333333,4,2,1,5,0,0

[Colours]
Combo1 : 255,255,85
Combo2 : 191,128,255
Combo3 : 213,170,255
Combo4 : 43,255,255
Combo5 : 128,255,255
Combo6 : 255,192,0
Combo7 : 255,202,43
Combo8 : 255,255,0

[HitObjects]
211,144,1805,6,0,P|152:217|197:299,1,200,10|10,2:0|2:0,2:0:0:0:
211,144,2386,2,0,P|257:226|198:299,1,200,2|2,2:0|2:0,2:0:0:0:
124,339,2966,1,8,2:0:0:0:
124,339,3353,86,0,B|91:333|80:307|80:307|83:334|59:356,2,112.500004291535,10|2|2,2:0|2:0|2:0,2:0:0:0:
196,384,4127,1,8,2:0:0:0:
318,221,4321,1,0,2:0:0:0:
401,232,4515,1,8,2:0:0:0:
452,299,4708,1,0,2:0:0:0:
440,383,4902,38,0,P|369:320|401:232,1,200,10|10,2:0|2:0,2:0:0:0:
440,384,5482,2,0,P|471:295|400:232,1,200,2|2,2:0|2:0,2:0:0:0:
294,134,6063,2,0,P|289:183|318:221,1,100,8|0,2:0|2:0,2:0:0:0:
426,99,6450,86,0,B|398:87|395:62|395:62|379:81|349:78,1,100,2|0,2:0|2:0,2:0:0:0:
401,232,6740,2,0,B|435:220|460:238|460:238|442:213|453:179,1,125,2|0,2:0|2:0,2:0:0:0:
294,134,7031,2,0,B|286:177|252:192|252:192|288:188|318:221,1,150.000005722046,2|0,2:0|2:0,2:0:0:0:
320,0,7418,6,0,P|277:-4|236:33,1,100,2|0,2:0|2:0,2:0:0:0:
117,49,7611,2,0,P|94:77|91:114,1,75.0000028610231,2|0,2:0|2:0,2:0:0:0:
63,241,7805,2,0,P|69:264|85:284,1,50,2|0,2:0|2:0,2:0:0:0:
266,351,7998,54,0,B|242:267|318:221|318:221|63:244|202:360|10:376,1,500,6|0,1:2|2:0,2:0:0:0:
25,375,8579,54,0,L|30:342,2,25,2|0|0,1:2|2:0|2:0,2:0:0:0:
86,285,8773,70,0,B|191:273|158:361|265:350,1,200,10|0,2:0|2:0,2:0:0:0:
377,306,9063,2,0,B|329:220|226:229|226:229|240:238|247:266,1,225.000008583069,2|0,1:2|2:0,2:0:0:0:
343,383,9353,2,0,P|342:258|283:149,1,250,2|0,1:2|2:0,2:0:0:0:
46,167,9740,54,0,B|21:197|21:197|91:179,1,112.500004291535,2|0,2:0|1:0,2:0:0:0:
51,20,9934,2,0,B|36:-10|36:-10|17:53,1,100,2|0,2:0|2:0,2:0:0:0:
174,99,10127,2,0,B|203:95|203:95|163:53,1,87.500000834465,2|0,1:2|2:0,2:0:0:0:
90,95,10321,1,8,2:0:0:0:
177,218,10515,38,0,P|171:201|175:183,2,37.5000014305115,2|0|0,2:0|2:0|2:0,2:0:0:0:
174,98,10708,2,0,P|191:66|223:48,1,75.0000028610231,2|0,2:0|2:0,2:0:0:0:
295,5,10902,2,0,P|343:8|377:44,1,100,2|0,2:0|2:0,2:0:0:0:
497,144,11095,54,0,B|568:136|585:266|454:301|376:194|479:157|358:123|296:188|290:220|290:220|315:200|344:202,1,437.5,2|0,2:0|2:0,2:0:0:0:
371,200,11482,2,0,P|392:257|362:310,1,125,0|0,1:0|2:0,2:0:0:0:
161,363,11676,2,0,L|157:339,2,25,2|0|0,2:0|2:0|2:0,2:0:0:0:
100,276,11869,70,0,B|62:254|62:254|195:218|195:218|173:256,1,225.000008583069,10|0,2:0|2:0,2:0:0:0:
44,378,12160,2,0,B|151:349|151:349|174:362|174:362|282:333,1,250,2|0,1:2|2:0,2:0:0:0:
434,262,12450,2,0,B|456:319|456:319|424:372,1,125,2|0,1:2|2:0,2:0:0:0:
284,110,12644,54,0,P|362:10|488:13,1,262.500002503395,2|0,2:0|2:0,2:0:0:0:
434,262,13031,2,0,P|330:298|232:250,1,225.000008583069,0|0,2:0|2:0,2:0:0:0:
497,144,13418,2,0,P|506:236|457:314,1,187.5,2|0,2:0|2:0,2:0:0:0:
304,241,13805,2,0,P|251:189|233:118,1,150,2|0,2:0|2:0,2:0:0:0:
403,50,14192,6,0,P|417:107|394:47,1,225.000008583069,2|2,1:2|1:2,2:0:0:0:
403,50,14966,1,10,3:2:0:0:
403,50,15353,86,0,B|250:5|275:144|122:99,1,300.000011444092,2|0,1:2|3:0,2:0:0:0:
122,99,15934,38,0,L|116:61,4,37.5000014305115,0|0|0|0|0,1:0|3:0|3:0|3:0|3:0,2:0:0:0:
144,239,16127,86,0,B|116:194|68:194|68:194|132:162|276:226|212:386|212:386|121:350,1,500,0|10,1:0|2:0,2:0:0:0:
4,306,16708,1,0,2:0:0:0:
144,239,16902,1,2,3:2:0:0:
265,265,17095,1,0,3:0:0:0:
313,367,17289,6,0,P|327:292|300:363,1,225.000008583069,2|2,1:2|1:2,2:0:0:0:
313,367,18063,1,10,3:2:0:0:
313,367,18450,86,0,P|368:232|506:184,1,300.000011444092,0|0,1:0|3:0,2:0:0:0:
505,184,19031,38,0,L|500:222,4,37.5000014305115,0|0|0|0|0,1:0|3:0|3:0|3:0|3:0,2:0:0:0:
489,316,19224,86,0,B|354:305|255:168|280:-48|544:48|429:162|376:177,1,500,0|8,1:0|3:2,2:0:0:0:
376,177,19805,1,2,1:2:0:0:
313,69,19998,1,2,3:2:0:0:
179,0,20192,1,2,3:2:0:0:
0,16,20386,6,0,P|-14:73|9:13,1,225.000008583069,0|0,1:0|1:0,2:0:0:0:
0,16,21160,1,10,3:2:0:0:
0,16,21547,86,0,B|-45:169|94:144|49:297,1,300.000011444092,2|0,1:2|3:0,2:0:0:0:
49,297,22127,38,0,L|43:259,4,37.5000014305115,0|0|0|0|0,1:0|3:0|3:0|3:0|3:0,2:0:0:0:
0,384,22321,86,0,B|5:320|69:325|69:325|164:334|164:334|228:339|291:300|289:165|165:141|141:235|179:263,2,500,0|8|2,1:0|2:0|3:2,2:0:0:0:
90,190,23289,1,2,3:2:0:0:
364,266,23482,6,0,P|378:340|352:270,1,225.000008583069,2|2,1:2|1:2,2:0:0:0:
364,266,24256,1,8,3:2:0:0:
364,266,24644,86,0,P|364:119|473:23,1,300.000011444092,2|0,1:2|3:0,2:0:0:0:
472,23,25224,38,0,L|509:24,4,37.5000014305115,0|0|0|0|0,1:0|3:0|3:0|3:0|3:0,2:0:0:0:
320,16,25418,85,0,1:0:0:0:
200,232,25611,1,2,3:2:0:0:
368,184,25805,1,10,3:2:0:0:
152,64,25998,2,0,P|134:96|138:132,1,75.0000028610231,2|0,1:2|2:0,2:0:0:0:
350,302,26192,6,0,P|249:265|171:338,1,225.000008583069,2|10,3:2|3:2,2:0:0:0:
46,235,26579,86,0,B|32:185|-16:169|-16:169|140:127|275:250|244:383,1,500,6|0,1:2|3:0,2:0:0:0:
98,302,27160,1,0,1:0:0:0:
239,126,27353,38,0,P|252:56|191:20,1,150.000005722046,10|0,3:2|2:0,2:0:0:0:
45,97,27740,86,0,B|197:51|172:191|325:146,1,300.000011444092,2|0,1:2|3:0,2:0:0:0:
326,146,28321,6,0,L|331:108,4,37.5000014305115,0|0|0|0|0,1:0|3:0|3:0|3:0|3:0,2:0:0:0:
306,299,28515,86,0,B|348:213|511:220|537:378|372:421|374:269,1,375,0|0,1:0|2:0,2:0:0:0:
375,269,28902,38,0,P|374:250|382:233,5,37.5000014305115,10|2|2|2|2|2,2:0|2:0|2:0|2:0|2:0|2:0,2:0:0:0:
437,162,29289,86,0,P|443:151|453:144,5,25,2|2|2|2|2|2,3:2|2:0|2:0|3:2|2:0|2:0,2:0:0:0:
512,64,29676,6,0,B|472:131|494:192|494:192|467:65|359:114|348:11|400:-16|400:-16|458:15|424:82,1,500,2|0,1:2|3:0,2:0:0:0:
354,283,30256,1,2,1:2:0:0:
204,106,30450,86,0,P|191:36|252:0,1,150.000005722046,10|0,3:2|2:0,2:0:0:0:
330,150,30740,1,2,2:0:0:0:
330,150,30837,2,0,P|222:126|125:178,1,225.000008583069,0|0,1:0|2:0,2:0:0:0:
134,263,31224,38,0,P|97:261|67:239,1,75.0000028610231,0|0,3:0|2:0,2:0:0:0:
67,239,31418,2,0,L|62:277,4,37.5000014305115,0|0|0|0|0,1:0|3:0|3:0|3:0|3:0,2:0:0:0:
0,151,31611,86,0,B|365:228|0:154|364:232,1,375,0|0,1:0|2:0,2:0:0:0:
443,282,31998,1,8,3:2:0:0:
332,147,32192,1,2,1:2:0:0:
342,321,32386,1,2,3:2:0:0:
437,174,32579,1,10,3:2:0:0:
272,246,32773,6,0,P|222:237|272:237,1,150,0|0,1:0|2:0,2:0:0:0:
342,321,33160,86,0,B|98:257|98:257|161:299|146:369,1,375,10|0,3:2|2:0,2:0:0:0:
57,371,33547,38,0,P|21:335|62:364,1,150,2|0,1:2|2:0,2:0:0:0:
148,361,33934,86,0,B|346:367|271:206|470:211,1,375,10|0,3:2|2:0,2:0:0:0:
482,357,34321,6,0,P|445:359|414:338,1,75,2|0,1:2|2:0,2:0:0:0:
415,338,34515,2,0,L|420:300,4,37.5000014305115,0|0|0|0|0,3:0|3:0|3:0|3:0|3:0,2:0:0:0:
471,211,34708,86,0,B|423:270|337:265|278:223|270:144|270:144|238:205|170:204,1,375,8|0,3:2|2:0,2:0:0:0:
152,80,35095,38,0,P|190:112|147:86,1,150,0|0,1:0|2:0,2:0:0:0:
31,65,35482,86,0,P|59:11|119:2,1,125,10|0,3:2|2:0,2:0:0:0:
338,198,35676,1,10,3:2:0:0:
338,198,35773,1,8,2:0:0:0:
338,198,35869,6,0,B|362:118|306:38|242:22|242:22|277:52|275:89,1,300,2|0,1:2|2:0,2:0:0:0:
192,90,36256,1,2,3:2:0:0:
172,271,36450,86,0,B|229:331|326:323|372:275|372:275|328:291|297:271,1,300,2|0,1:2|2:0,2:0:0:0:
338,198,36837,1,2,1:2:0:0:
192,90,37031,38,0,B|110:109|69:197|87:261|87:261|96:215|129:198,1,300,2|0,1:2|2:0,2:0:0:0:
172,271,37418,1,0,3:0:0:0:
172,271,37611,86,0,L|177:309,4,37.5000014305115,0|0|0|0|0,1:0|3:0|3:0|3:0|3:0,2:0:0:0:
128,198,37805,2,0,P|273:214|382:117,1,300,0|0,1:0|2:0,2:0:0:0:
331,30,38192,1,8,3:2:0:0:
435,204,38386,1,2,1:2:0:0:
470,65,38579,1,2,3:2:0:0:
296,169,38773,1,2,3:2:0:0:
497,318,38966,38,0,P|518:347|513:384,1,75.0000028610231,6|0,1:2|2:0,2:0:0:0:
367,315,39160,2,0,P|331:318|302:296,1,75.0000028610231,2|0,3:2|2:0,2:0:0:0:
435,204,39353,2,0,P|450:171|483:157,1,75.0000028610231,10|0,3:2|2:0,2:0:0:0:
434,279,39547,1,2,1:2:0:0:
434,279,39644,1,0,2:0:0:0:
366,315,39740,2,0,P|330:317|301:295,1,75.0000028610231,2|0,2:0|2:0,2:0:0:0:
291,132,39934,2,0,L|296:170,4,37.5000014305115,0|0|0|0|0,1:0|3:0|3:0|3:0|3:0,2:0:0:0:
432,278,40127,86,0,P|307:195|147:248,1,330.000010070801,10|0,3:2|3:0,2:0:0:0:
75,279,40515,38,0,B|31:235|31:235|70:242,1,100,2|0,3:2|2:0,2:0:0:0:
151,252,40708,1,2,1:2:0:0:
151,252,40805,1,0,2:0:0:0:
220,301,40902,2,0,B|203:359|203:359|190:324,1,100,10|0,3:2|2:0,2:0:0:0:
151,252,41095,1,0,3:0:0:0:
151,252,41192,1,0,2:0:0:0:
168,164,41289,2,0,B|227:147|227:147|202:179,1,100,0|0,1:0|3:0,2:0:0:0:
151,252,41482,1,0,1:0:0:0:
39,360,41676,86,0,L|1:365,4,37.5000014305115,10|0|0|0|0,3:2|3:0|3:0|3:0|3:0,2:0:0:0:
146,346,41869,2,0,P|163:299|151:252,1,100,2|0,3:2|2:0,2:0:0:0:
9,0,42063,6,0,P|102:58|212:50,1,225.000008583069,2|0,1:2|2:0,2:0:0:0:
289,3,42450,1,10,3:2:0:0:
151,251,42644,2,0,P|155:141|92:50,1,225.000008583069,2|0,1:2|2:0,2:0:0:0:
9,0,43031,2,0,P|0:16|0:34,4,37.5000014305115,2|0|0|0|0,1:2|3:0|3:0|3:0|3:0,2:0:0:0:
45,179,43224,86,0,P|81:170|110:147,1,75.0000028610231,10|0,3:2|2:0,2:0:0:0:
289,3,43418,1,0,3:0:0:0:
289,3,43515,1,0,3:0:0:0:
289,3,43611,2,0,P|278:38|284:75,1,75.0000028610231,0|0,3:0|2:0,2:0:0:0:
288,321,43805,2,0,P|262:294|227:280,1,75.0000028610231,0|0,1:0|2:0,2:0:0:0:
111,147,43998,38,0,B|226:111|208:216|321:181,1,225.000008583069,8|0,3:2|2:0,2:0:0:0:
322,181,44386,86,0,L|329:142,4,37.5000014305115,0|0|0|0|0,1:0|3:0|3:0|3:0|3:0,2:0:0:0:
397,231,44579,1,0,1:0:0:0:
472,35,44773,2,0,L|456:-1,4,37.5000014305115,8|0|0|0|0,3:2|3:0|3:0|3:0|3:0,2:0:0:0:
406,96,44966,1,0,3:0:0:0:
484,290,45160,6,0,B|516:322|513:359|513:359|455:308|352:310,1,250,2|0,1:2|2:0,2:0:0:0:
276,276,45450,1,10,2:0:0:0:
276,276,45547,2,0,P|266:324|289:367,1,100,0|0,1:0|2:0,2:0:0:0:
427,345,45740,2,0,P|436:296|413:253,1,100,10|8,2:0|2:0,2:0:0:0:
157,125,45934,86,0,B|130:107|93:115|93:115|137:77|219:77|259:125,1,250,2|0,1:2|2:0,2:0:0:0:
342,113,46224,1,10,2:0:0:0:
342,113,46321,2,0,P|334:161|300:197,1,100,0|0,1:0|2:0,2:0:0:0:
61,193,46515,2,0,P|22:161|9:114,1,100,10|8,2:0|2:0,2:0:0:0:
167,3,46708,38,0,B|202:154|202:154|159:200|159:200|194:352,1,375,2|8,1:2|2:0,2:0:0:0:
289,367,47095,1,0,1:0:0:0:
392,191,47289,2,0,P|345:179|299:197,1,100,10|8,2:0|2:0,2:0:0:0:
194,353,47482,86,0,P|82:352|94:242,1,250,2|2,1:2|2:0,2:0:0:0:
150,169,47773,1,8,2:0:0:0:
150,169,47869,2,0,P|181:206|184:255,1,100,2|0,1:2|2:0,2:0:0:0:
0,227,48063,2,0,P|17:180|58:153,1,100,10|8,2:0|2:0,2:0:0:0:
400,0,48256,6,0,B|360:177|133:144|244:-73|367:71,1,375,2|8,1:2|2:0,2:0:0:0:
392,188,48644,1,0,1:0:0:0:
392,188,48837,2,0,P|343:192|306:225,1,100,10|8,2:0|2:0,2:0:0:0:
238,383,49031,86,0,P|135:232|157:50,1,375,2|8,1:2|2:0,2:0:0:0:
238,2,49418,1,0,1:0:0:0:
238,2,49611,38,0,P|250:34|251:67,2,66.6666666666667,8|0|0,2:0|2:0|2:0,2:0:0:0:
224,160,49805,86,0,B|192:97|98:34|4:34|4:34|67:50|35:81|98:97,1,375,2|0,1:2|3:0,2:0:0:0:
157,49,50192,2,0,P|172:95|156:143,1,100,0|0,1:0|3:0,2:0:0:0:
16,304,50386,1,0,3:0:0:0:
16,304,50482,1,0,3:0:0:0:
16,304,50579,6,0,P|6:287|6:269,4,37.5000014305115,0|0|0|0|0,1:0|3:0|3:0|3:0|3:0,2:0:0:0:
29,198,50773,2,0,B|79:182|71:228|121:213,1,100,2|0,3:2|3:0,2:0:0:0:
443,120,50966,2,0,P|452:103|452:85,4,37.5000014305115,2|0|0|0|0,1:2|3:0|3:0|3:0|3:0,2:0:0:0:
430,14,51160,2,0,B|379:-2|387:44|337:29,1,100,0|0,3:0|3:0,2:0:0:0:
256,192,51353,21,0,3:0:0:0:
256,192,51740,38,0,L|264:241,1,50,2|0,2:0|2:0,2:0:0:0:
214,299,51934,2,0,L|209:323,3,25,10|8|8|8,2:0|2:0|2:0|2:0,2:0:0:0:
256,384,52127,1,10,2:0:0:0:
256,384,52321,1,2,1:2:0:0:
0,276,52515,86,0,B|158:257|158:257|202:291|202:291|361:271,1,375,10|0,2:0|2:0,2:0:0:0:
392,126,52902,6,0,B|459:71|535:113|535:113|488:125|491:165|491:165|468:175|468:175|478:198|473:220,1,300.000011444092,6|0,1:2|2:0,2:0:0:0:
306,133,53192,2,0,B|230:91|162:145|162:145|211:149|214:189|214:189|239:195|239:195|233:219|242:239,1,300.000011444092,2|0,2:0|2:0,2:0:0:0:
361,271,53482,2,0,B|392:171|312:178|361:271,1,150.000005722046,2|0,1:2|2:0,2:0:0:0:
423,361,53676,6,0,P|312:265|165:256,1,300.000011444092,8|2,3:2|1:2,2:0:0:0:
0,314,54063,1,2,3:2:0:0:
32,142,54256,2,0,P|46:109|43:144,1,100,2|0,1:2|3:0,2:0:0:0:
66,237,54450,70,0,P|211:215|314:110,1,300.000011444092,0|0,1:0|2:0,2:0:0:0:
217,1,54740,2,0,P|102:94|66:237,1,300.000011444092,0|0,1:0|2:0,2:0:0:0:
220,384,55031,2,0,P|237:313|193:256,1,150.000005722046,2|0,1:2|3:0,2:0:0:0:
25,312,55224,2,0,B|-27:333|-28:388|-28:388|43:313|155:331,1,300.000011444092,10|2,3:2|3:2,2:0:0:0:
366,360,55515,1,0,2:0:0:0:
366,360,55611,2,0,P|378:382|355:379,6,57.1428571428571,2|0|0|0|0|0|0,3:2|3:0|3:0|3:0|3:0|3:0|3:0,3:0:0:0:
313,286,55998,38,0,L|317:261,8,25,2|0|0|0|0|0|0|0|0,3:2|3:0|3:0|3:0|3:0|3:0|3:0|3:0|3:0,2:0:0:0:
313,286,56386,86,0,B|281:174|373:69|502:91|502:91|431:107|427:176,1,450.000017166138,0|0,1:0|2:0,2:0:0:0:
512,177,56773,2,0,B|565:138|572:293|369:258|330:151,1,300.000011444092,8|2,3:2|3:2,2:0:0:0:
440,12,57063,2,0,B|379:-15|511:-98|582:94|508:182,1,300.000011444092,0|0,1:0|3:0,2:0:0:0:
303,57,57353,2,0,B|287:32|256:28|256:28|302:6|341:41,1,150.000005722046,2|0,1:2|3:0,2:0:0:0:
490,325,57547,6,0,B|538:389|538:389|319:361,1,300.000011444092,0|0,1:0|3:0,2:0:0:0:
32,288,57934,2,0,B|-16:352|-16:352|202:324,1,300.000011444092,2|2,1:2|3:2,2:0:0:0:
120,149,58321,86,0,B|134:15|-88:11|-31:185|44:135,1,300.000011444092,2|2,1:2|2:0,2:0:0:0:
155,0,58611,2,0,P|75:126|132:261,1,300.000011444092,0|0,1:0|2:0,2:0:0:0:
202,324,58902,1,2,1:2:0:0:
202,324,59095,38,0,B|231:261|303:273|303:273|192:204|67:267|55:383,1,450.000017166138,4|0,1:2|2:0,2:0:0:0:
280,356,59482,2,0,P|341:224|273:97,1,300.000011444092,2|2,1:2|2:3,2:0:0:0:
43,135,59869,86,0,B|340:162|42:139|341:165,1,300.000011444092,2|0,1:2|2:0,2:0:0:0:
394,264,60160,2,0,B|440:316|440:316|325:381|230:274|275:195,1,300.000011444092,2|0,1:2|2:0,2:0:0:0:
345,75,60450,2,0,P|410:110|423:181,1,150.000005722046,2|0,1:2|2:0,2:0:0:0:
512,384,60644,6,0,B|351:373|421:250|264:242,1,300.000011444092,2|2,1:2|2:3,2:0:0:0:
0,141,61031,2,0,B|157:133|86:10|247:0,1,300.000011444092,0|2,1:0|2:3,2:0:0:0:
508,164,61418,86,0,P|366:140|264:241,1,300.000011444092,0|0,1:0|2:0,2:0:0:0:
334,314,61708,2,0,B|275:342|408:422|476:229|404:147,1,300.000011444092,0|0,1:0|2:0,2:0:0:0:
163,223,61998,2,0,P|161:295|221:335,1,150.000005722046,2|0,1:2|2:0,2:0:0:0:
332,90,62192,38,0,B|350:57|397:55|397:55|336:30|243:61|216:140,1,300,10|0,1:2|2:0,2:0:0:0:
69,273,62482,2,0,B|4:291|-16:358|-16:358|-41:296|8:237|58:223,1,300.000011444092,8|0,1:2|2:0,2:0:0:0:
163,223,62773,2,0,P|223:263|221:335,1,150.000005722046,10|0,1:2|2:0,2:0:0:0:
84,375,62966,1,8,2:0:0:0:
84,375,63160,86,0,P|25:240|73:102,1,300.000011444092,2|2,1:2|3:2,2:0:0:0:
150,52,63450,1,0,3:0:0:0:
150,52,63547,2,0,P|88:12|17:28,1,150.000005722046,0|0,3:0|3:0,2:0:0:0:
0,129,63740,6,0,P|145:98|256:1,1,300,8|0,3:2|3:0,2:0:0:0:
257,0,64127,86,0,L|265:49,6,50,10|8|8|8|8|0|0,3:2|3:2|3:2|3:2|3:2|3:0|3:0,2:0:0:0:
198,116,64515,38,0,P|303:148|380:229,1,225.000008583069,10|0,3:2|3:0,2:0:0:0:
381,229,64902,86,0,P|314:262|273:324,1,150,10|0,3:2|3:0,2:0:0:0:
123,212,65289,6,0,B|56:157|-20:199|-20:199|27:211|24:251|24:251|47:261|47:261|37:284|42:306,1,300.000011444092,6|0,1:2|2:0,2:0:0:0:
209,219,65579,2,0,B|285:177|353:231|353:231|304:235|301:275|301:275|276:281|276:281|282:305|273:325,1,300.000011444092,2|0,2:0|2:0,2:0:0:0:
154,357,65869,2,0,B|123:257|203:264|154:357,1,150.000005722046,2|0,1:2|2:0,2:0:0:0:
0,384,66063,6,0,P|126:308|273:324,1,300.000011444092,8|2,3:2|1:2,2:0:0:0:
450,360,66450,1,2,3:2:0:0:
486,183,66644,1,0,1:0:0:0:
486,183,66740,1,0,3:0:0:0:
486,183,66837,70,0,P|353:247|208:218,1,300.000011444092,0|0,1:0|2:0,2:0:0:0:
272,1,67127,2,0,P|409:56|485:182,1,300.000011444092,0|0,1:0|2:0,2:0:0:0:
273,324,67418,2,0,P|255:253|300:195,1,150.000005722046,2|0,1:2|3:0,2:0:0:0:
486,70,67611,2,0,L|337:55,1,150.000005722046,10|0,3:2|2:0,2:0:0:0:
200,46,67805,1,2,3:2:0:0:
200,46,67902,1,0,2:0:0:0:
200,46,67998,2,0,P|188:68|210:65,6,57.1428571428571,2|0|0|0|0|0|0,3:2|3:0|3:0|3:0|3:0|3:0|3:0,3:0:0:0:
115,105,68386,38,0,P|102:100|92:92,8,25,2|0|0|0|0|0|0|0|0,3:2|3:0|3:0|3:0|3:0|3:0|3:0|3:0|3:0,2:0:0:0:
115,105,68773,86,0,B|121:37|189:18|189:18|60:-1|-30:102|0:214,1,450.000017166138,0|0,1:0|2:0,2:0:0:0:
63,276,69160,2,0,P|200:248|206:109,1,300.000011444092,8|2,3:2|3:2,2:0:0:0:
115,105,69450,2,0,B|82:259|218:222|184:381,1,300.000011444092,0|0,1:0|3:0,2:0:0:0:
93,384,69740,2,0,P|38:340|63:275,1,150.000005722046,2|0,1:2|3:0,2:0:0:0:
290,42,69934,6,0,B|448:-21|448:-21|322:230,1,450.000017166138,2|0,1:2|2:0,2:0:0:0:
368,315,70321,2,0,B|448:363|448:363|390:164,1,300.000011444092,2|2,1:2|3:2,2:0:0:0:
220,100,70611,1,0,2:0:0:0:
220,100,70708,86,0,B|154:124|200:-26|383:64|390:165,1,300.000011444092,2|0,1:2|2:0,2:0:0:0:
236,275,70998,2,0,P|245:132|376:74,1,300.000011444092,2|0,1:2|2:0,2:0:0:0:
479,183,71289,2,0,P|468:251|399:256,1,150.000005722046,0|0,1:0|2:0,2:0:0:0:
141,2,71482,38,0,P|305:144|280:360,1,450.000017166138,4|0,1:2|2:0,2:0:0:0:
84,373,71869,2,0,B|67:291|130:216|195:206|195:206|157:233|157:270,1,300.000011444092,2|2,1:2|2:3,2:0:0:0:
460,378,72256,86,0,B|333:355|333:355|297:380|297:380|171:357,1,300.000011444092,2|0,1:2|2:0,2:0:0:0:
0,191,72547,2,0,P|141:167|236:275,1,300.000011444092,2|0,1:2|2:0,2:0:0:0:
84,373,72837,2,0,P|33:323|60:257,1,150.000005722046,2|0,1:2|2:0,2:0:0:0:
152,26,73031,6,0,B|206:39|221:91|221:91|121:45|27:67,1,300.000011444092,2|2,1:2|2:3,2:0:0:0:
383,209,73418,2,0,B|328:222|313:274|313:274|413:228|507:250,1,300.000011444092,2|2,1:2|2:3,2:0:0:0:
380,384,73805,86,0,P|409:241|317:129,1,300.000011444092,2|0,1:2|2:0,2:0:0:0:
215,111,74095,2,0,B|145:104|98:166|122:227|122:227|145:157|211:161,1,300.000011444092,0|0,1:0|2:0,2:0:0:0:
413,92,74386,2,0,P|434:159|382:208,1,150.000005722046,0|0,1:0|2:0,2:0:0:0:
33,191,74579,38,0,B|-31:214|14:64|198:144|205:247,1,300.000011444092,10|0,1:2|2:0,2:0:0:0:
144,329,74869,2,0,P|71:200|92:54,1,300.000011444092,8|0,1:2|2:0,2:0:0:0:
298,169,75160,2,0,P|276:236|206:247,1,150.000005722046,8|0,1:2|2:0,2:0:0:0:
0,0,75353,1,8,2:0:0:0:
0,0,75547,86,0,B|153:-35|119:101|278:64,1,300.000011444092,0|0,1:0|3:0,2:0:0:0:
416,59,75837,1,0,3:0:0:0:
416,59,75934,2,0,B|417:17|379:-14|346:-14|346:-14|367:-4|371:15,1,150.000005722046,2|0,3:2|3:0,2:0:0:0:
486,130,76127,6,0,P|310:101|204:245,1,375,10|2,3:2|3:2,2:0:0:0:
204,244,76515,86,0,P|339:189|467:257,1,300,8|0,3:2|3:0,2:0:0:0:
467,257,76902,38,0,P|355:263|273:336,1,225.000008583069,10|2,3:2|3:2,2:0:0:0:
274,336,77289,86,0,P|347:341|413:377,1,150,8|0,3:2|3:0,2:0:0:0:
413,377,77676,70,0,B|349:367|328:305|374:285|361:219|288:212|288:212|-28:181|-28:181|13:201|17:241,1,630.00001862526,6|0,1:2|2:0,2:0:0:0:
17,242,78256,54,0,L|11:280,2,25,2|0|0,1:2|2:0|2:0,2:0:0:0:
75,169,78450,70,0,B|180:157|147:245|254:234,1,200,10|0,2:0|2:0,2:0:0:0:
310,159,78740,2,0,B|329:115|382:104|382:104|312:80|267:141,1,225.000008583069,2|0,1:2|2:0,2:0:0:0:
250,318,79031,2,0,L|218:70,1,250,2|0,1:2|2:0,2:0:0:0:
421,33,79418,54,0,B|388:26|376:1|376:1|379:28|355:50,1,112.500004291535,2|0,2:0|1:0,2:0:0:0:
473,170,79611,2,0,B|491:143|514:145|514:145|494:136|490:105,1,100,2|0,2:0|2:0,2:0:0:0:
328,146,79805,2,0,B|343:173|334:187|334:187|348:179|375:193,1,87.500000834465,2|0,1:2|2:0,2:0:0:0:
407,116,79998,1,8,2:0:0:0:
448,321,80192,38,0,P|441:296|426:277,1,50,2|0,2:0|2:0,2:0:0:0:
376,194,80386,2,0,P|345:173|308:173,1,75.0000028610231,2|0,2:0|2:0,2:0:0:0:
211,176,80579,2,0,P|170:202|159:250,1,100,2|0,2:0|2:0,2:0:0:0:
16,332,80773,54,0,B|21:280|-15:253|-15:253|105:266|224:344|224:344|220:297|180:268,1,437.5,2|0,2:0|2:0,2:0:0:0:
158,249,81160,2,0,P|170:202|211:175,1,100,0|0,1:0|2:0,2:0:0:0:
320,257,81353,2,0,L|313:294,2,25,2|0|0,2:0|2:0|2:0,2:0:0:0:
275,100,81547,70,0,B|267:168|405:95|264:-33|188:20,1,225.000008583069,10|0,2:0|2:0,2:0:0:0:
88,79,81837,2,0,B|46:102|45:146|45:146|115:88|197:86,1,250,2|0,1:2|2:0,2:0:0:0:
449,0,82127,2,0,P|402:39|392:100,1,125,2|0,1:2|2:0,2:0:0:0:
406,270,82321,54,0,P|316:359|191:341,1,262.500002503395,2|0,2:0|2:0,2:0:0:0:
275,100,82708,2,0,P|382:76|474:136,1,225.000008583069,2|0,2:0|2:0,2:0:0:0:
198,209,83095,2,0,P|200:116|258:45,1,187.5,2|0,2:0|2:0,2:0:0:0:
402,137,83482,2,0,P|448:195|457:267,1,150,2|0,2:0|2:0,2:0:0:0:
71,235,83869,38,0,B|35:263|-2:255|-2:255|-18:183|32:134|85:144|85:144|54:159|11:114|11:114|15:68|-28:40|-28:40|68:1|132:78|132:78|208:14|297:69|297:69|249:87|245:134|245:134|194:172|166:152|166:152|220:150|262:207|232:275|232:275|194:276|165:242,1,1200.00004577637,6|0,2:0|2:0,2:0:0:0:
