osu file format v14

[General]
AudioFilename: audio.mp3
AudioLeadIn: 1500
PreviewTime: 77093
Countdown: 0
SampleSet: Normal
StackLeniency: 0.7
Mode: 0
LetterboxInBreaks: 0
WidescreenStoryboard: 0

[Editor]
DistanceSpacing: 1
BeatDivisor: 4
GridSize: 4
TimelineZoom: 1.6

[Metadata]
Title:Ai YOU READY Ai Wo READY
TitleUnicode:爱YOU READY爱我READY
Artist:Lv Xing Tuan Yue Dui, Kong Yang
ArtistUnicode:旅行团乐队、孔阳
Creator:tutuhaha
Version:Normal
Source:狐妖小红娘
Tags:Sun Rainbow opening short ver
BeatmapID:1311365
BeatmapSetID:621562

[Difficulty]
HPDrainRate:3
CircleSize:3
OverallDifficulty:3
ApproachRate:4.5
SliderMultiplier:1.1
SliderTickRate:1

[Events]
//Background and Video events
0,0,"bg.jpg",0,0
//Break Periods
//Storyboard Layer 0 (Background)
//Storyboard Layer 1 (Fail)
//Storyboard Layer 2 (Pass)
//Storyboard Layer 3 (Foreground)
//Storyboard Sound Samples

[TimingPoints]
750,340.909090909091,4,1,1,40,1,0
55295,-100,4,2,1,40,0,0
74386,-100,4,1,1,40,0,0
77113,-100,4,1,1,40,0,1
98590,-100,4,1,1,40,0,0
98931,-100,4,1,1,40,0,1
109670,-100,4,1,1,40,0,0
109840,-100,4,2,1,10,0,0

[Colours]
Combo1 : 241,185,67
Combo2 : 223,58,30
Combo3 : 192,192,192

[HitObjects]
468,336,750,6,4,P|476:264|408:176,1,165,4|0,0:0|0:0,0:0:0:0:
320,196,1602,1,0,0:0:0:0:
236,268,1943,1,0,0:0:0:0:
236,268,2113,2,0,P|192:320|140:336,1,110,0|0,0:0|0:0,0:0:0:0:
44,320,2795,1,0,0:0:0:0:
24,212,3136,1,0,0:0:0:0:
12,104,3477,6,4,L|200:108,1,165,4|0,0:0|0:0,0:0:0:0:
288,112,4329,1,0,0:0:0:0:
372,40,4670,1,0,0:0:0:0:
372,40,4840,2,0,P|432:56|480:100,1,110,0|0,0:0|0:0,0:0:0:0:
472,196,5522,1,0,0:0:0:0:
360,196,5863,1,0,0:0:0:0:
248,196,6204,6,4,L|236:372,1,165,4|0,0:0|0:0,0:0:0:0:
128,356,7056,1,0,0:0:0:0:
136,248,7397,1,0,0:0:0:0:
136,248,7568,2,0,B|144:152|144:152|132:116,1,110,0|0,0:0|0:0,0:0:0:0:
108,32,8250,1,0,0:0:0:0:
20,100,8590,1,8,0:0:0:0:
24,208,8931,6,4,L|16:324,1,110,4|8,0:0|0:0,0:0:0:0:
120,280,9613,2,0,P|168:256|288:264,2,165,0|4|0,0:0|0:0|0:0,0:0:0:0:
136,332,10806,2,0,P|216:364|304:360,1,165,0|8,0:0|0:0,0:0:0:0:
396,324,11659,6,4,P|392:248|432:164,1,165,4|0,0:0|0:0,0:0:0:0:
492,80,12511,1,8,0:0:0:0:
388,40,12852,1,0,0:0:0:0:
388,40,13022,2,0,P|328:56|264:40,1,110,0|0,0:0|0:0,0:0:0:0:
172,24,13704,1,0,0:0:0:0:
64,28,14045,1,8,0:0:0:0:
24,132,14386,6,0,L|76:308,1,165,4|0,0:0|0:0,0:0:0:0:
168,344,15238,1,8,0:0:0:0:
164,236,15579,1,0,0:0:0:0:
164,236,15750,2,0,P|136:176|136:120,1,110,0|8,0:0|0:0,0:0:0:0:
180,32,16431,1,0,0:0:0:0:
280,76,16772,1,8,0:0:0:0:
388,56,17113,6,0,P|376:132|288:192,1,165,4|0,0:0|0:0,0:0:0:0:
204,216,17965,1,8,0:0:0:0:
100,180,18306,1,0,0:0:0:0:
180,104,18647,1,0,0:0:0:0:
180,104,18818,2,8,P|248:96|288:64,2,110,8|0|8,0:0|0:0|0:0,0:0:0:0:
72,88,19840,6,4,P|36:148|28:200,1,110,4|8,0:0|0:0,0:0:0:0:
28,296,20522,2,0,P|84:292|192:344,2,165,0|12|8,0:0|0:0|0:0,0:0:0:0:
28,186,21886,2,0,P|96:184|152:196,1,110,0|8,0:0|0:0,0:0:0:0:
248,208,22568,6,4,P|256:148|320:60,1,165,4|0,0:0|0:0,0:0:0:0:
416,24,23420,1,8,0:0:0:0:
408,132,23761,1,0,0:0:0:0:
408,132,23931,2,0,P|404:208|424:252,1,110,0|8,0:0|0:0,0:0:0:0:
476,332,24613,1,0,0:0:0:0:
368,360,24954,1,8,0:0:0:0:
280,292,25295,6,0,P|224:304|136:376,1,165,4|0,0:0|0:0,0:0:0:0:
40,320,26147,1,8,0:0:0:0:
112,236,26488,1,0,0:0:0:0:
112,236,26659,2,0,P|72:188|48:124,1,110,0|8,0:0|0:0,0:0:0:0:
64,36,27340,1,0,0:0:0:0:
172,52,27681,1,8,0:0:0:0:
272,100,28022,6,4,P|276:156|228:264,1,165,4|0,0:0|0:0,0:0:0:0:
160,336,28875,1,8,0:0:0:0:
268,356,29215,1,0,0:0:0:0:
268,356,29386,2,0,P|316:344|392:352,1,110,0|8,0:0|0:0,0:0:0:0:
340,244,30068,6,0,P|300:196|276:84,2,165,0|12|8,0:0|0:0|0:0,0:0:0:0:
420,168,31431,2,0,P|416:96|436:56,1,110,0|8,0:0|0:0,0:0:0:0:
484,40,31943,2,0,P|452:28|312:40,1,165,4|8,0:0|0:0,0:0:0:0:
268,132,32795,1,8,0:0:0:0:
316,232,33136,1,8,0:0:0:0:
360,352,33477,6,4,L|248:352,1,110,4|8,0:0|0:0,0:0:0:0:
140,336,34159,1,0,0:0:0:0:
48,276,34500,1,8,0:0:0:0:
132,204,34840,2,0,P|196:156|220:64,1,165,0|8,0:0|0:0,0:0:0:0:
124,20,35693,1,8,0:0:0:0:
36,84,36034,5,0,0:0:0:0:
36,84,36204,2,4,L|36:208,1,110,4|8,0:0|0:0,0:0:0:0:
68,300,36886,2,0,P|124:292|200:304,1,110,0|8,0:0|0:0,0:0:0:0:
280,256,37568,2,0,P|228:208|132:184,2,165,0|8|8,0:0|0:0|0:0,0:0:0:0:
260,364,38931,5,0,0:0:0:0:
364,332,39272,1,8,0:0:0:0:
280,256,39613,2,0,L|280:128,1,110,0|8,0:0|0:0,0:0:0:0:
368,80,40295,2,0,B|424:132|424:132|520:164,1,165,0|8,0:0|0:0,0:0:0:0:
452,252,41147,1,8,0:0:0:0:
348,216,41488,5,0,0:0:0:0:
348,216,41659,2,4,L|256:132,1,110,4|8,0:0|0:0,0:0:0:0:
216,44,42340,1,0,0:0:0:0:
116,92,42681,1,8,0:0:0:0:
120,204,43022,2,0,P|88:248|88:356,2,165,0|8|8,0:0|0:0|0:0,0:0:0:0:
212,148,44386,5,4,0:0:0:0:
212,260,44727,1,8,0:0:0:0:
308,204,45068,2,0,P|360:168|392:112,1,110,0|8,0:0|0:0,0:0:0:0:
292,72,45750,2,0,P|220:72|128:16,2,165,0|8|8,0:0|0:0|0:0,0:0:0:0:
388,20,47113,5,4,0:0:0:0:
385,129,47454,1,8,0:0:0:0:
484,80,47795,2,0,P|496:124|484:192,1,110,0|8,0:0|0:0,0:0:0:0:
388,236,48477,2,0,P|444:272|484:364,2,165,0|8|8,0:0|0:0|0:0,0:0:0:0:
296,172,49840,6,0,L|168:172,1,110,0|8,0:0|0:0,0:0:0:0:
116,256,50522,2,0,L|-8:256,1,110,0|8,0:0|0:0,0:0:0:0:
68,356,51204,2,0,L|244:356,1,165,0|8,0:0|0:0,0:0:0:0:
300,272,52056,1,8,0:0:0:0:
388,336,52397,5,0,0:0:0:0:
388,336,52568,2,0,P|400:296|464:236,1,110,4|8,0:0|0:0,0:0:0:0:
484,144,53250,2,0,P|424:152|364:136,1,110,0|8,0:0|0:0,0:0:0:0:
288,72,53931,2,4,P|344:40|460:32,2,165,4|8|8,0:0|0:0|0:0,0:0:0:0:
228,164,55295,6,4,P|196:188|16:144,1,220,4|8,0:0|0:1,0:0:0:0:
216,44,56659,1,0,1:0:0:0:
292,248,57340,1,8,0:1:0:0:
460,104,58022,6,0,P|372:92|248:164,2,220,0|8|0,1:0|0:1|1:0,1:0:0:0:
396,316,60068,1,8,0:1:0:0:
180,352,60750,6,4,P|216:288|188:136,1,220,4|8,0:0|0:1,0:0:0:0:
36,300,62113,1,0,1:0:0:0:
40,76,62795,1,8,0:1:0:0:
236,176,63477,6,0,P|260:120|412:32,1,220,0|8,1:0|0:1,1:0:0:0:
404,144,64500,2,0,P|380:200|228:288,1,220,0|0,1:0|1:0,0:0:0:0:
152,240,65522,2,8,P|156:184|88:80,1,165,8|0,0:1|3:3,0:0:0:0:
56,68,66204,6,4,P|168:64|288:20,1,220,4|8,0:0|0:1,0:0:0:0:
388,216,67568,1,0,1:0:0:0:
492,24,68250,1,8,0:1:0:0:
276,72,68931,6,0,P|280:144|228:296,2,220,0|8|0,1:0|0:1|1:0,1:0:0:0:
56,44,70977,1,8,0:1:0:0:
112,256,71659,6,4,P|184:248|284:280,2,165,4|0|0,0:0|3:3|3:3,0:0:0:0:
44,168,73022,1,0,3:3:0:0:
44,168,73193,2,8,P|80:148|216:136,1,165,8|0,0:1|3:3,0:1:0:0:
308,152,74045,1,0,3:3:0:0:
396,88,74386,1,4,0:0:0:0:
256,192,74471,12,0,75750,0:0:0:0:
232,348,77113,6,4,P|140:292|104:220,2,165,4|8|8,0:0|0:0|0:0,0:0:0:0:
268,239,78477,2,0,P|240:171|236:111,1,110,0|8,0:0|0:0,0:0:0:0:
268,32,79159,1,0,0:0:0:0:
340,116,79500,1,8,0:0:0:0:
235,135,79840,6,0,P|184:104|128:88,1,110,4|8,0:0|0:0,0:0:0:0:
36,136,80522,2,0,L|28:260,1,110,0|8,0:0|0:0,0:0:0:0:
24,300,81034,2,0,P|92:300|172:248,1,165,0|8,0:0|0:0,0:0:0:0:
268,196,81886,1,0,0:0:0:0:
176,136,82227,1,8,0:0:0:0:
276,88,82568,6,0,P|240:48|112:40,2,165,0|8|8,0:0|0:0|0:0,0:0:0:0:
268,196,83931,2,0,L|388:176,1,110,0|0,0:0|0:0,0:0:0:0:
484,156,84613,1,0,0:0:0:0:
416,72,84954,1,8,0:0:0:0:
376,177,85295,6,4,P|376:248|400:296,1,110,4|8,0:0|0:0,0:0:0:0:
300,348,85977,2,0,P|248:316|176:308,1,110,0|8,0:0|0:0,0:0:0:0:
148,324,86488,2,0,P|212:264|228:176,1,165,0|8,0:0|0:0,0:0:0:0:
172,96,87340,1,0,0:0:0:0:
120,192,87681,1,8,0:0:0:0:
229,191,88022,6,4,P|280:220|404:212,2,165,4|8|8,0:0|0:0|0:0,0:0:0:0:
120,192,89386,2,0,P|64:172|8:176,1,110,0|8,0:0|0:0,0:0:0:0:
48,280,90068,1,0,0:0:0:0:
152,308,90409,1,8,0:0:0:0:
236,236,90750,6,0,P|276:280|296:352,1,110,4|8,0:0|0:0,0:0:0:0:
396,284,91431,2,0,P|380:232|340:180,1,110,0|0,0:0|0:0,0:0:0:0:
300,156,91943,2,0,P|316:116|432:48,1,165,0|8,0:0|0:0,0:0:0:0:
456,152,92795,1,0,0:0:0:0:
420,256,93136,1,8,0:0:0:0:
308,256,93477,6,0,P|236:264|148:324,2,165,0|8|8,0:0|0:0|0:0,0:0:0:0:
232,176,94840,2,0,P|176:192|124:224,1,110,0|8,0:0|0:0,0:0:0:0:
48,288,95522,1,0,0:0:0:0:
32,180,95863,5,8,0:0:0:0:
32,180,96034,2,0,P|72:136|104:32,1,165,4|8,0:0|0:0,0:0:0:0:
212,40,96886,2,0,P|260:52|328:44,1,110,0|8,0:0|0:0,0:0:0:0:
372,32,97397,2,0,P|392:111|443:175,1,165,0|8,0:0|0:0,0:0:0:0:
472,284,98250,1,8,0:0:0:0:
368,252,98590,1,8,0:0:0:0:
384,360,98931,6,12,L|248:360,1,110,12|8,0:0|0:0,0:0:0:0:
192,284,99613,2,8,L|64:284,1,110
40,180,100295,2,8,L|168:180,1,110
156,68,100977,2,8,L|272:68,1,110
352,136,101659,6,12,B|360:200|380:256|380:256|404:296|404:296|412:360,2,220,12|8|8,0:0|0:0|0:0,0:0:0:0:
364,28,103363,1,8,0:0:0:0:
266,68,103704,2,8,L|156:68,1,110
84,152,104386,6,12,P|64:192|72:272,1,110,12|8,0:0|0:0,0:0:0:0:
164,308,105068,2,8,P|184:268|176:188,1,110
280,152,105750,2,8,P|282:196|329:261,1,110
427,247,106431,2,8,P|424:202|377:137,1,110
332,56,107113,6,0,B|260:68|260:68|200:60|140:36|104:60,2,220,12|8|8,0:0|0:0|0:0,0:0:0:0:
444,52,108818,1,8,0:0:0:0:
390,147,109159,2,8,P|421:192|427:247,1,110,8|8,0:0|0:0,0:0:0:0:
404,296,109670,1,8,0:0:0:0:
256,192,109840,12,0,112227,0:0:0:0:
