osu file format v14

[General]
AudioFilename: audio.mp3
AudioLeadIn: 0
PreviewTime: 12620
Countdown: 1
SampleSet: Normal
StackLeniency: 0.7
Mode: 0
LetterboxInBreaks: 0
WidescreenStoryboard: 1

[Editor]
Bookmarks: 48620
DistanceSpacing: 0.7
BeatDivisor: 4
GridSize: 4
TimelineZoom: 1

[Metadata]
Title:Blowin' in The Mind
TitleUnicode:Blowin' in The Mind
Artist:Kong Hyeokjun
ArtistUnicode:공혁준
Creator:jieusieu
Version:nyan
Source:
Tags:양자택일
BeatmapID:1152904
BeatmapSetID:543699

[Difficulty]
HPDrainRate:5
CircleSize:4
OverallDifficulty:5
ApproachRate:8.3
SliderMultiplier:1.7
SliderTickRate:1

[Events]
//Background and Video events
Video,0,"dance.mp4"
0,0,"BG.jpg",0,0
//Break Periods
2,24817,34370
2,48817,53870
2,74129,80819
//Storyboard Layer 0 (Background)
//Storyboard Layer 1 (Fail)
//Storyboard Layer 2 (Pass)
//Storyboard Layer 3 (Foreground)
//Storyboard Sound Samples

[TimingPoints]
617,375,4,1,0,100,1,0
54617,-100,4,1,0,80,0,0
66992,-100,4,1,0,60,0,0
73929,-100,4,1,0,100,0,0

[HitObjects]
96,284,617,6,0,L|72:80,1,170
224,196,1367,1,0,0:0:0:0:
244,112,1554,1,0,0:0:0:0:
332,256,1929,2,0,L|148:280,1,170
68,136,2679,1,0,0:0:0:0:
132,80,2867,2,0,L|300:102,1,170
364,48,3429,1,0,0:0:0:0:
440,84,3617,2,0,L|420:268,1,170
260,300,4367,1,0,0:0:0:0:
272,384,4554,1,0,0:0:0:0:
432,324,4929,2,0,L|244:344,1,170
164,204,5679,1,0,0:0:0:0:
192,284,5867,2,0,B|164:288|144:308|144:308|128:280|96:268|96:268|92:240|78:219,1,170
168,76,6617,2,0,L|356:64,1,170
420,216,7367,1,0,0:0:0:0:
336,204,7554,1,0,0:0:0:0:
216,324,7929,2,0,L|200:152,1,170
336,56,8679,1,0,0:0:0:0:
408,104,8867,2,0,L|392:273,1,170
348,348,9429,1,0,0:0:0:0:
268,316,9617,2,0,L|84:300,1,170
76,132,10367,1,0,0:0:0:0:
132,196,10554,1,0,0:0:0:0:
228,56,10929,2,0,L|216:236,1,170
288,384,11492,2,0,L|294:299,1,85
360,132,11867,2,0,L|370:258,1,127.5
396,292,12242,2,0,L|441:204,1,85
504,168,12617,1,0,0:0:0:0:
144,312,12992,5,10,0:0:0:0:
116,204,13367,1,10,0:0:0:0:
236,252,13929,1,10,0:0:0:0:
264,132,14304,1,10,0:0:0:0:
352,224,14679,1,10,0:0:0:0:
376,128,14867,1,10,0:0:0:0:
244,68,15242,1,10,0:0:0:0:
140,100,15992,1,10,0:0:0:0:
200,280,16367,1,10,0:0:0:0:
320,240,16742,5,0,0:0:0:0:
412,352,16929,2,0,L|424:176,1,170
224,72,17492,2,0,L|248:264,1,170
116,120,18054,1,0,0:0:0:0:
132,160,18148,1,0,0:0:0:0:
140,204,18242,1,0,0:0:0:0:
132,244,18335,1,0,0:0:0:0:
124,288,18429,1,0,0:0:0:0:
140,328,18523,1,0,0:0:0:0:
172,352,18617,1,0,0:0:0:0:
144,312,18992,5,10,0:0:0:0:
116,204,19367,1,10,0:0:0:0:
236,252,19929,1,10,0:0:0:0:
264,132,20304,1,10,0:0:0:0:
352,224,20679,1,10,0:0:0:0:
376,128,20867,1,10,0:0:0:0:
140,100,21992,1,10,0:0:0:0:
200,280,22367,1,10,0:0:0:0:
320,240,22742,5,0,0:0:0:0:
412,352,22929,2,0,L|228:336,1,170
128,188,23492,2,0,L|312:180,1,170
464,64,24054,1,0,0:0:0:0:
456,104,24148,1,0,0:0:0:0:
464,144,24242,1,0,0:0:0:0:
472,184,24335,1,0,0:0:0:0:
468,228,24429,1,0,0:0:0:0:
428,244,24523,1,0,0:0:0:0:
396,276,24617,1,0,0:0:0:0:
168,284,35117,6,0,L|180:124,1,127.5
288,80,35492,2,0,L|300:232,1,127.5
344,280,35867,1,0,0:0:0:0:
400,140,36054,1,0,0:0:0:0:
404,172,36148,1,0,0:0:0:0:
416,224,36242,1,0,0:0:0:0:
444,272,36335,1,0,0:0:0:0:
460,312,36429,1,0,0:0:0:0:
464,336,36523,1,0,0:0:0:0:
420,364,36617,2,0,L|240:336,1,170
108,208,37179,2,0,L|316:176,1,170
132,360,37742,1,0,0:0:0:0:
404,116,38117,2,0,L|224:88,1,170
300,296,38679,2,0,L|508:264,1,170
224,168,39242,1,0,0:0:0:0:
144,312,39992,5,10,0:0:0:0:
116,204,40367,1,10,0:0:0:0:
236,252,40929,1,10,0:0:0:0:
264,132,41304,1,10,0:0:0:0:
352,224,41679,1,10,0:0:0:0:
376,128,41867,1,10,0:0:0:0:
244,68,42242,5,0,0:0:0:0:
228,92,42335,1,0,0:0:0:0:
224,120,42429,1,0,0:0:0:0:
216,148,42523,1,0,0:0:0:0:
220,176,42617,2,0,L|80:316,1,170
280,376,43179,2,0,L|408:248,1,170
184,344,43742,1,0,0:0:0:0:
372,144,44117,2,0,L|204:40,1,170
288,236,44679,2,0,L|456:312,1,170
248,324,45242,1,0,0:0:0:0:
144,312,45992,5,10,0:0:0:0:
116,204,46367,1,10,0:0:0:0:
232,172,46929,5,0,0:0:0:0:
384,224,47304,1,0,0:0:0:0:
356,136,47492,1,0,0:0:0:0:
184,104,47679,1,0,0:0:0:0:
300,68,47867,1,0,0:0:0:0:
192,224,48054,1,0,0:0:0:0:
252,288,48242,1,0,0:0:0:0:
296,308,48335,1,0,0:0:0:0:
344,300,48429,1,0,0:0:0:0:
404,300,48523,1,0,0:0:0:0:
464,324,48617,1,0,0:0:0:0:
152,132,54617,6,0,P|72:140|16:76,1,170,4|10,0:0|0:0,0:0:0:0:
196,56,55179,1,8,0:0:0:0:
296,208,55367,2,0,P|340:184|388:180,1,85,2|0,0:0|0:0,0:0:0:0:
248,372,55742,1,8,0:0:0:0:
456,208,55929,6,0,L|436:24,1,170,6|2,0:0|0:0,0:0:0:0:
216,148,56492,1,8,0:0:0:0:
388,260,56679,1,2,0:0:0:0:
220,236,56867,1,2,0:0:0:0:
436,332,57054,1,0,0:0:0:0:
156,304,57242,1,8,0:0:0:0:
456,208,57429,1,0,0:0:0:0:
184,48,57617,6,0,P|180:100|176:132,1,85,4|0,0:0|0:0,0:0:0:0:
332,380,57992,2,0,P|335:337|340:295,1,85,8|8,0:0|0:0,0:0:0:0:
108,188,58367,1,4,0:0:0:0:
404,236,58554,1,0,0:0:0:0:
164,364,58742,1,8,0:0:0:0:
356,164,58929,6,0,P|436:156|492:220,1,170,4|0,0:0|0:0,0:0:0:0:
196,220,59492,2,0,P|188:172|184:132,1,85,10|0,0:0|0:0,0:0:0:0:
320,328,59867,1,2,0:0:0:0:
220,56,60054,1,8,0:3:0:0:
192,60,60148,1,8,0:3:0:0:
164,64,60242,1,8,0:3:0:0:
136,68,60335,1,8,0:3:0:0:
108,72,60429,1,8,0:3:0:0:
80,76,60523,1,8,0:3:0:0:
52,80,60617,6,0,P|44:160|32:264,1,170,4|10,0:0|0:0,0:0:0:0:
184,356,61179,1,8,0:0:0:0:
316,200,61367,2,0,P|276:200|232:184,1,85,2|0,0:0|0:0,0:0:0:0:
420,316,61742,1,8,0:0:0:0:
396,60,61929,6,0,P|392:92|386:144,1,85,2|0,0:0|0:0,0:0:0:0:
148,248,62304,2,0,P|132:200|138:163,1,85,2|8,0:0|0:0,0:0:0:0:
344,360,62679,1,2,0:0:0:0:
308,96,62867,1,2,0:0:0:0:
328,372,63054,1,0,0:0:0:0:
216,192,63242,1,8,0:0:0:0:
312,384,63429,1,0,0:0:0:0:
44,272,63617,6,0,P|84:276|144:288,1,85,4|0,0:0|0:0,0:0:0:0:
420,188,63992,2,0,P|380:184|320:172,1,85,10|8,0:0|0:0,0:0:0:0:
192,356,64367,1,2,0:0:0:0:
140,116,64554,1,0,0:0:0:0:
364,260,64742,1,8,0:0:0:0:
168,36,64929,6,0,P|256:28|356:12,1,170,4|0,0:0|0:0,0:0:0:0:
504,140,65492,2,0,L|512:228,1,85,8|2,0:0|0:0,0:0:0:0:
336,364,65867,1,2,0:0:0:0:
428,192,66054,1,0,0:0:0:0:
168,272,66242,1,2,0:3:0:0:
168,272,66335,1,2,0:3:0:0:
168,272,66429,1,8,0:3:0:0:
168,272,66523,1,4,0:3:0:0:
168,272,66617,6,0,P|88:280|32:216,1,170,4|10,0:0|0:0,0:0:0:0:
220,200,67179,1,8,0:0:0:0:
328,372,67367,2,0,P|332:320|352:280,1,85,2|0,0:0|0:0,0:0:0:0:
488,132,67742,1,8,0:0:0:0:
208,30,67929,6,0,L|220:206,1,170,2|2,0:0|0:0,0:0:0:0:
428,260,68492,1,8,0:0:0:0:
288,72,68679,1,2,0:0:0:0:
412,348,68867,1,2,0:0:0:0:
372,92,69054,1,0,0:0:0:0:
345,290,69242,1,8,0:0:0:0:
424,28,69429,1,0,0:0:0:0:
264,324,69617,6,0,P|266:281|271:239,1,85,4|0,0:0|0:0,0:0:0:0:
92,32,69992,2,0,P|89:74|84:116,1,85,8|8,0:0|0:0,0:0:0:0:
328,176,70367,1,4,0:0:0:0:
136,356,70554,1,0,0:0:0:0:
172,80,70742,1,8,0:0:0:0:
416,160,70929,6,0,P|361:98|280:105,1,170,4|0,0:0|0:0,0:0:0:0:
88,276,71492,2,0,L|196:264,1,85,10|0,0:0|0:0,0:0:0:0:
344,372,71867,1,2,0:0:0:0:
172,80,72054,1,8,0:3:0:0:
168,108,72148,1,8,0:3:0:0:
164,136,72242,1,8,0:3:0:0:
160,164,72335,1,8,0:3:0:0:
156,192,72429,1,8,0:3:0:0:
152,220,72523,1,8,0:3:0:0:
148,248,72617,6,0,L|332:228,1,170,4|10,0:0|0:0,0:0:0:0:
248,380,73179,1,8,0:0:0:0:
460,320,73367,2,0,P|428:304|376:300,1,85,2|0,0:0|0:0,0:0:0:0:
116,332,73742,1,8,0:0:0:0:
464,112,73929,5,12,0:0:0:0:
118,92,81523,5,6,0:0:0:0:
425,192,81992,5,6,0:0:0:0:
118,291,82460,5,6,0:0:0:0:
308,30,83585,5,6,0:0:0:0:
308,353,85273,5,6,0:0:0:0:
256,192,86398,12,4,89398,0:0:0:0:
