osu file format v14

[General]
AudioFilename: audio.mp3
AudioLeadIn: 0
PreviewTime: 55112
Countdown: 0
SampleSet: Soft
StackLeniency: 0.7
Mode: 0
LetterboxInBreaks: 0
WidescreenStoryboard: 1

[Editor]
Bookmarks: 22038,44169
DistanceSpacing: 0.8
BeatDivisor: 4
GridSize: 32
TimelineZoom: 1.6

[Metadata]
Title:Kayf ty poymala (Cut Ver.)
TitleUnicode:Кайф ты поймала (Cut Ver.)
Artist:Konfuz
ArtistUnicode:Konfuz
Creator:wajinshu
Version:Normal
Source:
Tags:конфуз русский поп russian pop schoolboy Dystonia Komore
BeatmapID:3515775
BeatmapSetID:1351339

[Difficulty]
HPDrainRate:3
CircleSize:3.1
OverallDifficulty:3
ApproachRate:5
SliderMultiplier:1.1
SliderTickRate:1

[Events]
//Background and Video events
0,0,"bg.jpg",0,0
//Break Periods
2,44363,48360
2,77467,81464
//Storyboard Layer 0 (Background)
//Storyboard Layer 1 (Fail)
//Storyboard Layer 2 (Pass)
//Storyboard Layer 3 (Foreground)
//Storyboard Layer 4 (Overlay)
//Storyboard Sound Samples

[TimingPoints]
9681,344.827586206896,4,2,1,60,1,0
10715,-100,4,2,1,50,0,0
11060,-100,4,2,3,40,0,0
15715,-100,4,2,3,55,0,0
15801,-100,4,2,3,40,0,0
17094,-100,4,2,3,55,0,0
17180,-100,4,2,3,40,0,0
19336,-100,4,2,3,60,0,0
19422,-100,4,2,3,40,0,0
20715,-100,4,2,3,60,0,0
20801,-100,4,2,3,40,0,0
21407,-100,4,2,3,40,0,0
21922,-100,4,2,3,40,0,0
22094,-100,4,2,1,60,0,1
24767,-100,4,2,1,5,0,1
24853,-100,4,2,1,60,0,1
27870,-100,4,2,1,5,0,1
27956,-100,4,2,1,60,0,1
29939,-100,4,2,1,5,0,1
30025,-100,4,2,1,60,0,1
30370,-100,4,2,6,60,0,1
30456,-100,4,2,1,60,0,1
31663,-100,4,2,1,5,0,1
31749,-100,4,2,1,55,0,1
32094,-100,4,2,1,60,0,1
32956,-100,4,2,1,50,0,1
33129,-100,4,2,1,60,0,0
34077,-100,4,2,1,5,0,0
34163,-100,4,2,1,60,0,0
35801,-100,4,2,1,5,0,0
35887,-100,4,2,1,60,0,0
38215,-100,4,2,1,5,0,0
38301,-100,4,2,1,60,0,0
39594,-100,4,2,1,5,0,0
39680,-100,4,2,1,60,0,0
41318,-100,4,2,1,5,0,0
41404,-100,4,2,1,60,0,0
43732,-100,4,2,1,5,0,0
43818,-100,4,2,1,60,0,0
52784,-100,4,2,1,45,0,0
53474,-100,4,2,1,47,0,0
54163,-100,4,2,1,55,0,0
55198,-100,4,2,1,60,0,1
56836,-100,4,2,1,5,0,1
56922,-100,4,2,1,60,0,1
57870,-100,4,2,1,5,0,1
57956,-100,4,2,1,60,0,1
60284,-100,4,2,1,5,0,1
60370,-100,4,2,1,60,0,1
61663,-100,4,2,1,5,0,1
61749,-100,4,2,1,60,0,1
63387,-100,4,2,1,5,0,1
63473,-100,4,2,1,60,0,1
65801,-100,4,2,1,5,0,1
65887,-100,4,2,1,60,0,0
66146,-100,4,2,1,5,0,0
66232,-100,4,2,1,60,0,1
67870,-100,4,2,1,5,0,1
67956,-100,4,2,1,60,0,1
68905,-100,4,2,1,5,0,1
68991,-100,4,2,1,60,0,1
70974,-100,4,2,1,5,0,1
71060,-100,4,2,1,60,0,1
71663,-100,4,2,1,5,0,1
71749,-100,4,2,1,60,0,1
73387,-100,4,2,1,5,0,1
73473,-100,4,2,1,60,0,1
74077,-100,4,2,1,5,0,1
74163,-100,4,2,1,60,0,1
76664,-100,4,2,1,5,0,1
76750,-100,4,2,1,60,0,1
77009,-100,4,2,1,5,0,1
77095,-100,4,2,1,60,0,1
77267,-100,4,2,1,60,0,0
86232,-100,4,2,1,60,0,0
87267,-100,4,2,1,55,0,0
88301,-100,4,2,1,45,0,0

[Colours]
Combo1 : 158,241,248
Combo2 : 218,184,248
Combo3 : 255,184,149
Combo4 : 155,255,181

[HitObjects]
92,27,10198,6,0,P|106:63|113:87,1,55,8|8,0:1|0:1,0:0:0:0:
125,165,10715,1,8,0:1:0:0:
205,130,11060,6,0,P|284:107|360:156,2,165,4|0|0,0:0|0:0|0:0,0:0:0:0:
206,218,12439,2,0,P|224:269|241:347,1,110
324,338,13129,1,0,0:0:0:0:
405,303,13474,2,0,P|413:236|427:182,1,110,0|2,0:0|3:0,0:0:0:0:
467,118,14163,6,0,P|481:65|435:23,1,110
361,47,14853,1,0,0:0:0:0:
276,73,15198,2,0,P|233:48|111:15,2,165,2|2|0,3:0|3:0|0:0,0:0:0:0:
324,146,16577,6,0,P|367:121|489:88,2,165,2|2|2,3:0|3:0|3:0,0:0:0:0:
250,194,17956,1,0,0:0:0:0:
162,183,18301,1,0,0:0:0:0:
100,245,18646,2,0,P|76:190|89:132,1,110
162,183,19336,6,0,P|228:181|269:202,1,110,2|0,3:0|0:0,0:0:0:0:
305,220,19853,1,0,0:0:0:0:
346,236,20025,2,0,P|412:238|453:217,1,110
503,148,20715,1,2,3:0:0:0:
473,64,21060,1,6,3:0:0:0:
386,82,21405,2,0,P|337:92|281:70,1,110
196,57,22094,6,0,P|147:47|91:69,1,110,6|2,3:2|0:0,0:0:0:0:
59,97,22612,2,0,P|67:143|80:209,1,110,10|0,0:0|0:0,0:0:0:0:
92,247,23129,1,10,0:0:0:0:
161,309,23474,1,6,2:3:0:0:
161,309,23646,2,0,P|211:293|282:318,1,110,8|8,0:0|0:0,0:0:0:0:
306,323,24163,1,6,2:3:0:0:
384,283,24508,1,10,0:0:0:0:
310,234,24853,6,0,L|293:115,1,110,6|2,2:3|0:0,0:0:0:0:
283,82,25370,1,10,0:0:0:0:
283,82,25543,2,0,P|208:96|166:71,1,110,6|10,2:3|0:0,0:0:0:0:
229,9,26232,1,6,2:3:0:0:
229,9,26405,2,0,P|280:-5|332:9,1,110,8|8,0:0|0:0,0:0:0:0:
371,30,26922,2,0,P|359:85|348:147,1,110,6|10,2:3|0:0,0:0:0:0:
407,204,27612,5,6,2:3:0:0:
345,266,27956,2,0,P|336:304|334:326,1,55,2|10,0:0|0:0,0:0:0:0:
365,351,28301,2,0,P|308:355|255:369,1,110,6|10,2:3|0:0,0:0:0:0:
170,353,28991,1,6,2:3:0:0:
170,353,29163,2,0,P|185:308|167:248,1,110,8|10,0:0|0:0,0:0:0:0:
134,220,29680,2,0,L|159:101,1,110,6|10,2:3|0:0,0:0:0:0:
124,29,30370,5,2,3:2:0:0:
51,78,30715,2,0,P|60:116|63:142,1,55,2|10,0:0|0:0,0:0:0:0:
47,173,31060,2,0,P|26:224|12:283,1,110,6|10,2:3|0:0,0:0:0:0:
89,320,31749,1,6,3:0:0:0:
157,264,32094,2,0,P|196:257|220:255,1,55,8|8,0:1|0:1,0:0:0:0:
277,197,32612,2,0,L|398:216,1,110,8|8,0:1|0:1,0:0:0:0:
429,216,33129,5,6,2:3:0:0:
437,303,33474,2,0,P|414:339|406:359,1,55,2|2,0:0|0:0,0:0:0:0:
369,365,33818,2,0,P|318:344|265:358,1,110,10|2,0:0|0:0,0:0:0:0:
212,287,34508,1,6,2:3:0:0:
126,317,34853,1,2,0:0:0:0:
45,282,35198,2,0,P|40:306|23:335,2,55,10|0|2,0:0|0:0|0:0,0:0:0:0:
114,221,35887,5,6,2:3:0:0:
137,136,36232,2,0,P|98:141|69:144,1,55,2|2,0:0|0:0,0:0:0:0:
50,111,36577,2,0,P|29:60|63:2,1,110,10|2,0:0|0:0,0:0:0:0:
136,25,37267,2,0,P|177:17|197:16,1,55,6|2,2:3|0:0,0:0:0:0:
233,26,37612,1,2,0:0:0:0:
292,90,37956,2,0,P|367:86|407:79,1,110,10|2,0:0|0:0,0:0:0:0:
489,82,38646,6,0,P|474:144|470:215,1,110,6|2,2:3|0:0,0:0:0:0:
493,227,39163,1,2,0:0:0:0:
493,227,39336,2,0,P|411:249|385:266,1,110,10|2,0:0|0:0,0:0:0:0:
324,321,40025,1,6,2:3:0:0:
248,365,40370,2,0,P|237:317|261:259,1,110,2|10,0:0|0:0,0:0:0:0:
285,226,40887,1,0,0:0:0:0:
316,194,41060,1,2,0:0:0:0:
281,113,41405,5,6,2:3:0:0:
231,40,41749,2,0,P|189:55|167:61,1,55,2|2,0:0|0:0,0:0:0:0:
148,90,42094,2,0,P|55:115|28:111,1,110,10|2,0:0|0:0,0:0:0:0:
45,202,42784,1,2,2:3:0:0:
45,202,42956,2,0,P|115:207|158:221,1,110,2|2,0:0|0:0,0:0:0:0:
185,248,43474,1,10,0:0:0:0:
256,299,43818,1,2,0:0:0:0:
329,250,44163,5,6,3:2:0:0:
256,192,49680,12,2,53818,3:0:0:0:
108,333,55198,6,0,P|83:284|97:217,1,110,6|2,0:0|0:0,0:0:0:0:
106,190,55715,1,2,0:0:0:0:
106,190,55887,2,0,L|225:204,1,110,10|2,0:0|0:0,0:0:0:0:
303,211,56577,1,6,2:3:0:0:
327,126,56922,1,2,0:0:0:0:
277,52,57267,2,0,P|283:25|290:-1,2,55,10|0|2,0:0|0:0|0:0,0:0:0:0:
202,94,57956,6,0,P|213:150|214:212,1,110,6|2,2:3|0:0,0:0:0:0:
187,238,58474,1,2,0:0:0:0:
187,238,58646,2,0,P|149:221|74:237,1,110,10|2,0:0|0:0,0:0:0:0:
36,307,59336,1,6,2:3:0:0:
36,307,59508,2,0,P|81:322|141:358,1,110,2|2,0:0|0:0,0:0:0:0:
178,348,60025,1,10,0:0:0:0:
264,330,60370,1,2,0:0:0:0:
319,261,60715,6,0,P|365:271|437:302,1,110,6|2,2:3|0:0,0:0:0:0:
454,263,61232,1,2,0:0:0:0:
454,263,61405,2,0,P|470:222|448:151,1,110,10|2,0:0|0:0,0:0:0:0:
440,72,62094,2,0,P|375:84|321:76,1,110,6|2,2:3|0:0,0:0:0:0:
243,71,62784,2,0,P|248:34|256:8,2,55,10|0|2,0:0|0:0|0:0,0:0:0:0:
225,156,63474,6,0,P|121:174|64:221,1,165,6|2,2:3|0:0,0:0:0:0:
36,186,64163,2,0,P|19:142|47:73,1,110,10|2,0:0|0:0,0:0:0:0:
105,27,64853,1,6,2:3:0:0:
105,27,65025,2,0,L|218:53,1,110,2|2,0:0|0:0,0:0:0:0:
254,37,65543,1,10,0:0:0:0:
341,46,65887,1,2,0:0:0:0:
358,131,66232,6,0,P|334:202|376:285,1,165,6|2,2:3|0:0,0:0:0:0:
414,285,66922,1,10,0:0:0:0:
443,199,67267,1,2,0:0:0:0:
375,142,67612,2,0,P|287:160|246:161,1,110,6|0,2:3|0:0,0:0:0:0:
197,214,68301,2,0,P|208:254|209:280,2,55,10|0|2,0:0|0:0|0:0,0:0:0:0:
147,140,68991,6,0,P|76:127|4:184,1,165,6|2,2:3|0:0,0:0:0:0:
1,223,69680,1,10,0:0:0:0:
73,273,70025,1,2,0:0:0:0:
148,317,70370,2,0,P|142:350|137:377,2,55,6|2|2,2:3|0:0|0:0,0:0:0:0:
225,275,71060,1,10,0:0:0:0:
308,303,71405,1,2,0:0:0:0:
379,252,71749,6,0,B|430:237|430:237|489:259,1,110,6|0,2:3|0:0,0:0:0:0:
486,212,72267,1,2,0:0:0:0:
486,212,72439,2,0,P|452:158|458:97,1,110,10|2,0:0|0:0,0:0:0:0:
387,53,73129,2,0,P|332:37|267:48,1,110,6|2,2:3|0:0,0:0:0:0:
198,75,73818,2,0,P|171:88|137:95,1,55,10|0,0:0|0:0,0:0:0:0:
107,73,74163,1,2,0:0:0:0:
52,141,74508,6,0,B|68:210|68:210|59:255|59:255|68:313,1,165,6|2,2:3|0:0,0:0:0:0:
83,343,75198,2,0,P|157:324|201:340,1,110,10|2,0:0|0:0,0:0:0:0:
269,301,75887,2,0,P|303:310|328:318,1,55,6|2,2:3|0:0,0:0:0:0:
365,306,76232,2,0,P|403:297|435:291,1,55,2|2,0:0|0:0,0:0:0:0:
462,294,76577,2,0,P|485:217|474:184,1,110,10|2,0:0|0:0,0:0:0:0:
428,117,77267,1,4,0:0:0:0:
256,192,82784,12,2,85543,3:0:0:0:
94,249,87267,6,0,P|134:246|163:240,1,55,8|8,0:1|0:1,0:0:0:0:
225,199,87784,2,0,P|288:211|348:231,1,110,8|8,0:1|0:1,0:0:0:0:
371,243,88301,1,6,2:3:0:0:
