osu file format v14

[General]
AudioFilename: audio.mp3
AudioLeadIn: 0
PreviewTime: 55112
Countdown: 0
SampleSet: Soft
StackLeniency: 0.7
Mode: 0
LetterboxInBreaks: 0
WidescreenStoryboard: 1

[Editor]
Bookmarks: 22038,44169
DistanceSpacing: 1.3
BeatDivisor: 4
GridSize: 32
TimelineZoom: 2.3

[Metadata]
Title:Kayf ty poymala (Cut Ver.)
TitleUnicode:Кайф ты поймала (Cut Ver.)
Artist:Konfuz
ArtistUnicode:Konfuz
Creator:wajinshu
Version:Hard
Source:
Tags:конфуз русский поп russian pop schoolboy Dystonia Komore
BeatmapID:3515770
BeatmapSetID:1351339

[Difficulty]
HPDrainRate:6
CircleSize:4
OverallDifficulty:5
ApproachRate:7
SliderMultiplier:1.45
SliderTickRate:1

[Events]
//Background and Video events
0,0,"bg.jpg",0,0
//Break Periods
2,44363,48780
2,77466,81884
//Storyboard Layer 0 (Background)
//Storyboard Layer 1 (Fail)
//Storyboard Layer 2 (Pass)
//Storyboard Layer 3 (Foreground)
//Storyboard Layer 4 (Overlay)
//Storyboard Sound Samples

[TimingPoints]
9681,344.827586206896,4,2,1,60,1,0
10715,-100,4,2,1,50,0,0
11060,-200,4,2,3,40,0,0
15715,-200,4,2,3,55,0,0
15801,-200,4,2,3,40,0,0
17094,-200,4,2,3,55,0,0
17180,-200,4,2,3,40,0,0
19336,-200,4,2,3,60,0,0
19422,-200,4,2,3,40,0,0
20715,-200,4,2,3,60,0,0
20801,-200,4,2,3,40,0,0
21405,-117.647058823529,4,2,3,40,0,0
22094,-100,4,2,1,60,0,1
24767,-100,4,2,1,5,0,1
24853,-100,4,2,1,60,0,1
27870,-100,4,2,1,5,0,1
27956,-100,4,2,1,60,0,1
29939,-100,4,2,1,5,0,1
30025,-100,4,2,1,60,0,1
30370,-100,4,2,6,60,0,1
30456,-100,4,2,1,60,0,1
31663,-100,4,2,1,5,0,1
31749,-133.333333333333,4,2,1,55,0,1
32094,-133.333333333333,4,2,1,60,0,1
32956,-133.333333333333,4,2,1,50,0,1
33129,-100,4,2,1,60,0,0
34077,-100,4,2,1,5,0,0
34163,-100,4,2,1,60,0,0
35801,-100,4,2,1,5,0,0
35887,-100,4,2,1,60,0,0
38215,-100,4,2,1,5,0,0
38301,-100,4,2,1,60,0,0
39594,-100,4,2,1,5,0,0
39680,-100,4,2,1,60,0,0
41318,-100,4,2,1,5,0,0
41404,-100,4,2,1,60,0,0
43732,-100,4,2,1,5,0,0
43818,-100,4,2,1,60,0,0
52784,-181.818181818181,4,2,1,45,0,0
53474,-181.818181818181,4,2,1,47,0,0
54163,-181.818181818181,4,2,1,55,0,0
55198,-100,4,2,1,60,0,1
56836,-100,4,2,1,5,0,1
56922,-100,4,2,1,60,0,1
57870,-100,4,2,1,5,0,1
57956,-100,4,2,1,60,0,1
60284,-100,4,2,1,5,0,1
60370,-100,4,2,1,60,0,1
61663,-100,4,2,1,5,0,1
61749,-100,4,2,1,60,0,1
63387,-100,4,2,1,5,0,1
63473,-100,4,2,1,60,0,1
65801,-100,4,2,1,5,0,1
65887,-100,4,2,1,60,0,0
66146,-100,4,2,1,5,0,0
66232,-100,4,2,1,60,0,1
67870,-100,4,2,1,5,0,1
67956,-100,4,2,1,60,0,1
68905,-100,4,2,1,5,0,1
68991,-100,4,2,1,60,0,1
70974,-100,4,2,1,5,0,1
71060,-100,4,2,1,60,0,1
71663,-100,4,2,1,5,0,1
71749,-100,4,2,1,60,0,1
73387,-100,4,2,1,5,0,1
73473,-100,4,2,1,60,0,1
74077,-100,4,2,1,5,0,1
74163,-100,4,2,1,60,0,1
76664,-100,4,2,1,5,0,1
76750,-100,4,2,1,60,0,1
77009,-100,4,2,1,5,0,1
77095,-100,4,2,1,60,0,1
77267,-100,4,2,1,60,0,0
86232,-181.818181818181,4,2,1,60,0,0
87267,-181.818181818181,4,2,1,55,0,0
88301,-181.818181818181,4,2,1,45,0,0

[Colours]
Combo1 : 158,241,248
Combo2 : 218,184,248
Combo3 : 255,184,149
Combo4 : 155,255,181

[HitObjects]
234,294,9853,5,0,0:0:0:0:
156,248,10025,1,0,0:0:0:0:
72,240,10198,2,0,P|61:268|54:285,2,36.25,8|8|8,0:1|0:1|0:1,0:0:0:0:
67,152,10716,1,8,0:1:0:0:
67,152,11060,38,0,B|23:118|22:33|103:21|103:21|77:41|84:58,1,217.5,4|0,0:0|0:0,0:0:0:0:
166,82,12439,2,0,L|146:238,1,145
97,296,13475,1,0,0:0:0:0:
182,338,13818,2,0,B|303:356|280:285|402:296,1,217.5,2|0,3:0|0:0,0:0:0:0:
440,215,15198,2,0,P|459:164|441:102,1,108.75,2|2,3:0|3:0,0:0:0:0:
433,67,15887,2,0,P|396:74|348:88,1,72.5
269,66,16577,6,0,B|363:92|371:171|308:218|265:177|274:155,1,217.5,2|2,3:0|3:0,0:0:0:0:
181,133,17957,2,0,B|214:281|214:281|170:240|145:245,1,217.5
139,337,19336,2,0,B|245:350|206:282|328:309,1,181.25,2|0,3:0|0:0,0:0:0:0:
357,319,20370,1,0,0:0:0:0:
436,268,20715,2,0,P|420:224|424:186,1,72.5,2|6,3:0|3:0,0:0:0:0:
440,155,21232,1,2,3:0:0:0:
482,86,21405,1,0,0:0:0:0:
112,135,22094,6,0,P|135:108|247:118,1,145,6|2,3:2|0:0,0:0:0:0:
306,173,22612,1,10,0:0:0:0:
306,173,22784,2,0,P|301:216|297:270,1,72.5,6|0,2:3|0:0,0:0:0:0:
380,292,23129,6,0,P|389:231|409:142,1,145,10|6,0:0|2:3,0:0:0:0:
440,61,23646,1,8,0:0:0:0:
356,17,23818,2,0,B|319:2|319:2|272:22,1,72.5,2|8,0:0|0:0,0:0:0:0:
220,79,24163,2,0,B|183:94|183:94|136:74,1,72.5,6|0,2:3|0:0,0:0:0:0:
62,54,24508,2,0,P|67:99|79:212,1,145,10|6,0:0|2:3,0:0:0:0:
220,79,25198,6,0,P|225:115|228:151,1,72.5,2|10,0:0|0:0,0:0:0:0:
193,239,25543,2,0,P|188:275|185:311,1,72.5,6|2,2:3|0:0,0:0:0:0:
270,349,25887,1,10,0:0:0:0:
364,322,26060,1,2,0:0:0:0:
432,377,26232,5,6,2:3:0:0:
432,377,26405,2,0,B|461:349|461:349|431:235,1,145,8|8,0:0|0:0,0:0:0:0:
479,172,26922,2,0,P|435:161|398:169,1,72.5,6|2,2:3|0:0,0:0:0:0:
353,223,27267,2,0,P|257:262|208:235,1,145,10|6,0:0|2:3,0:0:0:0:
51,174,27956,6,0,P|46:131|39:79,1,72.5,2|10,0:0|0:0,0:0:0:0:
136,84,28301,2,0,P|141:41|148:-11,1,72.5,6|2,2:3|0:0,0:0:0:0:
224,46,28646,2,0,B|252:82|252:82|360:58,1,145,10|6,0:0|2:3,0:0:0:0:
342,147,29163,5,8,0:0:0:0:
387,221,29336,1,2,0:0:0:0:
328,285,29508,1,10,0:0:0:0:
323,371,29680,2,0,P|274:365|166:357,1,145,6|10,2:3|0:0,0:0:0:0:
111,300,30198,1,0,0:0:0:0:
39,358,30370,6,0,B|10:330|10:330|40:216,1,145,2|2,3:2|0:0,0:0:0:0:
117,196,30887,1,10,0:0:0:0:
46,145,31060,2,0,P|104:106|182:134,1,145,6|10,2:3|0:0,0:0:0:0:
292,198,31749,6,0,L|420:191,1,108.750004148483,6|8,3:0|0:1,0:0:0:0:
442,125,32267,2,0,P|443:88|436:64,1,54.3750020742417,8|0,0:1|0:0,0:0:0:0:
361,95,32612,2,0,B|317:82|317:82|245:113,1,108.750004148483,8|8,0:1|0:1,0:0:0:0:
182,148,33129,6,0,P|174:194|188:231,1,72.5,6|0,2:3|0:0,0:0:0:0:
251,268,33474,1,2,0:0:0:0:
184,322,33646,1,2,0:0:0:0:
256,369,33818,2,0,P|300:365|342:361,1,72.5,10|0,0:0|0:0,0:0:0:0:
421,379,34163,2,0,P|405:342|409:307,1,72.5,2|0,0:0|0:0,0:0:0:0:
429,226,34508,6,0,P|426:189|411:65,1,145,6|2,2:3|0:0,0:0:0:0:
335,43,35025,1,2,0:0:0:0:
335,43,35198,2,0,B|300:28|300:28|251:48,1,72.5,10|0,0:0|0:0,0:0:0:0:
192,84,35543,2,0,B|160:97|160:97|125:82,1,72.5,2|0,0:0|0:0,0:0:0:0:
84,5,35887,6,0,P|40:90|63:153,1,145,6|2,2:3|0:0,0:0:0:0:
125,178,36405,1,2,0:0:0:0:
93,258,36577,2,0,P|47:252|7:248,1,72.5,10|0,0:0|0:0,0:0:0:0:
40,334,36922,2,0,P|78:337|115:342,1,72.5,2|0,0:0|0:0,0:0:0:0:
194,314,37267,5,6,2:3:0:0:
266,362,37439,2,0,B|294:326|294:326|402:350,1,145,2|2,0:0|0:0,0:0:0:0:
475,368,37956,2,0,B|492:331|492:331|478:294,1,72.5,10|0,0:0|0:0,0:0:0:0:
458,216,38301,2,0,P|421:248|319:236,1,145,2|6,0:0|2:3,0:0:0:0:
272,177,38818,5,2,0:0:0:0:
184,177,38991,2,0,P|187:213|191:249,1,72.5,2|2,0:0|0:0,0:0:0:0:
121,300,39336,2,0,P|118:336|114:372,1,72.5,10|0,0:0|0:0,0:0:0:0:
40,325,39680,2,0,P|53:242|63:173,1,145,2|6,0:0|2:3,0:0:0:0:
37,97,40198,5,2,0:0:0:0:
111,53,40370,2,0,B|145:66|187:70,1,72.5,2|2,0:0|0:0,0:0:0:0:
271,40,40715,2,0,B|305:27|347:23,1,72.5,10|0,0:0|0:0,0:0:0:0:
435,21,41060,1,2,0:0:0:0:
481,203,41405,6,0,L|408:189,1,72.5,6|2,2:3|0:0,0:0:0:0:
320,173,41749,1,2,0:0:0:0:
320,173,41922,2,0,P|314:200|308:249,1,72.5,2|10,0:0|0:0,0:0:0:0:
248,309,42267,1,2,0:0:0:0:
330,334,42439,2,0,P|375:328|419:322,1,72.5,2|0,0:0|0:0,0:0:0:0:
414,219,42784,5,2,2:3:0:0:
342,165,42956,2,0,P|350:108|360:-3,1,145,2|2,0:0|0:0,0:0:0:0:
260,42,43474,2,0,P|270:82|269:118,1,72.5,10|0,0:0|0:0,0:0:0:0:
227,189,43818,2,0,P|178:178|152:175,1,72.5,2|0,0:0|0:0,0:0:0:0:
69,196,44163,5,6,3:2:0:0:
256,192,49680,12,0,52094,0:0:0:0:
370,89,52439,5,2,3:0:0:0:
370,89,52784,2,0,P|327:106|316:111,2,39.8750012168885,2|2|2,3:0|3:0|3:0,0:0:0:0:
502,217,53474,1,2,3:0:0:0:
502,217,53646,2,0,P|451:210|416:204,1,79.7500024337769,0|0,3:0|0:0,0:0:0:0:
342,229,54163,1,8,0:0:0:0:
273,270,54336,2,0,P|263:236|277:177,2,79.7500024337769,8|8|8,0:0|0:0|0:0,0:0:0:0:
312,342,55198,6,0,P|260:349|166:371,1,145,6|2,0:0|0:0,0:0:0:0:
95,325,55715,1,2,0:0:0:0:
115,240,55887,2,0,P|70:236|39:232,1,72.5,10|0,0:0|0:0,0:0:0:0:
41,137,56232,2,0,P|29:82|40:46,1,72.5,2|2,0:0|0:0,0:0:0:0:
111,17,56577,6,0,P|156:16|269:47,1,145,6|2,2:3|0:0,0:0:0:0:
317,97,57094,1,2,0:0:0:0:
401,76,57267,2,0,P|392:35|390:1,1,72.5,10|0,0:0|0:0,0:0:0:0:
482,54,57612,2,0,P|473:95|471:129,1,72.5,2|0,0:0|0:0,0:0:0:0:
479,211,57956,5,6,2:3:0:0:
479,211,58129,1,2,0:0:0:0:
421,275,58301,2,0,P|384:271|348:267,1,72.5,2|2,0:0|0:0,0:0:0:0:
262,306,58646,1,10,0:0:0:0:
194,242,58818,1,2,0:0:0:0:
207,155,58991,2,0,P|196:106|202:70,1,72.5,2|2,0:0|0:0,0:0:0:0:
282,108,59336,6,0,P|329:117|362:130,1,72.5,6|2,2:3|0:0,0:0:0:0:
407,192,59680,2,0,P|360:201|327:214,1,72.5,2|2,0:0|0:0,0:0:0:0:
279,275,60025,2,0,P|326:284|359:297,1,72.5,10|0,0:0|0:0,0:0:0:0:
419,344,60370,2,0,P|336:357|278:374,1,145,2|6,0:0|2:3,0:0:0:0:
194,371,60887,5,2,0:0:0:0:
194,371,61060,2,0,P|200:342|203:296,1,72.5,2|2,0:0|0:0,0:0:0:0:
126,257,61405,2,0,P|134:204|141:112,1,145,10|2,0:0|0:0,0:0:0:0:
178,33,61922,1,2,0:0:0:0:
178,33,62094,6,0,P|199:39|250:48,1,72.5,6|2,2:3|0:0,0:0:0:0:
335,37,62439,2,0,P|341:66|345:114,1,72.5,2|2,0:0|0:0,0:0:0:0:
309,196,62784,1,10,0:0:0:0:
397,228,62956,1,0,0:0:0:0:
482,210,63129,2,0,P|472:279|462:359,1,145,2|6,0:0|2:3,0:0:0:0:
380,324,63646,5,2,0:0:0:0:
380,324,63818,2,0,P|323:337|290:348,1,72.5,2|2,0:0|0:0,0:0:0:0:
224,358,64163,1,10,0:0:0:0:
224,358,64336,1,2,0:0:0:0:
146,318,64508,2,0,P|133:224|125:168,1,145,2|6,0:0|2:3,0:0:0:0:
75,102,65025,5,2,0:0:0:0:
151,59,65198,2,0,P|191:54|236:49,1,72.5,2|2,0:0|0:0,0:0:0:0:
302,86,65543,2,0,P|336:109|432:67,1,145,10|2,0:0|0:0,0:0:0:0:
511,55,66060,1,0,0:0:0:0:
504,141,66232,6,0,P|499:191|496:227,1,72.5,6|2,2:3|0:0,0:0:0:0:
512,309,66577,1,0,0:0:0:0:
428,285,66749,1,2,0:0:0:0:
442,371,66922,2,0,P|405:365|344:359,1,72.5,10|0,0:0|0:0,0:0:0:0:
283,347,67267,2,0,P|217:318|152:344,1,145,2|6,0:0|2:3,0:0:0:0:
67,365,67784,5,2,0:0:0:0:
17,294,67956,2,0,P|32:232|47:142,1,145,0|10,0:0|0:0,0:0:0:0:
17,61,68474,1,0,0:0:0:0:
104,95,68646,2,0,P|146:98|183:91,1,72.5,2|0,0:0|0:0,0:0:0:0:
205,182,68991,6,0,P|247:179|284:186,1,72.5,6|2,2:3|0:0,0:0:0:0:
355,221,69336,1,2,0:0:0:0:
415,158,69508,1,2,0:0:0:0:
347,103,69680,2,0,B|306:76|306:76|208:106,1,145,10|2,0:0|0:0,0:0:0:0:
140,56,70198,1,2,0:0:0:0:
53,60,70370,6,0,P|58:103|62:157,1,72.5,6|2,2:3|0:0,0:0:0:0:
135,177,70715,2,0,P|130:220|126:274,1,72.5,2|2,0:0|0:0,0:0:0:0:
42,230,71060,2,0,P|47:273|57:377,1,145,10|2,0:0|0:0,0:0:0:0:
138,343,71577,1,0,0:0:0:0:
218,374,71749,6,0,P|260:356|292:360,1,72.5,6|2,2:3|0:0,0:0:0:0:
362,316,72094,2,0,P|404:334|436:330,1,72.5,0|2,0:0|0:0,0:0:0:0:
512,361,72439,2,0,P|510:302|447:249,1,145,10|2,0:0|0:0,0:0:0:0:
362,231,72956,1,2,0:0:0:0:
362,231,73129,6,0,P|324:217|277:221,1,72.5,6|2,2:3|0:0,0:0:0:0:
207,236,73474,2,0,B|178:208|178:208|208:94,1,145,2|10,0:0|0:0,0:0:0:0:
144,43,73991,2,0,P|186:25|218:29,1,72.5,0|2,0:0|0:0,0:0:0:0:
293,70,74336,1,0,0:0:0:0:
293,70,74508,6,0,P|333:65|378:60,1,72.5,6|2,2:3|0:0,0:0:0:0:
442,29,74853,1,2,0:0:0:0:
430,111,75025,1,2,0:0:0:0:
430,111,75198,2,0,P|417:205|409:261,1,145,10|2,0:0|0:0,0:0:0:0:
345,307,75715,1,2,0:0:0:0:
283,251,75887,6,0,B|247:236|247:236|210:252,1,72.5,6|2,2:3|0:0,0:0:0:0:
147,296,76232,1,2,0:0:0:0:
76,250,76405,1,2,0:0:0:0:
76,250,76577,2,0,P|42:286|53:385,2,145,10|2|4,0:0|0:0|0:0,0:0:0:0:
256,192,82784,12,2,85543,3:0:0:0:
142,89,86232,5,2,3:0:0:0:
142,89,86577,2,0,P|185:106|196:111,2,39.8750012168885
10,217,87267,1,8,0:1:0:0:
10,217,87439,2,0,P|61:210|96:204,1,79.7500024337769,8|8,0:1|0:1,0:0:0:0:
170,229,87956,1,0,0:0:0:0:
230,272,88129,2,0,P|218:301|216:320,1,39.8750012168885,8|6,0:1|2:3,0:0:0:0:
