osu file format v14

[General]
AudioFilename: audio.mp3
AudioLeadIn: 0
PreviewTime: 23189
Countdown: 0
SampleSet: Soft
StackLeniency: 0.7
Mode: 0
LetterboxInBreaks: 0
WidescreenStoryboard: 0

[Editor]
Bookmarks: 491,15869,23549
DistanceSpacing: 1.2
BeatDivisor: 4
GridSize: 32
TimelineZoom: 1

[Metadata]
Title:Kondomvaruhuset.se
TitleUnicode:Kondomvaruhuset.se
Artist:Kondom Varuhuset
ArtistUnicode:Kondom Varuhuset
Creator:Firetruck
Version:Ryo's Medium Advanced
Source:
Tags:Mapper RyoKazuka - Magic Bomb - condom swedish svenska reklam ad advertisement commercial meme extended version
BeatmapID:1115506
BeatmapSetID:486110

[Difficulty]
HPDrainRate:4.5
CircleSize:3.8
OverallDifficulty:5.2
ApproachRate:6
SliderMultiplier:1.3
SliderTickRate:1

[Events]
//Background and Video events
0,0,"BG.jpg",0,0
//Break Periods
//Storyboard Layer 0 (Background)
//Storyboard Layer 1 (Fail)
//Storyboard Layer 2 (Pass)
//Storyboard Layer 3 (Foreground)
//Storyboard Sound Samples

[TimingPoints]
491,480,4,2,0,50,1,0
8189,480,4,2,0,50,1,0
19469,-100,4,2,0,30,0,0
19709,-100,4,2,0,50,0,0
23549,-100,4,2,0,60,0,1
27869,-100,4,2,0,50,0,0
31229,-100,4,2,0,60,0,1
36749,-100,4,2,0,50,0,0

[Colours]
Combo1 : 192,192,192
Combo2 : 255,128,255
Combo3 : 160,11,172
Combo4 : 182,1,105
Combo5 : 255,191,251
Combo6 : 255,0,128

[HitObjects]
83,146,491,6,0,P|146:153|201:109,1,130,6|8,0:0|0:0,0:0:0:0:
251,58,1211,1,0,0:0:0:0:
300,118,1451,2,0,L|284:264,1,130,0|8,0:0|0:0,0:0:0:0:
427,313,2411,6,0,P|410:251|411:163,1,130,2|10,0:0|0:0,0:0:0:0:
439,114,3131,2,0,L|354:106,1,65,2|2,0:0|0:0,0:0:0:0:
304,73,3611,1,10,0:0:0:0:
304,73,3851,1,10,0:0:0:0:
203,192,4331,6,0,B|139:200|139:200|67:166,1,130,0|8,0:0|0:0,0:0:0:0:
198,273,5291,2,0,B|262:265|262:265|334:299,1,130,0|8,0:0|0:0,0:0:0:0:
392,323,6011,1,0,0:0:0:0:
452,274,6251,6,0,L|464:129,2,130,0|8|0,0:0|0:0|0:0,0:0:0:0:
392,323,7451,1,8,0:0:0:0:
392,323,7691,1,8,0:0:0:0:
234,284,8189,6,0,P|167:275|102:310,1,130,6|8,0:0|0:0,0:0:0:0:
39,328,8909,1,0,0:0:0:0:
52,251,9149,2,0,B|73:187|73:187|58:109,1,130,0|8,0:0|0:0,0:0:0:0:
201,58,10109,6,0,B|180:122|180:122|195:200,1,130,2|10,0:0|0:0,0:0:0:0:
260,221,10829,2,0,L|352:227,1,65,2|2,0:0|0:0,0:0:0:0:
396,193,11309,1,10,0:0:0:0:
396,193,11549,1,10,0:0:0:0:
314,326,12029,6,0,P|257:348|174:333,1,130,0|8,0:0|0:0,0:0:0:0:
108,207,12989,2,0,P|165:185|248:200,1,130,0|8,0:0|0:0,0:0:0:0:
306,218,13709,1,0,0:0:0:0:
374,180,13949,6,0,L|517:184,2,130,0|8|0,0:0|0:0|0:0,0:0:0:0:
295,178,15149,1,8,0:0:0:0:
295,178,15389,1,8,0:0:0:0:
236,323,15869,6,0,P|177:314|93:309,1,130,0|6,0:0|0:0,0:0:0:0:
73,156,16829,2,0,P|132:165|216:170,1,130,2|2,0:0|0:0,0:0:0:0:
278,152,17549,1,0,0:0:0:0:
340,198,17789,6,0,L|336:263,1,65,2|0,0:0|0:0,0:0:0:0:
414,264,18269,2,0,L|418:199,1,65,2|0,0:0|0:0,0:0:0:0:
454,130,18749,2,0,P|358:117|251:117,1,195,0|0,0:0|0:0,0:0:0:0:
188,148,19709,6,0,B|181:182|181:182|192:222,1,65,2|0,0:0|0:0,0:0:0:0:
234,274,20189,1,2,0:0:0:0:
234,274,20429,1,0,0:0:0:0:
175,325,20669,2,0,B|128:319|128:319|92:323|92:323|46:315,1,130,2|2,0:0|0:0,0:0:0:0:
114,175,21629,6,0,B|159:167|159:167|195:171|195:171|242:165,1,130,2|2,0:0|0:0,0:0:0:0:
317,142,22349,1,0,0:0:0:0:
365,203,22589,2,0,P|409:226|447:225,1,65,2|0,0:0|0:0,0:0:0:0:
422,149,23069,1,2,0:0:0:0:
350,287,23549,6,0,L|207:273,1,130,6|8,0:0|0:0,0:0:0:0:
145,295,24269,1,0,0:0:0:0:
74,262,24509,2,0,P|66:232|62:187,1,65,0|0,0:0|0:0,0:0:0:0:
125,151,24989,2,0,P|132:121|137:76,1,65,8|2,0:0|0:0,0:0:0:0:
81,31,25469,6,0,B|141:59|141:59|221:39,2,130,2|10|2,0:0|0:0|0:0,0:0:0:0:
9,61,26669,1,2,0:0:0:0:
14,138,26909,2,0,P|30:193|28:212,1,65,10|2,0:0|0:0,0:0:0:0:
102,227,27389,6,0,P|104:194|117:165,1,65,0|2,0:0|0:0,0:0:0:0:
178,213,27869,2,0,L|186:349,1,130,8|0,0:0|0:0,0:0:0:0:
290,227,28829,2,0,P|307:180|328:147,1,65,8|0,0:0|0:0,0:0:0:0:
383,130,29309,6,0,L|237:114,1,130,0|8,0:0|0:0,0:0:0:0:
189,160,30029,2,0,P|155:175|122:174,1,65,0|0,0:0|0:0,0:0:0:0:
143,98,30509,1,8,0:0:0:0:
143,98,30749,1,8,0:0:0:0:
265,194,31229,6,0,B|334:209|326:177|393:190,1,130,6|8,0:0|0:0,0:0:0:0:
364,262,31949,1,0,0:0:0:0:
311,319,32189,2,0,L|238:308,2,65,0|0|8,0:0|0:0|0:0,0:0:0:0:
208,201,33149,6,0,L|71:211,1,130,2|10,0:0|0:0,0:0:0:0:
32,147,33869,1,2,0:0:0:0:
78,84,34109,2,0,P|137:57|207:73,1,130,2|10,0:0|0:0,0:0:0:0:
335,144,35069,6,0,P|394:171|464:155,2,130,0|8|0,0:0|0:0|0:0,0:0:0:0:
260,120,36269,2,0,L|266:204,1,65,0|8,0:0|0:0,0:0:0:0:
222,251,36749,1,2,0:0:0:0:
