osu file format v14

[General]
AudioFilename: audio.mp3
AudioLeadIn: 0
PreviewTime: 23189
Countdown: 0
SampleSet: Soft
StackLeniency: 0.7
Mode: 0
LetterboxInBreaks: 0
WidescreenStoryboard: 0

[Editor]
DistanceSpacing: 2
BeatDivisor: 4
GridSize: 4
TimelineZoom: 1

[Metadata]
Title:Kondomvaruhuset.se
TitleUnicode:Kondomvaruhuset.se
Artist:Kondom Varuhuset
ArtistUnicode:Kondom Varuhuset
Creator:Firetruck
Version:Mapper's XXL
Source:
Tags:Mapper RyoKazuka - Magic Bomb - condom swedish svenska reklam ad advertisement commercial meme extended version
BeatmapID:1037112
BeatmapSetID:486110

[Difficulty]
HPDrainRate:7
CircleSize:5
OverallDifficulty:7.4
ApproachRate:8.5
SliderMultiplier:1.7
SliderTickRate:1

[Events]
//Background and Video events
0,0,"BG.jpg",0,0
//Break Periods
//Storyboard Layer 0 (Background)
//Storyboard Layer 1 (Fail)
//Storyboard Layer 2 (Pass)
//Storyboard Layer 3 (Foreground)
//Storyboard Sound Samples

[TimingPoints]
491,480,4,2,0,50,1,0
8189,480,4,2,0,50,1,0
18749,-142.857142857143,4,2,0,50,0,0
19709,-100,4,2,0,50,0,0
23549,-83.3333333333333,4,2,0,60,0,1
27869,-83.3333333333333,4,2,0,50,0,0
31229,-83.3333333333333,4,2,0,60,0,1
36749,-111.111111111111,4,2,0,50,0,0
37349,-111.111111111111,4,2,0,5,0,0

[Colours]
Combo1 : 192,192,192
Combo2 : 255,128,255
Combo3 : 160,11,172
Combo4 : 182,1,105
Combo5 : 255,191,251
Combo6 : 255,0,128

[HitObjects]
104,248,251,5,2,0:0:0:0:
168,64,491,2,0,B|192:104|192:104|200:160,1,85,6|0,0:0|0:0,0:0:0:0:
200,168,851,1,0,0:0:0:0:
201,194,971,1,8,0:0:0:0:
316,165,1211,1,0,0:0:0:0:
264,336,1451,6,0,P|304:328|376:344,1,85
373,339,1811,2,0,L|420:320,1,42.5,0|8,0:0|0:0,0:0:0:0:
436,128,2171,1,2,0:0:0:0:
258,49,2411,6,0,B|230:33|230:33|246:109,1,85,2|0,0:0|0:0,0:0:0:0:
247,109,2771,1,0,0:0:0:0:
253,134,2891,1,10,0:0:0:0:
192,292,3131,1,2,0:0:0:0:
361,275,3371,5,2,0:0:0:0:
180,164,3611,1,10,0:0:0:0:
288,348,3851,1,10,0:0:0:0:
247,109,4091,6,0,B|220:108|208:96|208:96|160:84|128:112|128:112|104:156,1,170,2|2,0:0|0:0,0:0:0:0:
253,200,4811,2,0,L|324:228,2,42.5,8|0|0,0:0|0:0|0:0,0:0:0:0:
418,155,5291,2,0,B|434:195|434:195|434:275,1,85
435,263,5651,1,0,0:0:0:0:
436,289,5771,1,8,0:0:0:0:
329,107,6011,6,0,P|284:96|232:108,1,85
131,138,6491,1,0,0:0:0:0:
232,253,6731,1,8,0:0:0:0:
224,269,6851,1,0,0:0:0:0:
216,285,6971,1,0,0:0:0:0:
44,284,7211,5,0,0:0:0:0:
131,138,7451,1,8,0:0:0:0:
187,354,7691,1,8,0:0:0:0:
248,108,7931,1,2,0:0:0:0:
348,260,8189,6,0,P|376:296|444:312,1,85,6|0,0:0|0:0,0:0:0:0:
437,315,8549,1,0,0:0:0:0:
462,310,8669,1,8,0:0:0:0:
447,194,8909,1,0,0:0:0:0:
337,357,9149,6,0,B|293:365|293:365|233:357,1,85
229,350,9509,2,0,L|173:354,1,42.5,0|8,0:0|0:0,0:0:0:0:
140,164,9869,1,2,0:0:0:0:
304,56,10109,6,0,P|348:48|416:72,1,85,2|0,0:0|0:0,0:0:0:0:
410,68,10469,1,0,0:0:0:0:
431,84,10589,1,10,0:0:0:0:
292,180,10829,1,2,0:0:0:0:
192,40,11069,5,2,0:0:0:0:
176,252,11309,1,10,0:0:0:0:
376,180,11549,1,10,0:0:0:0:
140,128,11789,6,0,P|64:172|52:280,1,170,2|2,0:0|0:0,0:0:0:0:
172,332,12509,2,0,L|232:336,2,42.5,8|0|0,0:0|0:0|0:0,0:0:0:0:
208,164,12989,2,0,P|216:112|180:56,1,85
189,63,13349,1,0,0:0:0:0:
169,47,13469,1,8,0:0:0:0:
372,104,13709,6,0,P|412:112|480:96,1,85
372,20,14189,1,0,0:0:0:0:
285,145,14429,1,8,0:0:0:0:
293,161,14549,1,0,0:0:0:0:
301,177,14669,1,0,0:0:0:0:
455,106,14909,5,0,0:0:0:0:
440,276,15149,1,8,0:0:0:0:
301,177,15389,1,8,0:0:0:0:
258,249,15629,1,0,0:0:0:0:
270,331,15869,1,0,0:0:0:0:
260,24,16349,6,0,P|244:64|252:112,1,85,6|0,0:0|0:0,0:0:0:0:
284,184,16709,1,0,0:0:0:0:
284,184,16829,2,0,L|220:200,1,42.5,2|0,0:0|0:0,0:0:0:0:
108,176,17069,1,0,0:0:0:0:
108,176,17189,2,0,L|172:168,1,42.5,0|2,0:0|0:0,0:0:0:0:
112,264,17429,2,0,L|64:272,1,42.5
108,176,17789,5,2,0:0:0:0:
284,184,18029,1,0,0:0:0:0:
193,95,18269,1,2,0:0:0:0:
367,55,18509,1,0,0:0:0:0:
454,197,18749,6,0,B|428:192|428:192|396:204|396:204|344:168|278:185,1,178.499994552612
135,269,19709,6,0,L|127:221,1,42.5,2|0,0:0|0:0,0:0:0:0:
208,128,19949,1,0,0:0:0:0:
208,128,20069,1,0,0:0:0:0:
208,128,20189,2,0,B|248:136|248:136|320:128,1,85,2|0,0:0|0:0,0:0:0:0:
452,76,20669,6,0,P|468:124|452:164,1,85,2|0,0:0|0:0,0:0:0:0:
449,179,21029,2,0,L|489:203,1,42.5,0|2,0:0|0:0,0:0:0:0:
376,332,21389,2,0,B|328:332|272:288,1,85,0|2,0:0|0:0,0:0:0:0:
264,236,21749,1,2,0:0:0:0:
234,266,21869,1,0,0:0:0:0:
223,307,21989,1,0,0:0:0:0:
233,348,22109,1,2,0:0:0:0:
88,160,22349,1,0,0:0:0:0:
196,52,22589,5,2,0:0:0:0:
123,287,22829,1,0,0:0:0:0:
123,279,22949,1,0,0:0:0:0:
123,271,23069,1,2,0:0:0:0:
24,63,23309,1,2,0:0:0:0:
248,128,23549,6,0,B|264:136|264:136|272:152|272:152|312:160|328:204,1,101.999996887207,6|0,0:0|0:0,0:0:0:0:
332,220,23909,1,0,0:0:0:0:
338,250,24029,1,8,0:0:0:0:
440,123,24269,1,0,0:0:0:0:
388,320,24509,2,0,B|284:272|284:352|172:304,1,203.999993774414,0|8,0:0|0:0,0:0:0:0:
248,128,25229,1,2,0:0:0:0:
44,244,25469,6,0,B|52:296|52:296|104:356,1,101.999996887207,2|0,0:0|0:0,0:0:0:0:
106,355,25829,1,0,0:0:0:0:
128,376,25949,1,10,0:0:0:0:
248,128,26189,1,2,0:0:0:0:
318,320,26429,1,2,0:0:0:0:
464,176,26669,1,2,0:0:0:0:
208,244,26909,1,10,0:0:0:0:
464,176,27149,6,0,B|456:144|456:144|440:128|440:128|400:112|400:112|344:136|280:88,1,203.999993774414,2|2,0:0|0:0,0:0:0:0:
390,261,27869,2,0,L|383:311,2,50.9999984436036,8|0|0,0:0|0:0|0:0,0:0:0:0:
200,336,28349,2,0,B|168:312|168:312|152:240,1,101.999996887207
208,220,28709,1,0,0:0:0:0:
208,220,28829,2,0,P|156:232|92:208,1,101.999996887207,8|0,0:0|0:0,0:0:0:0:
32,28,29309,5,0,0:0:0:0:
159,146,29549,1,0,0:0:0:0:
316,51,29789,1,8,0:0:0:0:
94,89,30029,1,0,0:0:0:0:
300,240,30269,6,0,L|368:304,1,50.9999984436036
220,306,30509,1,8,0:0:0:0:
220,306,30629,2,0,L|152:242,1,50.9999984436036,0|8,0:0|0:0,0:0:0:0:
386,243,30989,1,2,0:0:0:0:
195,107,31229,6,0,B|128:128|104:192,1,101.999996887207,6|0,0:0|0:0,0:0:0:0:
300,164,31709,1,8,0:0:0:0:
195,107,31949,1,0,0:0:0:0:
220,306,32189,2,0,B|276:290|276:290|364:290|364:290|436:266,1,203.999993774414,0|8,0:0|0:0,0:0:0:0:
356,77,32909,1,2,0:0:0:0:
177,229,33149,6,0,P|129:244|57:220,1,101.999996887207,2|0,0:0|0:0,0:0:0:0:
53,220,33509,1,0,0:0:0:0:
27,203,33629,1,10,0:0:0:0:
224,156,33869,1,2,0:0:0:0:
44,64,34109,1,2,0:0:0:0:
177,229,34349,1,2,0:0:0:0:
192,32,34589,1,10,0:0:0:0:
54,304,34829,6,0,B|56:348|96:360|96:360|160:336|242:368,1,203.999993774414,2|2,0:0|0:0,0:0:0:0:
408,344,35549,1,8,0:0:0:0:
408,344,35789,1,0,0:0:0:0:
206,112,36029,5,0,0:0:0:0:
414,240,36269,1,0,0:0:0:0:
222,360,36509,1,8,0:0:0:0:
198,100,36749,6,0,B|184:76|160:64|160:64|136:64|120:56|120:56|124:72|124:96|124:96|128:120|160:152,1,191.249994163513,2|0,0:0|0:0,0:0:0:0:
