osu file format v14

[General]
AudioFilename: audio.mp3
AudioLeadIn: 0
PreviewTime: 23189
Countdown: 0
SampleSet: Soft
StackLeniency: 0.7
Mode: 2
LetterboxInBreaks: 0
WidescreenStoryboard: 0

[Editor]
DistanceSpacing: 2
BeatDivisor: 4
GridSize: 8
TimelineZoom: 1

[Metadata]
Title:Kondomvaruhuset.se
TitleUnicode:Kondomvaruhuset.se
Artist:Kondom Varuhuset
ArtistUnicode:Kondom Varuhuset
Creator:Firetruck
Version:MBomb's Baby Rain
Source:
Tags:Mapper RyoKazuka - Magic Bomb - condom swedish svenska reklam ad advertisement commercial meme extended version
BeatmapID:1349552
BeatmapSetID:486110

[Difficulty]
HPDrainRate:6
CircleSize:3
OverallDifficulty:8.7
ApproachRate:8.7
SliderMultiplier:2.2
SliderTickRate:1

[Events]
//Background and Video events
0,0,"BG.jpg",0,0
//Break Periods
//Storyboard Layer 0 (Background)
//Storyboard Layer 1 (Fail)
//Storyboard Layer 2 (Pass)
//Storyboard Layer 3 (Foreground)
//Storyboard Sound Samples

[TimingPoints]
491,480,4,2,0,50,1,0
8189,480,4,2,0,50,1,0
23549,-100,4,2,0,60,0,1
27869,-100,4,2,0,50,0,0
31229,-100,4,2,0,60,0,1
36749,-100,4,2,0,50,0,0
37349,-100,4,2,0,5,0,0

[Colours]
Combo1 : 192,192,192
Combo2 : 255,128,255
Combo3 : 160,11,172
Combo4 : 182,1,105
Combo5 : 255,191,251
Combo6 : 255,0,128

[HitObjects]
456,192,251,5,2,0:0:0:0:
120,192,491,6,0,L|0:192,2,110,6|0|8,0:0|0:0|0:0,0:0:0:0:
240,192,1211,1,0,0:0:0:0:
464,192,1451,2,0,L|352:192,1,110
208,192,1811,2,0,L|264:192,1,55,0|8,0:0|0:0,0:0:0:0:
480,192,2171,1,2,0:0:0:0:
120,192,2411,6,0,L|240:192,1,110,2|0,0:0|0:0,0:0:0:0:
456,192,2891,1,10,0:0:0:0:
482,145,3011,1,0,0:0:0:0:
465,94,3131,1,2,0:0:0:0:
417,71,3251,1,0,0:0:0:0:
272,192,3371,1,2,0:0:0:0:
496,192,3611,1,10,0:0:0:0:
168,192,3851,1,10,0:0:0:0:
368,192,4091,6,0,P|440:144|432:112,1,110,2|0,0:0|0:0,0:0:0:0:
120,192,4571,2,0,P|56:168|16:120,2,110,2|8|0,0:0|0:0|0:0,0:0:0:0:
352,192,5291,2,0,L|224:192,1,110,0|0,0:0|0:0,0:0:0:0:
96,192,5651,2,0,L|152:192,1,55,0|8,0:0|0:0,0:0:0:0:
384,192,6011,1,0,0:0:0:0:
232,192,6251,5,0,0:0:0:0:
384,192,6491,1,0,0:0:0:0:
152,192,6731,2,0,L|96:192,2,55,8|0|0,0:0|0:0|0:0,0:0:0:0:
376,192,7211,1,0,0:0:0:0:
32,192,7451,1,8,0:0:0:0:
376,192,7691,1,8,0:0:0:0:
160,192,7931,1,2,0:0:0:0:
496,192,8189,6,0,L|384:192,2,110,6|0|8,0:0|0:0|0:0,0:0:0:0:
368,192,8909,1,0,0:0:0:0:
128,192,9149,2,0,P|80:160|104:144,1,110,0|0,0:0|0:0,0:0:0:0:
248,192,9509,2,0,L|312:192,1,55,0|8,0:0|0:0,0:0:0:0:
80,192,9869,1,2,0:0:0:0:
424,192,10109,6,0,P|480:152|448:120,1,110,2|0,0:0|0:0,0:0:0:0:
240,192,10589,1,10,0:0:0:0:
188,189,10709,1,0,0:0:0:0:
174,140,10829,1,2,0:0:0:0:
216,112,10949,1,0,0:0:0:0:
360,192,11069,1,2,0:0:0:0:
152,192,11309,1,10,0:0:0:0:
480,192,11549,1,10,0:0:0:0:
272,192,11789,6,0,L|392:192,1,110,2|0,0:0|0:0,0:0:0:0:
56,192,12269,2,0,P|88:152|144:136,2,110,2|8|0,0:0|0:0|0:0,0:0:0:0:
288,192,12989,2,0,L|160:192,1,110,0|0,0:0|0:0,0:0:0:0:
328,192,13349,2,0,L|392:192,1,55,0|8,0:0|0:0,0:0:0:0:
178,192,13709,1,0,0:0:0:0:
320,192,13949,5,0,0:0:0:0:
160,192,14189,1,0,0:0:0:0:
384,192,14429,2,0,L|456:192,2,55,8|0|0,0:0|0:0|0:0,0:0:0:0:
160,192,14909,1,0,0:0:0:0:
496,192,15149,1,8,0:0:0:0:
160,192,15389,1,8,0:0:0:0:
368,192,15629,1,0,0:0:0:0:
31,192,15869,6,0,P|56:143|105:123,1,110
328,192,16349,1,6,0:0:0:0:
273,192,16469,1,0,0:0:0:0:
218,192,16589,1,0,0:0:0:0:
438,192,16829,2,0,P|400:128|360:128,1,110,2|0,0:0|0:0,0:0:0:0:
232,192,17189,2,0,P|190:168|222:128,1,110,0|0,0:0|0:0,0:0:0:0:
360,192,17549,1,0,0:0:0:0:
208,192,17789,6,0,L|96:192,1,110,2|0,0:0|0:0,0:0:0:0:
328,192,18269,2,0,P|368:168|328:136,1,110,2|0,0:0|0:0,0:0:0:0:
184,192,18749,2,0,L|272:192,1,82.5,0|0,0:0|0:0,0:0:0:0:
392,192,19109,2,0,P|456:160|432:112,1,110,0|0,0:0|0:0,0:0:0:0:
16,192,19709,5,2,0:0:0:0:
168,192,19949,2,0,L|232:192,1,55,0|0,0:0|0:0,0:0:0:0:
80,192,20189,2,0,L|16:192,2,55,2|0|0,0:0|0:0|0:0,0:0:0:0:
312,192,20669,2,0,P|372:186|408:136,1,110,2|0,0:0|0:0,0:0:0:0:
256,192,21029,2,0,L|200:192,1,55,0|2,0:0|0:0,0:0:0:0:
352,192,21389,1,0,0:0:0:0:
136,192,21629,6,0,L|80:192,1,55,2|2,0:0|0:0,0:0:0:0:
224,192,21869,2,0,L|280:192,1,55,0|0,0:0|0:0,0:0:0:0:
136,192,22109,1,2,0:0:0:0:
86,179,22229,1,0,0:0:0:0:
91,129,22349,1,0,0:0:0:0:
141,126,22469,1,0,0:0:0:0:
280,192,22589,2,0,P|352:160|360:128,1,110,2|0,0:0|0:0,0:0:0:0:
224,192,22949,2,0,L|160:192,1,55,0|2,0:0|0:0,0:0:0:0:
496,192,23309,1,2,0:0:0:0:
160,192,23549,6,0,P|88:152|96:120,1,110,6|0,0:0|0:0,0:0:0:0:
160,192,23909,1,0,0:0:0:0:
288,192,24029,2,0,L|344:192,1,55,8|0,0:0|0:0,0:0:0:0:
200,192,24269,2,0,L|144:192,1,55,0|0,0:0|0:0,0:0:0:0:
352,192,24509,1,0,0:0:0:0:
407,192,24629,1,0,0:0:0:0:
352,192,24749,1,0,0:0:0:0:
216,192,24869,1,0,0:0:0:0:
80,192,24989,2,0,L|152:192,1,55,8|0,0:0|0:0,0:0:0:0:
25,192,25229,2,0,L|89:192,1,55,2|0,0:0|0:0,0:0:0:0:
280,192,25469,6,0,P|344:136|336:112,1,110,2|0,0:0|0:0,0:0:0:0:
90,192,25949,1,10,0:0:0:0:
125,150,26069,1,0,0:0:0:0:
177,135,26189,1,2,0:0:0:0:
229,150,26309,1,0,0:0:0:0:
90,192,26429,1,2,0:0:0:0:
208,192,26669,1,2,0:0:0:0:
344,192,26789,1,0,0:0:0:0:
464,192,26909,1,10,0:0:0:0:
234,192,27149,6,0,L|346:192,1,110,2|0,0:0|0:0,0:0:0:0:
32,192,27629,1,2,0:0:0:0:
248,192,27869,2,0,L|128:192,1,110,8|0,0:0|0:0,0:0:0:0:
368,192,28349,2,0,P|408:152|368:128,1,110,0|0,0:0|0:0,0:0:0:0:
176,192,28709,2,0,P|136:152|176:128,1,110,0|0,0:0|0:0,0:0:0:0:
360,192,29069,1,0,0:0:0:0:
224,192,29309,5,0,0:0:0:0:
360,192,29549,1,0,0:0:0:0:
128,192,29789,2,0,L|48:192,2,55,8|0|0,0:0|0:0|0:0,0:0:0:0:
352,192,30269,1,0,0:0:0:0:
16,192,30509,1,8,0:0:0:0:
112,192,30629,1,0,0:0:0:0:
312,192,30749,1,8,0:0:0:0:
120,192,30989,1,2,0:0:0:0:
440,192,31229,5,6,0:0:0:0:
489,185,31349,1,0,0:0:0:0:
489,134,31469,1,0,0:0:0:0:
439,128,31589,1,0,0:0:0:0:
224,192,31709,1,8,0:0:0:0:
169,195,31829,1,0,0:0:0:0:
118,177,31949,1,0,0:0:0:0:
78,139,32069,1,0,0:0:0:0:
304,192,32189,1,0,0:0:0:0:
348,165,32309,1,0,0:0:0:0:
338,114,32429,1,0,0:0:0:0:
208,192,32549,1,0,0:0:0:0:
88,192,32669,2,0,L|144:192,1,55,8|0,0:0|0:0,0:0:0:0:
263,192,32909,2,0,L|191:192,1,55,2|0,0:0|0:0,0:0:0:0:
448,192,33149,6,0,P|488:144|432:144,1,110,2|0,0:0|0:0,0:0:0:0:
232,192,33629,1,10,0:0:0:0:
168,192,33749,1,0,0:0:0:0:
144,192,33869,1,2,0:0:0:0:
184,192,33989,1,0,0:0:0:0:
328,192,34109,2,0,L|208:192,1,110,2|2,0:0|0:0,0:0:0:0:
352,192,34469,1,0,0:0:0:0:
480,192,34589,1,10,0:0:0:0:
256,192,34829,6,0,L|144:192,1,110,2|0,0:0|0:0,0:0:0:0:
456,192,35309,2,0,P|496:136|488:120,2,55,2|0|8,0:0|0:0|0:0,0:0:0:0:
328,192,35789,1,0,0:0:0:0:
96,192,36029,2,0,P|72:144|120:144,1,110,0|0,0:0|0:0,0:0:0:0:
440,192,36509,1,8,0:0:0:0:
80,192,36749,2,0,B|48:128|32:32|32:32|32:152,1,275,2|0,0:0|0:0,0:0:0:0:
