osu file format v14

[General]
AudioFilename: audio.mp3
AudioLeadIn: 0
PreviewTime: 23189
Countdown: 0
SampleSet: Soft
StackLeniency: 0.7
Mode: 0
LetterboxInBreaks: 0
WidescreenStoryboard: 0

[Editor]
DistanceSpacing: 1.2
BeatDivisor: 4
GridSize: 4
TimelineZoom: 1

[Metadata]
Title:Kondomvaruhuset.se
TitleUnicode:Kondomvaruhuset.se
Artist:Kondom Varuhuset
ArtistUnicode:Kondom Varuhuset
Creator:Firetruck
Version:Large Hard
Source:
Tags:Mapper RyoKazuka - Magic Bomb - condom swedish svenska reklam ad advertisement commercial meme extended version
BeatmapID:1036586
BeatmapSetID:486110

[Difficulty]
HPDrainRate:5
CircleSize:4
OverallDifficulty:6
ApproachRate:7
SliderMultiplier:1.4
SliderTickRate:1

[Events]
//Background and Video events
0,0,"BG.jpg",0,0
//Break Periods
//Storyboard Layer 0 (Background)
//Storyboard Layer 1 (Fail)
//Storyboard Layer 2 (Pass)
//Storyboard Layer 3 (Foreground)
//Storyboard Sound Samples

[TimingPoints]
491,480,4,2,0,50,1,0
8189,480,4,2,0,50,1,0
18749,-133.333333333333,4,2,0,50,0,0
19469,-100,4,2,0,50,0,0
23549,-100,4,2,0,60,0,1
27869,-100,4,2,0,50,0,0
31229,-100,4,2,0,60,0,1
36749,-100,4,2,0,50,0,0

[Colours]
Combo1 : 192,192,192
Combo2 : 255,128,255
Combo3 : 160,11,172
Combo4 : 182,1,105
Combo5 : 255,191,251
Combo6 : 255,0,128

[HitObjects]
67,119,491,6,2,P|105:114|139:119,1,70,6|0,0:0|0:0,0:0:0:0:
202,64,971,2,0,P|238:68|273:64,1,70,8|0,0:0|0:0,0:0:0:0:
346,25,1451,1,0,0:0:0:0:
422,80,1691,1,0,0:0:0:0:
422,80,1811,1,0,0:0:0:0:
422,80,1931,2,0,L|424:161,1,70,8|2,0:0|0:0,0:0:0:0:
396,227,2411,6,0,P|354:255|301:259,1,105,2|0,0:0|0:0,0:0:0:0:
263,239,2891,2,0,P|220:233|181:242,1,70,2|2,0:0|0:0,0:0:0:0:
142,171,3371,1,2,0:0:0:0:
160,89,3611,2,0,L|119:78,2,35,10|0|2,0:0|0:0|0:0,0:0:0:0:
232,46,4091,1,10,0:0:0:0:
300,96,4331,6,0,L|270:171,1,70,0|2,0:0|0:0,0:0:0:0:
213,217,4811,2,0,P|245:238|280:243,1,70
353,254,5291,1,0,0:0:0:0:
423,207,5531,1,0,0:0:0:0:
423,207,5651,1,0,0:0:0:0:
423,207,5771,2,0,P|427:171|422:135,1,70,8|0,0:0|0:0,0:0:0:0:
391,60,6251,6,0,P|356:54|319:60,1,70
248,88,6731,1,8,0:0:0:0:
248,88,6851,1,0,0:0:0:0:
248,88,6971,2,0,L|252:163,1,70
215,233,7451,1,8,0:0:0:0:
137,200,7691,2,8,P|110:182|87:149,1,70,8|2,0:0|0:0,0:0:0:0:
109,70,8189,6,2,P|147:75|181:70,1,70,6|0,0:0|0:0,0:0:0:0:
253,33,8669,2,0,P|289:29|324:33,1,70,8|0,0:0|0:0,0:0:0:0:
397,72,9149,1,0,0:0:0:0:
419,161,9389,1,0,0:0:0:0:
419,161,9509,1,0,0:0:0:0:
419,161,9629,2,0,L|420:230,1,70,8|2,0:0|0:0,0:0:0:0:
379,304,10109,6,0,P|337:276|284:272,1,105,2|0,0:0|0:0,0:0:0:0:
246,290,10589,2,2,P|203:296|164:287,1,70
110,240,11069,1,2,0:0:0:0:
144,163,11309,2,0,L|196:163,2,35,10|0|2,0:0|0:0|0:0,0:0:0:0:
85,103,11789,1,10,0:0:0:0:
147,48,12029,6,0,L|222:49,1,70,0|2,0:0|0:0,0:0:0:0:
299,66,12509,2,0,L|374:67,1,70,0|2,0:0|0:0,0:0:0:0:
441,110,12989,1,0,0:0:0:0:
410,192,13229,1,0,0:0:0:0:
410,192,13349,1,0,0:0:0:0:
410,192,13469,2,0,P|414:228|409:264,1,70,8|0,0:0|0:0,0:0:0:0:
371,334,13949,6,0,P|336:340|299:334,1,70
233,286,14429,1,8,0:0:0:0:
233,286,14549,1,0,0:0:0:0:
233,286,14669,2,0,L|237:211,1,70
206,137,15149,1,8,0:0:0:0:
132,176,15389,2,8,P|93:174|62:150,1,70,8|0,0:0|0:0,0:0:0:0:
74,72,15869,5,0,0:0:0:0:
74,72,16349,2,0,P|104:62|152:60,1,70,6|0,0:0|0:0,0:0:0:0:
228,71,16829,2,0,B|244:110|284:119|284:119|323:126|334:168,1,140,2|2,0:0|0:0,0:0:0:0:
289,237,17549,1,0,0:0:0:0:
204,243,17790,6,0,P|180:269|171:302,1,70,2|2,0:0|0:0,0:0:0:0:
254,308,18269,1,2,0:0:0:0:
326,354,18509,1,0,0:0:0:0:
326,354,18629,1,0,0:0:0:0:
326,354,18749,6,0,B|368:347|368:347|427:357|427:357|484:343,1,157.500006008148
506,263,19709,6,0,B|481:238|481:238|444:225,1,70,2|0,0:0|0:0,0:0:0:0:
365,208,20189,1,2,0:0:0:0:
347,126,20429,2,0,P|371:101|414:90,2,70,0|2|0,0:0|0:0|0:0,0:0:0:0:
281,178,21149,2,0,P|247:205|208:214,1,70,2|0,0:0|0:0,0:0:0:0:
151,258,21629,6,0,B|113:250|113:250|78:260,1,70,2|0,0:0|0:0,0:0:0:0:
22,200,22109,2,0,B|59:136|3:135|37:64,1,140,2|2,0:0|0:0,0:0:0:0:
120,68,22829,1,0,0:0:0:0:
188,18,23069,1,0,0:0:0:0:
257,65,23309,1,2,0:0:0:0:
318,7,23549,5,6,0:0:0:0:
388,53,23789,1,0,0:0:0:0:
388,53,24029,2,0,L|404:127,1,70,8|0,0:0|0:0,0:0:0:0:
482,148,24509,1,0,0:0:0:0:
472,238,24749,1,0,0:0:0:0:
472,238,24869,1,0,0:0:0:0:
472,238,24989,2,0,P|479:274|473:318,1,70,8|0,0:0|0:0,0:0:0:0:
406,354,25469,6,0,P|334:340|268:356,1,140,2|10,0:0|0:0,0:0:0:0:
226,282,26189,1,2,0:0:0:0:
175,218,26429,1,2,0:0:0:0:
175,218,26669,2,0,P|136:221|90:239,1,70,2|10,0:0|0:0,0:0:0:0:
37,278,27149,1,2,0:0:0:0:
88,345,27389,6,0,P|125:372|202:367,1,105
221,359,27869,2,0,P|258:352|294:359,1,70,8|0,0:0|0:0,0:0:0:0:
373,350,28349,1,0,0:0:0:0:
436,294,28589,2,0,L|481:294,2,35
398,219,29069,2,0,P|406:177|395:143,1,70
353,80,29549,5,0,0:0:0:0:
274,112,29789,2,0,P|237:105|205:111,1,70
152,175,30269,1,0,0:0:0:0:
220,239,30509,1,8,0:0:0:0:
220,239,30629,1,0,0:0:0:0:
220,239,30749,1,8,0:0:0:0:
287,188,30989,1,2,0:0:0:0:
345,127,31229,6,0,P|380:122|425:130,1,70,6|0,0:0|0:0,0:0:0:0:
381,203,31709,1,8,0:0:0:0:
325,265,31949,1,0,0:0:0:0:
241,263,32189,2,0,P|195:257|161:266,1,70
155,344,32669,1,8,0:0:0:0:
232,380,32909,1,2,0:0:0:0:
295,324,33149,6,8,B|339:325|339:325|378:343|378:343|435:343,1,140,2|10,0:0|0:0,0:0:0:0:
493,286,33869,1,2,0:0:0:0:
443,219,34109,2,0,P|408:202|370:195,1,70,2|2,0:0|0:0,0:0:0:0:
312,142,34589,2,0,L|353:110,2,35,10|0|2,0:0|0:0|0:0,0:0:0:0:
244,192,35069,2,0,P|206:200|170:191,1,70,0|2,0:0|0:0,0:0:0:0:
96,160,35549,6,0,P|61:153|26:159,1,70,8|0,0:0|0:0,0:0:0:0:
60,236,36029,2,0,P|65:270|58:304,1,70
124,356,36509,1,8,0:0:0:0:
196,312,36749,1,2,0:0:0:0:
