osu file format v14

[General]
AudioFilename: audio.mp3
AudioLeadIn: 0
PreviewTime: 145710
Countdown: 1
SampleSet: Soft
StackLeniency: 0.2
Mode: 0
LetterboxInBreaks: 0
WidescreenStoryboard: 0

[Editor]
DistanceSpacing: 0.8
BeatDivisor: 8
GridSize: 4
TimelineZoom: 3.199999

[Metadata]
Title:Slider
TitleUnicode:スライダー
Artist:Kondo Koji
ArtistUnicode:近藤浩治
Creator:spookem
Version:64 DIMENSIONS
Source:Super Mario 64
Tags:nintendo super mario penguin spaced streams 64 practise Nemuidesu
BeatmapID:1509693
BeatmapSetID:714359

[Difficulty]
HPDrainRate:4.9
CircleSize:4
OverallDifficulty:8.2
ApproachRate:9.6
SliderMultiplier:2.3
SliderTickRate:1

[Events]
//Background and Video events
0,0,"mario-dive.jpg",0,0
//Break Periods
2,44386,46391
//Storyboard Layer 0 (Background)
//Storyboard Layer 1 (Fail)
//Storyboard Layer 2 (Pass)
//Storyboard Layer 3 (Foreground)
//Storyboard Sound Samples

[TimingPoints]
505,341.258104879991,4,2,0,25,1,0
505,-100,4,2,1,50,0,0
2211,-100,4,2,0,25,0,0
3235,-133.333333333333,4,2,0,25,0,0
15520,-133.333333333333,4,2,0,25,0,0
18250,-100,4,2,0,25,0,0
22686,-133.333333333333,4,2,0,25,0,0
24734,-90.9090909090909,4,2,0,25,0,0
25075,-90.9090909090909,4,2,1,50,0,1
25246,-90.9090909090909,4,2,0,25,0,1
30535,-90.9090909090909,4,2,0,25,0,0
34801,-100,4,2,0,25,0,0
35995,-100,4,2,1,50,0,1
36081,-100,4,2,0,25,0,1
37360,-100,4,2,0,25,0,1
37702,-83.3333333333333,4,2,0,25,0,1
40090,-100,4,2,0,25,0,1
40432,-83.3333333333333,4,2,0,25,0,1
41114,-71.4285714285714,4,2,0,25,0,1
41285,-62.5,4,2,0,25,0,1
41455,-66.6666666666667,4,2,0,25,0,0
43503,-66.6666666666667,4,2,0,25,0,0
46916,-100,4,2,0,25,0,0
63296,-76.9230769230769,4,2,0,25,0,0
66026,-100,4,2,0,25,0,0
67391,-83.3333333333333,4,2,0,25,0,0
68756,-117.647058823529,4,2,0,25,0,0
69439,-100,4,2,0,25,0,0
69780,-71.4285714285714,4,2,0,25,0,0
70803,-100,4,2,0,25,0,0
72851,-83.3333333333333,4,2,0,25,0,0
73022,-100,4,2,0,25,0,0
73192,-133.333333333333,4,2,0,25,0,0
73363,-200,4,2,0,25,0,0
73534,-200,4,2,0,25,0,0
73704,-133.333333333333,4,2,0,25,0,0
73875,-100,4,2,0,25,0,0
74046,-83.3333333333333,4,2,0,25,0,0
75581,-100,4,2,0,25,0,0
75752,-100,4,2,0,25,0,0
96057,-100,4,2,1,50,0,1
96142,-100,4,2,0,25,0,1
101858,-133.333333333333,4,2,0,25,0,0
102370,-90.9090909090909,4,2,0,25,0,0
106977,-90.9090909090909,4,2,1,50,0,1
107062,-90.9090909090909,4,2,0,25,0,1
111925,-76.9230769230769,4,2,0,25,0,1
112096,-71.4285714285714,4,2,0,25,0,1
112267,-66.6666666666667,4,2,0,25,0,0
115167,-83.3333333333333,4,2,0,25,0,0
117897,-100,4,2,0,25,0,0
127453,-133.333333333333,4,2,0,10,0,0
127794,-133.333333333333,4,2,0,15,0,0
128135,-133.333333333333,4,2,0,20,0,0
128476,-133.333333333333,4,2,0,25,0,0
134278,-66.6666666666667,4,2,0,25,0,0
138373,-83.3333333333333,4,2,0,25,0,0
139397,-74.0740740740741,4,2,0,25,0,0
139738,-83.3333333333333,4,2,0,25,0,0
139908,-100,4,2,0,25,0,0
141103,-71.4285714285714,4,2,0,25,0,0
141785,-100,4,2,0,25,0,0
143833,-100,4,2,0,10,0,0
144174,-100,4,2,0,15,0,0
144515,-100,4,2,1,40,0,0
144601,-100,4,2,0,20,0,0
144857,-100,4,2,0,23,0,0
145198,-100,4,2,0,25,0,1
145283,-100,4,2,0,25,0,1
150658,-100,4,2,0,25,0,0
156118,-100,4,2,1,50,0,1
156204,-100,4,2,0,25,0,1
161578,-66.6666666666667,4,2,0,25,0,0
162090,-66.6666666666667,4,2,0,25,0,0
162602,-76.9230769230769,4,2,0,25,0,0
163114,-90.9090909090909,4,2,0,25,0,0
163626,-83.3333333333333,4,2,0,25,0,0
164308,-83.3333333333333,4,3,2,25,0,0

[Colours]
Combo1 : 0,191,0
Combo2 : 255,0,0
Combo3 : 0,191,0
Combo4 : 255,255,0
Combo5 : 0,128,255

[HitObjects]
169,172,505,6,8,B|152:178|139:199|139:199|107:127|151:62|216:52,1,230,8|0,0:1|0:1,0:1:0:0:
492,224,1187,2,0,B|466:267|396:271|348:230|350:174|350:174|335:201,1,230,4|0,0:1|0:1,0:1:0:0:
167,261,1870,2,8,P|168:319|198:367,1,115,2|0,2:3|2:1,2:1:0:0:
306,291,2211,1,14,2:3:0:0:
103,340,2381,5,0,2:0:0:0:
62,310,2467,1,0,2:0:0:0:
46,260,2552,2,8,P|62:201|117:158,1,115,8|8,2:3|2:3,2:3:0:0:
244,211,2893,5,8,2:3:0:0:
28,90,3064,1,8,2:3:0:0:
112,165,3235,5,12,2:3:0:0:
166,152,3320,1,0,2:3:0:0:
190,102,3405,1,0,2:3:0:0:
166,53,3491,1,0,2:3:0:0:
111,41,3576,1,8,2:3:0:0:
68,77,3661,1,0,2:3:0:0:
62,135,3746,1,0,2:3:0:0:
83,190,3832,1,0,2:3:0:0:
129,229,3917,6,0,P|144:248|157:278,3,43.1250016450883,12|0|0|0,2:3|2:3|2:3|2:3,2:3:0:0:
164,96,4258,6,0,P|154:126|154:153,3,43.1250016450883,12|0|0|0,2:3|2:3|2:3|2:3,2:3:0:0:
152,264,4600,5,12,2:3:0:0:
152,264,4685,1,0,2:3:0:0:
152,264,4770,2,0,L|205:247,1,43.1250016450883,2|0,2:3|2:3,2:3:0:0:
311,278,4941,6,0,P|301:297|287:313,1,43.1250016450883,8|0,2:3|2:3,2:3:0:0:
358,173,5111,2,0,P|370:190|378:210,1,43.1250016450883,2|0,2:3|2:3,2:3:0:0:
360,62,5282,5,12,2:3:0:0:
360,62,5367,1,0,2:3:0:0:
360,62,5453,2,0,P|378:72|395:86,1,43.1250016450883,2|0,2:3|2:3,2:3:0:0:
264,57,5623,6,0,L|220:41,1,43.1250016450883,8|0,2:3|2:3,2:3:0:0:
148,116,5794,2,0,L|188:130,1,43.1250016450883,2|0,2:3|2:3,2:3:0:0:
280,155,5965,5,12,2:3:0:0:
295,210,6050,1,0,2:3:0:0:
341,240,6135,1,0,2:3:0:0:
396,229,6221,1,0,2:3:0:0:
427,184,6306,1,8,2:3:0:0:
419,129,6391,1,0,2:3:0:0:
375,94,6477,1,0,2:3:0:0:
319,98,6562,1,0,2:3:0:0:
282,144,6647,6,0,L|264:189,3,43.1250016450883,12|0|0|0,2:3|2:3|2:3|2:3,2:3:0:0:
231,74,6988,6,0,L|214:33,3,43.1250016450883,12|0|0|0,2:3|2:3|2:3|2:3,2:3:0:0:
208,229,7330,5,12,2:3:0:0:
208,229,7415,1,0,2:3:0:0:
208,229,7500,2,2,P|224:243|233:262,1,43.1250016450883,2|0,2:3|2:3,2:3:0:0:
189,336,7671,2,2,P|168:340|147:336,1,43.1250016450883,10|0,2:3|2:3,2:3:0:0:
105,266,7842,2,2,P|111:245|124:229,1,43.1250016450883,2|0,2:3|2:3,2:3:0:0:
192,148,8012,5,12,2:3:0:0:
192,148,8097,1,0,2:3:0:0:
192,148,8183,2,2,L|242:138,1,43.1250016450883,2|0,2:3|2:3,2:3:0:0:
308,42,8353,6,2,L|319:94,1,43.1250016450883,10|0,2:3|2:3,2:3:0:0:
395,149,8524,2,2,L|413:207,1,43.1250016450883,2|0,2:3|2:3,2:3:0:0:
480,280,8695,5,12,2:3:0:0:
480,280,8780,1,0,2:3:0:0:
480,280,8865,1,0,2:3:0:0:
480,280,8951,1,0,2:3:0:0:
480,280,9036,2,2,L|480:228,1,43.1250016450883,10|0,0:3|0:3,0:3:0:0:
367,342,9207,5,4,2:3:0:0:
367,342,9292,1,0,2:3:0:0:
367,342,9377,1,8,2:3:0:0:
367,342,9463,1,4,2:3:0:0:
367,342,9548,2,2,L|380:291,1,43.1250016450883,6|0,0:3|0:3,0:3:0:0:
334,114,9718,5,12,2:3:0:0:
334,114,9804,1,0,2:3:0:0:
334,114,9889,1,0,2:3:0:0:
334,114,9974,1,0,2:3:0:0:
334,114,10060,2,2,L|306:162,1,43.1250016450883,14|0,2:3|2:3,2:3:0:0:
231,302,10230,5,4,2:3:0:0:
231,302,10316,1,0,2:3:0:0:
231,302,10401,1,8,2:3:0:0:
231,302,10486,1,0,2:3:0:0:
231,302,10572,2,2,L|270:262,1,43.1250016450883,2|0,2:3|2:3,2:3:0:0:
92,309,10742,5,12,2:3:0:0:
92,309,10828,1,4,2:3:0:0:
92,309,10913,2,2,L|143:279,1,43.1250016450883,2|0,2:3|2:3,2:3:0:0:
104,86,11084,5,12,2:3:0:0:
104,86,11169,1,0,2:3:0:0:
104,86,11254,2,2,L|136:122,1,43.1250016450883,2|0,2:3|2:3,2:3:0:0:
194,174,11425,5,12,0:3:0:0:
246,185,11510,1,0,0:3:0:0:
299,171,11595,1,2,0:3:0:0:
343,136,11681,1,0,0:3:0:0:
390,108,11766,1,8,0:3:0:0:
443,113,11851,1,0,0:3:0:0:
480,152,11937,1,14,0:3:0:0:
479,207,12022,1,0,0:3:0:0:
436,283,12107,6,2,P|408:293|376:293,1,43.1250016450883,6|4,2:3|2:3,2:3:0:0:
280,252,12278,2,2,P|302:231|316:206,1,43.1250016450883,6|0,2:3|2:3,2:3:0:0:
378,130,12449,5,12,2:3:0:0:
378,130,12534,1,0,2:3:0:0:
378,130,12619,2,2,P|391:146|403:170,1,43.1250016450883,2|0,2:3|2:3,2:3:0:0:
247,323,12790,5,12,0:3:0:0:
193,312,12875,1,0,0:3:0:0:
160,267,12960,1,2,0:3:0:0:
166,212,13046,1,0,0:3:0:0:
184,158,13131,1,12,0:3:0:0:
166,105,13216,1,0,0:3:0:0:
120,78,13302,1,2,0:3:0:0:
64,85,13387,1,0,0:3:0:0:
27,123,13472,6,0,P|21:145|26:177,3,43.1250016450883,12|0|12|0,2:3|2:3|2:3|2:3,2:3:0:0:
103,248,13814,2,0,L|150:274,1,43.1250016450883,12|0,0:3|0:3,0:3:0:0:
225,237,13984,2,0,L|269:219,1,43.1250016450883,12|0,0:3|0:3,0:3:0:0:
380,212,14155,5,12,0:3:0:0:
432,193,14240,1,0,0:3:0:0:
455,142,14325,1,0,0:3:0:0:
430,92,14411,1,0,0:3:0:0:
377,75,14496,1,8,0:3:0:0:
329,104,14581,1,0,0:3:0:0:
304,155,14667,1,0,0:3:0:0:
288,210,14752,1,0,0:3:0:0:
264,262,14837,5,8,0:3:0:0:
222,300,14923,1,0,0:3:0:0:
168,317,15008,1,0,0:3:0:0:
113,305,15093,1,0,0:3:0:0:
74,264,15179,1,8,0:3:0:0:
66,208,15264,1,0,0:3:0:0:
90,157,15349,1,0,0:3:0:0:
142,135,15435,1,0,0:3:0:0:
196,137,15520,6,0,P|218:149|241:170,3,43.1250016450883,12|0|2|0,2:3|2:3|2:3|2:3,2:3:0:0:
334,251,15861,2,0,P|312:244|296:232,3,43.1250016450883,12|0|2|0,2:3|2:3|2:3|2:3,2:3:0:0:
234,339,16202,5,12,0:3:0:0:
234,339,16288,1,0,0:3:0:0:
234,339,16373,2,0,P|251:316|258:289,1,43.1250016450883,2|0,2:3|2:3,2:3:0:0:
92,288,16544,6,0,P|96:316|110:340,1,43.1250016450883,10|0,2:3|2:3,2:3:0:0:
50,151,16714,2,0,P|45:179|31:203,1,43.1250016450883,10|0,2:3|2:3,2:3:0:0:
101,52,16885,5,14,2:3:0:0:
135,102,16970,1,0,2:3:0:0:
189,127,17056,1,0,2:0:0:0:
249,120,17141,1,0,2:3:0:0:
304,97,17226,1,8,2:3:0:0:
283,149,17311,1,0,2:3:0:0:
277,206,17397,1,0,2:0:0:0:
284,264,17482,1,0,2:3:0:0:
301,316,17567,5,8,2:3:0:0:
251,291,17653,1,0,2:3:0:0:
194,287,17738,1,0,2:0:0:0:
139,301,17823,1,0,2:3:0:0:
87,327,17909,1,8,2:3:0:0:
108,275,17994,1,0,2:3:0:0:
154,240,18079,1,0,2:0:0:0:
209,222,18165,1,0,2:3:0:0:
268,222,18250,6,0,P|314:242|328:253,3,57.5,12|0|0|0,2:3|2:3|2:3|2:3,2:3:0:0:
156,157,18591,6,0,P|128:167|89:166,3,57.5,12|0|0|0,2:3|2:3|2:3|2:3,2:3:0:0:
236,52,18932,5,12,0:3:0:0:
236,52,19018,1,0,0:3:0:0:
236,52,19103,2,0,P|242:90|262:126,1,57.5,10|0,2:3|2:3,2:3:0:0:
382,162,19274,6,0,P|368:137|346:118,1,57.5,10|0,2:3|2:3,2:3:0:0:
307,251,19444,2,0,P|329:267|356:277,1,57.5,10|0,2:3|2:3,2:3:0:0:
465,227,19615,5,8,0:3:0:0:
205,302,19786,1,2,0:3:0:0:
70,168,19956,2,0,P|133:175|186:214,1,115,8|2,0:3|0:3,0:3:0:0:
89,294,20297,5,8,0:3:0:0:
364,345,20468,5,2,0:3:0:0:
285,356,20553,1,2,0:3:0:0:
210,337,20639,1,10,0:3:0:0:
294,198,20809,1,0,0:3:0:0:
427,298,20980,5,8,2:3:0:0:
422,52,21151,5,2,0:3:0:0:
345,57,21237,1,2,0:3:0:0:
274,91,21322,1,10,0:3:0:0:
385,210,21492,1,0,0:3:0:0:
493,92,21663,5,10,0:3:0:0:
249,172,21834,1,4,0:3:0:0:
54,97,22004,2,2,P|108:85|166:100,1,115,14|0,0:3|0:3,0:3:0:0:
254,183,22345,5,10,0:3:0:0:
253,182,22430,1,0,0:3:0:0:
253,182,22516,1,0,0:3:0:0:
253,182,22601,1,0,0:3:0:0:
253,182,22686,2,0,P|230:167|205:156,1,43.1250016450883,14|0,0:3|0:3,0:3:0:0:
46,170,22857,5,10,0:3:0:0:
46,170,22942,1,0,0:3:0:0:
46,170,23028,1,0,0:3:0:0:
46,170,23113,1,0,0:3:0:0:
46,170,23198,2,0,P|69:185|96:197,1,43.1250016450883,14|0,0:3|0:3,0:3:0:0:
141,94,23369,5,10,0:3:0:0:
141,94,23454,1,0,0:3:0:0:
141,94,23539,2,0,B|147:69|147:69|175:47,1,43.1250016450883,14|0,0:3|0:3,0:3:0:0:
175,250,23710,5,10,0:3:0:0:
175,250,23795,1,0,0:3:0:0:
175,250,23881,2,0,L|156:200,1,43.1250016450883,14|0,0:3|0:3,0:3:0:0:
314,290,24051,6,0,L|265:268,1,43.1250016450883,10|0,0:3|0:3,0:3:0:0:
414,200,24222,2,0,L|364:219,1,43.1250016450883,14|0,0:3|0:3,0:3:0:0:
407,68,24393,5,8,3:0:0:0:
407,68,24478,1,0,3:0:0:0:
407,68,24563,2,0,B|401:90|401:90|380:113,1,43.1250016450883,12|0,3:3|3:3,3:3:0:0:
279,129,24734,5,12,3:0:0:0:
309,168,24819,1,0,3:0:0:0:
320,214,24904,1,12,3:0:0:0:
309,262,24990,1,0,3:0:0:0:
252,344,25075,6,0,B|216:347|216:347|184:329,1,63.2500019302369,8|0,0:3|0:3,0:3:0:0:
130,241,25246,2,0,P|165:228|213:229,1,63.2500019302369,4|0,0:3|0:3,0:3:0:0:
305,269,25416,2,0,P|340:264|374:244,1,63.2500019302369,8|0,0:3|0:3,0:3:0:0:
467,163,25587,2,0,P|433:150|403:123,1,63.2500019302369,4|0,0:3|0:3,0:3:0:0:
374,10,25758,6,0,P|365:38|347:67,1,63.2500019302369,8|0,0:3|0:3,0:3:0:0:
263,69,25928,2,0,P|231:70|200:80,1,63.2500019302369,4|0,0:3|0:3,0:3:0:0:
166,163,26099,2,0,P|136:174|105:173,1,63.2500019302369,12|0,0:3|0:3,0:3:0:0:
59,83,26269,2,0,P|31:72|-3:79,1,63.2500019302369,12|0,0:3|0:3,0:3:0:0:
30,248,26440,6,0,P|59:265|107:268,1,63.2500019302369,8|0,0:3|0:3,0:3:0:0:
174,311,26611,2,0,P|194:272|231:244,1,63.2500019302369,14|0,0:3|0:3,0:3:0:0:
250,186,26781,2,0,P|292:170|316:144,1,63.2500019302369,14|0,0:3|0:3,0:3:0:0:
379,50,26952,2,0,P|371:91|383:138,1,63.2500019302369,14|0,0:3|0:3,0:3:0:0:
441,203,27123,5,10,0:3:0:0:
462,197,27208,1,0,0:3:0:0:
462,176,27293,1,0,0:3:0:0:
441,170,27379,1,0,0:3:0:0:
429,187,27464,1,14,0:3:0:0:
404,304,27635,1,10,0:3:0:0:
292,368,27805,6,0,P|255:381|211:380,1,63.2500019302369,8|0,0:3|0:3,0:3:0:0:
148,325,27976,2,0,P|130:293|92:265,1,63.2500019302369,4|0,0:3|0:3,0:3:0:0:
12,247,28146,6,0,P|22:218|18:184,1,63.2500019302369,8|0,0:3|0:3,0:3:0:0:
40,17,28317,2,0,P|34:51|34:80,1,63.2500019302369,4|0,0:3|0:3,0:3:0:0:
110,145,28488,6,0,P|135:159|157:185,1,63.2500019302369,8|0,0:3|0:3,0:3:0:0:
226,125,28658,2,0,P|256:123|286:108,1,63.2500019302369,4|0,0:3|0:3,0:3:0:0:
341,182,28829,2,0,P|372:178|401:184,1,63.2500019302369,12|0,0:3|0:3,0:3:0:0:
451,101,28999,2,0,P|478:106|512:94,1,63.2500019302369,12|0,0:3|0:3,0:3:0:0:
512,312,29170,6,0,P|490:283|459:272,1,63.2500019302369,8|0,0:3|0:3,0:3:0:0:
382,312,29341,2,0,P|342:308|294:324,1,63.2500019302369,14|0,0:3|0:3,0:3:0:0:
228,348,29511,2,0,P|213:321|189:302,1,63.2500019302369,14|0,0:3|0:3,0:3:0:0:
86,300,29682,2,0,P|91:268|84:218,1,63.2500019302369,14|0,0:3|0:3,0:3:0:0:
14,132,29853,6,0,P|-4:193|4:270,1,126.500003860474,10|0,0:3|0:3,0:3:0:0:
255,78,30194,1,10,0:3:0:0:
113,162,30365,1,10,0:3:0:0:
286,254,30535,6,0,P|305:298|305:335,1,63.2500019302369,8|0,0:3|0:3,0:3:0:0:
232,368,30706,2,0,P|201:353|177:329,1,63.2500019302369,4|0,0:3|0:3,0:3:0:0:
133,259,30876,2,0,P|98:273|65:277,1,63.2500019302369,8|0,0:3|0:3,0:3:0:0:
21,160,31047,2,0,P|57:184|101:188,1,63.2500019302369,4|0,0:3|0:3,0:3:0:0:
274,80,31218,2,0,P|239:66|206:62,1,63.2500019302369,12|0,0:3|0:3,0:3:0:0:
155,172,31388,2,12,P|191:148|235:144,1,63.2500019302369,12|0,0:3|0:3,0:3:0:0:
415,117,31559,6,0,P|431:86|445:57,1,63.2500019302369,10|0,0:0|0:0,0:0:0:0:
469,186,31730,2,0,L|442:243,1,63.2500019302369,10|0,0:0|0:0,0:0:0:0:
346,287,31900,6,0,P|313:300|282:299,1,63.2500019302369,8|0,0:3|0:3,0:3:0:0:
214,356,32071,2,0,P|179:352|150:358,1,63.2500019302369,4|0,0:3|0:3,0:3:0:0:
86,204,32242,2,0,P|50:216|22:235,1,63.2500019302369,8|0,0:3|0:3,0:3:0:0:
66,351,32413,2,0,P|77:309|108:277,1,63.2500019302369,4|0,0:3|0:3,0:3:0:0:
173,182,32583,6,0,P|159:149|140:127,1,63.2500019302369,12|0,0:3|0:3,0:3:0:0:
17,71,32753,2,0,P|32:100|54:121,1,63.2500019302369,12|0,0:3|0:3,0:3:0:0:
306,190,32924,6,0,L|316:251,1,63.2500019302369,10|0,0:0|0:0,0:0:0:0:
403,109,33095,2,0,L|388:195,1,63.2500019302369,10|0,0:0|0:0,0:0:0:0:
342,373,33265,6,0,P|305:372|273:384,1,63.2500019302369,8|0,0:3|0:3,0:3:0:0:
190,273,33436,2,0,P|213:292|247:300,1,63.2500019302369,4|0,0:3|0:3,0:3:0:0:
108,315,33607,2,0,P|78:295|49:289,1,63.2500019302369,8|0,0:3|0:3,0:3:0:0:
27,139,33777,6,0,P|45:108|46:61,1,63.2500019302369,4|0,0:3|0:3,0:3:0:0:
109,189,33948,2,0,P|136:220|168:232,1,63.2500019302369,12|0,0:3|0:3,0:3:0:0:
240,136,34118,2,0,P|212:104|180:92,1,63.2500019302369,12|0,0:3|0:3,0:3:0:0:
327,299,34289,6,0,L|333:237,1,57.5,12|0,0:3|0:0,0:0:0:0:
378,135,34459,2,0,L|383:78,1,57.5,6|0,0:0|0:0,0:0:0:0:
185,151,34630,5,12,0:3:0:0:
185,151,34716,1,0,0:3:0:0:
185,151,34801,2,0,P|164:140|140:108,1,57.5
223,0,34972,6,0,L|229:62,1,57.5,12|0,0:3|0:0,0:0:0:0:
274,164,35142,2,0,L|279:221,1,57.5,6|0,0:0|0:0,0:0:0:0:
340,305,35313,5,12,0:3:0:0:
340,305,35398,1,0,0:3:0:0:
340,305,35483,2,0,P|361:286|374:260,1,57.5
372,135,35654,5,12,0:3:0:0:
372,135,35739,1,0,0:0:0:0:
372,135,35825,2,0,P|359:109|333:84,1,57.5,12|0,0:0|0:0,0:0:0:0:
214,159,35995,5,8,0:1:0:0:
231,218,36081,1,0,0:3:0:0:
288,242,36166,1,0,0:3:0:0:
347,227,36251,1,0,0:3:0:0:
365,172,36337,1,12,0:3:0:0:
323,134,36422,1,0,0:3:0:0:
261,138,36507,1,0,0:3:0:0:
217,180,36593,1,0,0:3:0:0:
158,197,36678,5,12,0:3:0:0:
98,182,36763,1,0,0:3:0:0:
43,204,36848,1,0,0:3:0:0:
34,263,36934,1,0,0:3:0:0:
82,301,37019,1,12,0:3:0:0:
142,284,37104,1,0,0:3:0:0:
206,273,37190,1,0,0:3:0:0:
264,290,37275,1,0,0:3:0:0:
315,327,37360,6,0,P|343:335|387:336,3,57.5,12|0|0|0,0:3|0:3|0:3|0:3,0:3:0:0:
246,251,37702,6,0,P|232:218|235:178,1,68.9999978942872,10|0,0:3|0:3,0:3:0:0:
379,114,37872,2,0,P|347:129|307:126,1,68.9999978942872,10|0,0:3|0:3,0:3:0:0:
183,50,38043,5,8,0:3:0:0:
183,50,38128,1,0,0:3:0:0:
183,50,38214,2,0,P|216:62|242:92,1,68.9999978942872,10|0,0:3|0:3,0:3:0:0:
141,165,38384,2,0,P|108:177|82:207,1,68.9999978942872,10|0,0:3|0:3,0:3:0:0:
6,296,38555,2,0,P|39:308|65:338,1,68.9999978942872,10|0,0:3|0:3,0:3:0:0:
158,338,38725,5,12,0:3:0:0:
211,305,38811,1,0,0:3:0:0:
274,310,38896,1,0,0:3:0:0:
336,307,38981,1,0,0:3:0:0:
362,255,39067,1,12,0:3:0:0:
316,219,39152,1,0,0:3:0:0:
257,240,39237,1,0,0:3:0:0:
194,247,39323,1,0,0:3:0:0:
140,217,39408,5,12,0:3:0:0:
139,157,39493,1,0,0:3:0:0:
194,137,39579,1,0,0:3:0:0:
251,167,39664,1,0,0:3:0:0:
312,167,39749,1,12,0:3:0:0:
341,113,39834,1,0,0:3:0:0:
314,58,39920,1,0,0:3:0:0:
253,48,40005,1,0,0:3:0:0:
195,70,40090,6,0,P|155:78|122:72,3,57.5,12|0|0|0,0:3|0:3|0:3|0:3,0:3:0:0:
323,49,40432,6,0,P|363:57|403:88,1,68.9999978942872,10|0,0:3|0:3,0:3:0:0:
445,166,40602,2,0,P|406:177|369:220,1,68.9999978942872,10|0,0:3|0:3,0:3:0:0:
322,298,40773,5,8,0:3:0:0:
322,298,40858,1,0,0:3:0:0:
322,298,40944,2,0,P|306:257|283:231,1,68.9999978942872,10|0,0:3|0:3,0:3:0:0:
168,111,41114,6,0,P|184:148|187:194,1,80.499997543335,10|0,0:3|0:3,0:3:0:0:
103,343,41285,2,0,P|106:303|92:248,1,92,10|0,0:3|0:3,0:3:0:0:
21,167,41455,5,12,0:3:0:0:
41,16,41626,5,2,0:3:0:0:
65,65,41711,1,0,0:3:0:0:
89,115,41797,1,10,0:3:0:0:
261,130,41967,5,2,0:3:0:0:
265,184,42053,1,0,0:3:0:0:
270,239,42138,1,10,0:3:0:0:
424,176,42309,5,2,0:3:0:0:
418,248,42394,1,0,0:3:0:0:
412,318,42479,1,10,0:3:0:0:
232,28,42650,5,2,0:3:0:0:
238,96,42735,1,2,0:3:0:0:
242,167,42821,1,10,0:3:0:0:
248,236,42906,1,10,0:3:0:0:
252,305,42991,1,10,0:3:0:0:
376,347,43162,5,10,0:3:0:0:
252,374,43332,1,2,0:3:0:0:
91,258,43503,5,10,0:3:0:0:
236,281,43674,1,2,0:3:0:0:
400,137,43844,5,10,0:3:0:0:
216,168,44015,1,2,0:3:0:0:
281,0,44186,5,6,0:3:0:0:
112,328,46916,6,0,P|141:341|183:351,2,57.5,8|0|0,0:0|0:0|0:0,0:0:0:0:
131,132,47257,1,2,0:0:0:0:
249,341,47427,1,0,0:0:0:0:
419,296,47598,5,8,0:0:0:0:
328,339,47769,1,0,0:0:0:0:
169,203,47939,1,2,0:0:0:0:
328,339,48110,1,0,0:0:0:0:
443,245,48281,6,0,P|448:220|449:187,2,57.5,8|0|0,0:0|0:0|0:0,0:0:0:0:
241,245,48622,1,2,0:0:0:0:
398,333,48793,1,0,0:0:0:0:
415,99,48963,6,0,P|431:122|443:149,3,57.5,8|0|8|0,0:0|0:0|0:0|0:0,0:0:0:0:
291,239,49304,1,2,0:0:0:0:
326,2,49475,1,0,0:0:0:0:
222,174,49646,5,8,0:0:0:0:
145,189,49731,1,0,0:0:0:0:
86,139,49816,1,0,0:0:0:0:
146,29,49987,5,0,0:0:0:0:
117,289,50158,1,2,0:0:0:0:
293,237,50328,5,8,0:0:0:0:
312,371,50499,1,0,0:0:0:0:
420,152,50669,1,2,0:0:0:0:
407,234,50840,1,0,0:0:0:0:
323,71,51011,5,0,0:0:0:0:
250,44,51096,1,0,0:0:0:0:
185,81,51181,1,8,0:0:0:0:
370,0,51352,5,0,0:0:0:0:
260,162,51523,1,2,0:0:0:0:
441,57,51693,5,8,0:0:0:0:
488,148,51864,1,2,0:0:0:0:
425,249,52034,1,8,0:0:0:0:
480,350,52205,1,8,0:0:0:0:
190,159,52376,6,0,P|177:191|171:241,2,57.5,8|0|0,0:0|0:0|0:0,0:0:0:0:
261,99,52717,1,2,0:0:0:0:
139,96,52888,1,0,0:0:0:0:
290,210,53058,6,8,P|318:217|347:219,2,57.5,8|0|0,0:0|0:0|0:0,0:0:0:0:
237,138,53400,1,2,0:0:0:0:
247,281,53570,1,0,0:0:0:0:
105,279,53741,6,0,P|67:289|27:280,2,57.5,8|0|0,0:0|0:0|0:0,0:0:0:0:
157,203,54082,5,2,0:0:0:0:
139,384,54253,1,0,0:0:0:0:
418,266,54423,5,8,0:0:0:0:
257,267,54594,1,2,0:0:0:0:
359,344,54765,1,8,0:0:0:0:
281,378,54935,1,2,0:0:0:0:
430,167,55106,5,8,0:0:0:0:
366,138,55191,1,0,0:0:0:0:
302,164,55276,1,0,0:0:0:0:
185,258,55447,5,8,0:0:0:0:
249,287,55532,1,0,0:0:0:0:
313,260,55617,1,0,0:0:0:0:
124,30,55788,5,8,0:0:0:0:
105,193,55959,1,2,0:0:0:0:
143,109,56130,1,8,0:0:0:0:
160,264,56300,1,2,0:0:0:0:
302,182,56471,6,0,P|326:154|352:138,2,57.5,8|0|0,0:0|0:0|0:0,0:0:0:0:
301,319,56812,5,10,0:0:0:0:
421,336,56983,1,0,0:0:0:0:
230,255,57153,5,8,0:0:0:0:
442,176,57324,1,2,0:0:0:0:
163,179,57495,1,8,0:0:0:0:
301,36,57665,1,2,0:0:0:0:
119,271,57836,6,0,L|167:340,3,57.5,12|0|0|0,0:3|0:3|0:3|0:3,0:3:0:0:
227,318,58177,5,12,0:3:0:0:
279,265,58262,1,0,0:3:0:0:
350,246,58348,1,0,0:3:0:0:
400,192,58433,1,0,0:3:0:0:
472,175,58518,6,0,L|463:103,3,57.5,12|0|2|0,0:3|0:3|0:3|0:3,0:3:0:0:
399,67,58860,5,12,0:3:0:0:
326,49,58945,1,0,0:3:0:0:
259,85,59030,1,0,0:3:0:0:
233,155,59116,1,0,0:3:0:0:
258,229,59201,6,0,L|250:286,3,57.5,12|0|2|0,0:3|0:3|0:3|0:3,0:3:0:0:
77,265,59542,2,0,L|120:221,3,57.5,12|0|2|0,0:3|0:3|0:3|0:3,0:3:0:0:
0,98,59883,6,0,P|23:78|50:69,1,57.5,10|0,0:3|0:3,0:3:0:0:
121,123,60054,2,0,L|201:132,1,57.5,10|0,0:0|0:0,0:0:0:0:
226,205,60225,2,0,L|306:196,1,57.5,10|0,0:3|0:0,0:0:0:0:
430,270,60395,2,0,L|350:261,1,57.5,10|0,0:0|0:0,0:0:0:0:
296,345,60566,5,12,0:3:0:0:
226,379,60651,1,0,0:3:0:0:
151,365,60737,1,2,0:3:0:0:
107,304,60822,1,0,0:3:0:0:
114,228,60907,2,0,P|142:216|182:218,3,57.5,12|0|0|0,0:3|0:3|0:3|0:3,0:3:0:0:
242,242,61248,5,12,0:3:0:0:
312,216,61334,1,0,0:3:0:0:
345,147,61419,1,2,0:3:0:0:
331,71,61504,1,0,0:3:0:0:
271,26,61590,2,0,P|238:22|190:35,3,57.5,14|0|0|0,0:3|0:3|0:3|0:3,0:3:0:0:
150,75,61931,5,12,0:3:0:0:
136,151,62016,1,0,0:3:0:0:
169,220,62101,1,2,0:3:0:0:
239,246,62187,1,0,0:3:0:0:
314,234,62272,6,0,P|343:218|376:187,3,57.5,12|0|0|0,0:3|0:3|0:3|0:3,0:3:0:0:
239,246,62613,5,12,0:3:0:0:
163,234,62698,1,0,0:3:0:0:
104,190,62783,1,10,0:3:0:0:
74,123,62868,1,0,0:3:0:0:
91,51,62955,5,12,0:3:0:0:
180,83,63040,1,0,0:3:0:0:
248,159,63125,1,8,0:3:0:0:
267,257,63210,1,0,0:3:0:0:
244,352,63296,6,0,P|321:340|386:366,1,149.499993156433,10|0,2:0|2:0,2:0:0:0:
459,348,63552,1,0,2:0:0:0:
492,280,63637,1,10,2:0:0:0:
398,121,63808,1,2,2:0:0:0:
278,180,63979,6,0,P|201:168|136:194,1,149.499993156433,10|0,2:0|2:0,2:0:0:0:
61,184,64234,1,0,2:0:0:0:
27,118,64319,1,10,2:0:0:0:
166,8,64490,1,2,2:0:0:0:
335,297,64661,6,0,P|377:231|379:161,1,149.499993156433,10|0,2:0|2:0,2:0:0:0:
356,90,64917,1,0,2:0:0:0:
291,55,65002,1,10,2:0:0:0:
56,72,65173,5,10,2:0:0:0:
67,142,65258,1,0,2:0:0:0:
79,213,65343,1,10,2:0:0:0:
219,144,65514,6,0,L|234:235,1,74.7499965782167,10|2,2:0|2:0,2:0:0:0:
246,289,65685,1,10,2:0:0:0:
393,98,65855,1,2,2:0:0:0:
480,285,66026,6,0,P|417:266|350:290,1,115,10|8,2:0|2:0,2:0:0:0:
322,221,66282,1,0,2:0:0:0:
337,141,66367,1,10,2:0:0:0:
307,322,66538,1,2,2:0:0:0:
63,184,66709,6,0,P|125:165|192:189,1,115,10|8,2:0|2:0,2:0:0:0:
221,120,66965,1,0,2:0:0:0:
206,40,67050,1,10,2:0:0:0:
236,221,67221,1,2,2:0:0:0:
110,234,67391,6,10,P|110:67|262:73,1,344.999989471436,10|2,2:0|2:0,2:0:0:0:
311,133,67903,6,10,B|271:133|250:152|250:152|267:74|346:39|421:74,1,275.999991577149,10|10,2:0|2:0,2:0:0:0:
375,250,68415,5,10,2:0:0:0:
464,170,68585,1,2,2:0:0:0:
497,349,68756,6,2,B|470:338|389:325|424:412|320:386|293:373,1,195.500003728867,10|2,2:0|2:0,2:0:0:0:
141,228,69268,1,10,2:0:0:0:
255,65,69439,6,0,B|255:53|254:90|250:104|250:104|255:105|255:105|250:104|250:104|246:119|237:140|211:162,1,115,10|0,2:0|2:0,2:0:0:0:
18,336,69780,2,0,P|79:285|160:260,1,160.99999508667,10|0,2:0|2:0,2:0:0:0:
384,326,70121,5,10,2:0:0:0:
214,311,70292,1,0,2:0:0:0:
95,195,70462,2,0,P|89:118|188:94,1,160.99999508667,10|0,2:0|2:0,2:0:0:0:
355,176,70804,6,0,P|327:182|296:196,1,57.5,10|0,2:0|2:0,2:0:0:0:
191,310,70974,2,0,P|162:304|139:290,1,57.5,10|0,2:0|2:0,2:0:0:0:
98,184,71145,1,10,2:0:0:0:
300,265,71316,1,8,2:0:0:0:
449,139,71486,5,10,2:0:0:0:
309,58,71657,5,2,2:0:0:0:
277,73,71742,1,0,2:0:0:0:
243,68,71827,1,10,2:0:0:0:
110,80,71998,5,10,2:0:0:0:
111,155,72083,1,0,2:0:0:0:
167,205,72169,2,0,P|195:212|224:212,3,57.5,10|0|0|0,2:0|2:0|2:0|2:0,2:0:0:0:
273,148,72510,5,10,2:0:0:0:
348,152,72595,1,0,2:0:0:0:
384,216,72681,1,0,2:0:0:0:
358,284,72766,1,0,2:0:0:0:
288,313,72851,6,0,P|245:316|211:303,1,68.9999978942872,10|0,2:0|2:0,2:0:0:0:
170,185,73022,2,0,L|166:248,1,57.5,10|0,2:0|2:0,2:0:0:0:
62,77,73192,2,0,P|57:97|58:119,1,43.1250016450883,10|0,2:0|2:0,2:0:0:0:
170,185,73363,2,0,L|129:182,1,28.75,10|0,2:0|2:0,2:0:0:0:
379,115,73534,6,0,L|351:123,1,28.75,10|0,2:0|2:0,2:0:0:0:
268,184,73704,2,0,L|251:223,1,43.1250016450883,10|0,2:0|2:0,2:0:0:0:
311,311,73875,2,0,L|311:368,1,57.5,10|0,2:0|2:0,2:0:0:0:
429,277,74046,2,0,P|398:252|363:237,1,68.9999978942872,10|0,2:0|2:0,2:0:0:0:
185,239,74216,5,12,0:3:0:0:
114,225,74301,1,0,0:3:0:0:
91,157,74386,1,0,0:3:0:0:
142,106,74471,1,0,0:3:0:0:
210,126,74557,1,12,0:3:0:0:
235,195,74643,1,0,0:3:0:0:
293,238,74728,1,0,0:3:0:0:
364,228,74813,1,0,0:3:0:0:
419,182,74899,5,12,0:3:0:0:
433,254,74984,1,0,0:3:0:0:
408,324,75069,1,0,0:3:0:0:
343,359,75155,1,0,0:3:0:0:
269,355,75240,1,12,0:3:0:0:
214,305,75325,1,0,0:3:0:0:
149,276,75411,1,0,0:3:0:0:
80,297,75496,1,0,0:3:0:0:
48,226,75581,6,0,L|49:161,3,57.5,12|0|2|0,0:3|0:3|0:3|0:3,0:3:0:0:
275,45,75923,2,0,P|247:51|223:66,1,57.5,10|0,0:3|0:3,0:3:0:0:
213,185,76093,2,0,P|238:198|267:204,1,57.5,10|0,0:3|0:3,0:3:0:0:
396,118,76264,5,8,0:3:0:0:
396,118,76349,1,0,0:3:0:0:
396,118,76434,2,0,P|377:151|367:192,1,57.5,10|0,0:3|0:3,0:3:0:0:
276,229,76605,6,0,P|243:235|206:257,1,57.5,10|0,0:3|0:3,0:3:0:0:
120,194,76776,2,0,P|93:174|53:164,1,57.5,10|0,0:3|0:3,0:3:0:0:
37,249,76946,5,12,0:3:0:0:
52,320,77032,1,0,0:3:0:0:
112,360,77117,1,0,0:3:0:0:
181,342,77202,1,0,0:3:0:0:
215,277,77288,1,12,0:3:0:0:
189,210,77373,1,0,0:3:0:0:
126,172,77458,1,0,0:3:0:0:
93,107,77544,1,0,0:3:0:0:
126,43,77629,5,12,0:3:0:0:
196,30,77714,1,0,0:3:0:0:
250,78,77799,1,0,0:3:0:0:
268,149,77885,1,0,0:3:0:0:
321,199,77970,1,12,0:3:0:0:
394,207,78055,1,0,0:3:0:0:
453,166,78141,1,0,0:3:0:0:
473,96,78226,1,0,0:3:0:0:
431,36,78311,6,0,P|390:35|358:46,3,57.5,12|0|2|0,0:3|0:3|0:3|0:3,0:3:0:0:
485,182,78653,2,0,P|484:209|469:236,1,57.5,10|0,0:3|0:3,0:3:0:0:
384,329,78823,2,0,P|376:289|355:262,1,57.5,10|0,0:3|0:3,0:3:0:0:
278,165,78994,5,8,0:3:0:0:
278,165,79079,1,0,0:3:0:0:
278,165,79164,2,0,P|247:157|198:160,1,57.5,10|0,0:3|0:3,0:3:0:0:
75,235,79335,6,0,P|110:241|150:261,1,57.5,10|0,0:3|0:3,0:3:0:0:
192,340,79506,2,0,P|227:345|271:335,1,57.5,10|0,0:3|0:3,0:3:0:0:
440,353,79676,5,12,0:3:0:0:
481,315,79762,1,0,0:3:0:0:
472,260,79847,1,2,0:3:0:0:
423,236,79932,1,0,0:3:0:0:
375,265,80018,2,0,P|371:306|385:343,1,57.5,12|0,0:3|0:3,0:3:0:0:
306,134,80188,5,14,0:3:0:0:
240,120,80274,1,0,0:3:0:0:
194,166,80359,1,0,0:3:0:0:
206,228,80444,1,0,0:3:0:0:
265,255,80530,2,0,P|306:230|317:204,1,57.5,14|0,0:3|0:3,0:3:0:0:
419,108,80700,5,14,0:3:0:0:
451,159,80785,1,0,0:3:0:0:
461,220,80871,1,2,0:3:0:0:
446,282,80956,1,0,0:3:0:0:
408,330,81041,2,0,P|380:350|347:362,1,57.5,12|0,0:3|0:3,0:3:0:0:
174,308,81212,5,14,0:3:0:0:
175,246,81297,1,0,0:3:0:0:
226,213,81383,1,0,0:3:0:0:
280,237,81468,1,0,0:3:0:0:
292,297,81553,2,0,P|260:328|222:337,1,57.5,14|0,0:3|0:3,0:3:0:0:
77,287,81724,5,12,0:3:0:0:
42,242,81809,1,0,0:3:0:0:
60,190,81895,2,0,P|83:167|115:158,1,57.5,14|0,0:3|0:3,0:3:0:0:
280,237,82065,5,12,0:3:0:0:
315,192,82150,1,0,0:3:0:0:
297,140,82236,2,0,P|274:117|242:108,1,57.5,14|0,0:3|0:3,0:3:0:0:
159,39,82406,5,12,0:3:0:0:
109,66,82492,1,0,0:3:0:0:
83,117,82577,1,2,0:3:0:0:
89,173,82662,1,0,0:3:0:0:
125,217,82748,1,12,0:3:0:0:
179,233,82833,1,0,0:3:0:0:
234,218,82918,6,0,P|268:194|290:167,1,57.5,14|0,0:3|0:3,0:3:0:0:
318,22,83089,2,0,P|320:49|335:76,1,57.5,14|0,0:3|0:3,0:3:0:0:
450,152,83260,2,0,P|437:114|409:87,1,57.5,14|0,0:3|0:3,0:3:0:0:
274,77,83430,5,12,0:3:0:0:
223,134,83516,1,0,0:3:0:0:
243,206,83601,2,0,P|271:237|306:253,1,57.5,2|0,0:3|0:3,0:3:0:0:
388,271,83771,5,12,0:3:0:0:
439,216,83857,1,0,0:3:0:0:
409,144,83942,1,2,0:3:0:0:
335,131,84027,1,0,0:3:0:0:
285,191,84113,1,8,0:3:0:0:
221,230,84198,1,0,0:3:0:0:
146,223,84283,1,10,0:3:0:0:
76,196,84369,1,0,0:3:0:0:
19,241,84454,5,12,0:3:0:0:
37,312,84539,1,0,0:3:0:0:
109,324,84625,1,2,0:3:0:0:
183,306,84710,1,0,0:3:0:0:
259,316,84795,1,8,0:3:0:0:
330,344,84881,1,0,0:3:0:0:
406,348,84966,1,10,0:3:0:0:
472,312,85051,1,0,0:3:0:0:
478,241,85137,5,14,0:3:0:0:
420,201,85222,1,0,0:3:0:0:
353,224,85307,1,0,0:3:0:0:
322,288,85392,1,0,0:3:0:0:
270,337,85478,1,14,0:3:0:0:
199,335,85563,1,0,0:3:0:0:
154,281,85648,1,0,0:3:0:0:
163,210,85734,1,0,0:3:0:0:
221,172,85819,5,14,0:3:0:0:
282,139,85904,1,0,0:3:0:0:
281,70,85990,1,0,0:3:0:0:
219,40,86075,1,0,0:3:0:0:
203,111,86160,1,14,0:3:0:0:
246,168,86246,1,0,0:3:0:0:
317,171,86331,1,0,0:3:0:0:
375,126,86416,1,0,0:3:0:0:
375,53,86502,6,0,L|432:57,3,57.5,12|0|2|0,0:3|0:3|0:3|0:3,0:3:0:0:
512,176,86843,2,0,L|439:182,3,57.5,12|0|2|0,0:3|0:3|0:3|0:3,0:3:0:0:
340,235,87184,6,0,B|333:269|333:269|332:308,1,57.5,10|0,2:3|2:3,2:3:0:0:
181,343,87355,2,0,B|187:314|187:314|185:284,1,57.5,10|0,2:3|2:3,2:3:0:0:
258,140,87525,2,0,B|249:175|249:175|250:213,1,57.5,10|0,2:3|2:3,2:3:0:0:
110,234,87696,2,0,B|114:204|114:204|114:175,1,57.5,10|0,2:3|2:3,2:3:0:0:
88,54,87867,5,12,0:3:0:0:
152,33,87952,1,0,0:3:0:0:
212,61,88037,1,0,0:3:0:0:
233,124,88123,1,0,0:3:0:0:
204,184,88208,1,12,0:3:0:0:
153,227,88293,1,0,0:3:0:0:
144,293,88378,1,0,0:3:0:0:
184,347,88464,1,0,0:3:0:0:
241,384,88549,5,12,0:3:0:0:
283,330,88634,1,0,0:3:0:0:
286,262,88720,1,0,0:3:0:0:
253,203,88805,1,0,0:3:0:0:
196,167,88890,1,12,0:3:0:0:
154,115,88976,1,0,0:3:0:0:
161,49,89061,1,0,0:3:0:0:
223,24,89146,1,0,0:3:0:0:
280,58,89232,6,0,P|307:68|349:68,3,57.5,12|0|2|0,0:3|0:3|0:3|0:3,0:3:0:0:
432,53,89573,2,0,L|428:123,3,57.5,12|0|2|0,0:3|0:3|0:3|0:3,0:3:0:0:
331,217,89914,6,0,P|363:188|382:151,1,57.5,10|0,0:3|0:3,0:3:0:0:
225,180,90085,2,0,P|214:137|190:104,1,57.5,10|0,0:3|0:3,0:3:0:0:
52,170,90255,2,0,P|88:175|120:201,1,57.5,10|0,0:3|0:3,0:3:0:0:
154,280,90426,2,0,P|190:285|222:311,1,57.5,10|0,0:3|0:3,0:3:0:0:
355,349,90597,5,2,0:3:0:0:
460,181,90767,5,6,0:3:0:0:
442,235,90852,1,0,0:3:0:0:
424,290,90937,1,6,0:3:0:0:
352,52,91109,6,0,P|308:53|364:153,1,230,6|0,0:3|0:3,0:3:0:0:
401,123,91535,5,2,0:3:0:0:
384,206,91620,1,6,0:3:0:0:
264,281,91791,6,0,P|236:299|212:329,2,57.5,6|0|6,0:3|0:3|0:3,0:3:0:0:
98,114,92132,6,0,P|142:115|86:215,1,230,6|0,0:3|0:3,0:3:0:0:
55,185,92559,5,2,0:3:0:0:
75,270,92644,1,6,0:3:0:0:
398,186,92815,5,6,0:3:0:0:
329,150,92900,1,0,0:3:0:0:
251,170,92985,1,6,0:3:0:0:
208,362,93156,1,2,0:3:0:0:
158,189,93327,5,12,0:3:0:0:
103,138,93412,1,0,0:3:0:0:
29,154,93497,1,0,0:3:0:0:
0,222,93583,1,0,0:3:0:0:
30,290,93668,2,0,P|58:305|88:309,1,57.5,10|0,0:3|0:3,0:3:0:0:
276,304,93839,5,12,0:3:0:0:
329,248,93924,1,0,0:3:0:0:
335,173,94009,1,0,0:3:0:0:
287,112,94095,1,0,0:3:0:0:
212,97,94180,2,0,P|179:110|149:136,1,57.5,10|0,0:3|0:3,0:3:0:0:
148,279,94350,5,12,0:3:0:0:
212,319,94436,1,0,0:3:0:0:
288,325,94521,2,0,P|325:313|359:297,1,57.5,10|0,0:3|0:3,0:3:0:0:
267,49,94692,5,12,0:3:0:0:
194,67,94777,1,0,0:3:0:0:
138,119,94862,2,0,P|122:153|112:189,1,57.5,10|0,0:3|0:3,0:3:0:0:
139,285,95033,5,12,0:3:0:0:
212,272,95118,1,0,0:3:0:0:
279,305,95204,2,0,L|338:315,1,57.5,10|0,0:3|0:3,0:3:0:0:
418,154,95374,5,12,0:3:0:0:
355,203,95460,1,0,0:3:0:0:
276,208,95545,2,0,P|241:195|210:178,1,57.5,14|0,0:3|0:3,0:3:0:0:
108,30,95716,2,0,P|68:41|44:59,3,57.5,12|0|6|0,0:3|0:3|0:3|0:3,0:3:0:0:
33,136,96057,5,4,0:3:0:0:
89,179,96142,1,0,0:3:0:0:
162,189,96227,1,0,0:3:0:0:
231,167,96313,1,0,0:3:0:0:
300,145,96398,1,12,0:3:0:0:
372,158,96483,1,0,0:3:0:0:
441,179,96569,1,0,0:3:0:0:
503,145,96654,1,0,0:3:0:0:
507,75,96739,5,12,0:3:0:0:
450,34,96825,1,0,0:3:0:0:
383,55,96910,1,0,0:3:0:0:
368,124,96995,1,0,0:3:0:0:
411,181,97081,1,12,0:3:0:0:
445,245,97166,1,0,0:3:0:0:
440,317,97251,1,0,0:3:0:0:
396,374,97336,1,0,0:3:0:0:
323,378,97422,6,0,P|286:371|254:347,3,57.5,12|0|0|0,0:3|0:3|0:3|0:3,0:3:0:0:
199,292,97763,6,0,P|191:247|202:210,1,57.5,10|0,0:3|0:3,0:3:0:0:
338,193,97934,2,0,P|310:200|282:199,1,57.5,10|0,0:3|0:3,0:3:0:0:
220,118,98104,2,0,L|228:55,3,57.5,12|0|0|0,0:3|0:3|0:3|0:3,0:3:0:0:
193,248,98446,6,0,P|183:275|165:298,1,57.5,10|0,0:3|0:3,0:3:0:0:
96,204,98616,2,0,P|93:174|100:144,1,57.5,10|0,0:3|0:3,0:3:0:0:
134,72,98787,5,12,0:3:0:0:
211,87,98872,1,0,0:3:0:0:
288,76,98957,1,0,0:3:0:0:
363,54,99042,1,0,0:3:0:0:
440,59,99128,1,12,0:3:0:0:
487,119,99213,1,0,0:3:0:0:
463,190,99298,1,0,0:3:0:0:
390,209,99384,1,0,0:3:0:0:
322,175,99469,5,12,0:3:0:0:
259,134,99555,1,0,0:3:0:0:
184,139,99640,1,0,0:3:0:0:
126,188,99725,1,0,0:3:0:0:
111,263,99811,1,12,0:3:0:0:
143,331,99896,1,0,0:3:0:0:
211,366,99981,1,0,0:3:0:0:
285,353,100066,1,0,0:3:0:0:
360,335,100152,6,0,P|390:341|418:353,3,57.5,12|0|0|0,0:3|0:3|0:3|0:3,0:3:0:0:
215,369,100493,2,0,P|248:357|275:334,1,57.5,10|0,0:3|0:3,0:3:0:0:
79,303,100664,2,0,P|110:317|146:320,1,57.5,10|0,0:3|0:3,0:3:0:0:
54,151,100834,6,0,P|65:178|82:202,3,57.5,12|0|0|0,0:3|0:3|0:3|0:3,0:3:0:0:
164,228,101176,1,8,0:3:0:0:
247,237,101261,1,0,0:3:0:0:
331,247,101346,2,0,L|412:256,1,57.5,8|0,0:3|0:3,0:3:0:0:
472,199,101517,5,12,0:3:0:0:
461,182,101602,1,0,0:3:0:0:
443,172,101687,1,0,0:3:0:0:
425,169,101772,1,0,0:3:0:0:
408,173,101858,2,0,P|391:183|380:203,1,43.1250016450883,10|0,0:3|0:3,0:3:0:0:
362,310,102029,5,4,0:3:0:0:
343,333,102114,1,0,0:3:0:0:
317,348,102199,1,0,0:3:0:0:
289,354,102284,1,0,0:3:0:0:
262,347,102370,2,0,P|235:331|218:301,1,63.2500019302369,10|0,0:3|0:3,0:3:0:0:
216,93,102541,5,8,0:3:0:0:
154,56,102626,1,0,0:3:0:0:
84,78,102711,1,8,0:3:0:0:
60,146,102797,1,0,0:3:0:0:
104,218,102882,2,0,P|134:226|165:220,1,63.2500019302369,10|0,0:3|0:3,0:3:0:0:
341,71,103053,5,12,0:3:0:0:
333,120,103138,1,0,0:3:0:0:
327,171,103223,1,0,0:3:0:0:
320,222,103308,1,0,0:3:0:0:
313,271,103394,2,0,L|304:341,1,63.2500019302369,10|0,0:3|0:3,0:3:0:0:
165,209,103564,5,12,0:3:0:0:
170,154,103649,1,0,0:3:0:0:
178,99,103735,2,0,L|189:17,1,63.2500019302369,10|0,0:3|0:3,0:3:0:0:
354,169,103906,5,12,0:3:0:0:
325,238,103991,1,0,0:3:0:0:
261,271,104076,2,0,P|242:277|195:280,1,63.2500019302369,10|0,0:3|0:3,0:3:0:0:
0,138,104247,5,12,0:3:0:0:
63,143,104332,1,0,0:3:0:0:
126,148,104417,1,0,0:3:0:0:
188,154,104502,1,0,0:3:0:0:
249,159,104588,1,12,0:3:0:0:
313,165,104673,1,0,0:3:0:0:
375,172,104759,6,0,L|446:177,1,63.2500019302369,12|0,0:3|0:3,0:3:0:0:
261,264,104929,2,0,L|324:268,1,63.2500019302369,12|0,0:3|0:3,0:3:0:0:
353,357,105100,2,0,L|424:362,1,63.2500019302369,12|0,0:3|0:3,0:3:0:0:
498,281,105271,5,14,0:3:0:0:
512,212,105356,1,0,0:3:0:0:
483,147,105441,2,0,P|458:125|403:115,1,63.2500019302369,10|0,0:3|0:3,0:3:0:0:
307,152,105612,6,0,L|230:141,3,63.2500019302369,10|0|2|0,0:3|0:3|0:3|0:3,0:3:0:0:
157,40,105953,5,10,0:3:0:0:
148,109,106038,1,0,0:3:0:0:
139,178,106124,2,0,L|129:259,1,63.2500019302369,2|0,0:3|0:3,0:3:0:0:
122,336,106295,6,0,P|89:341|59:334,3,63.2500019302369,10|0|2|0,0:3|0:3|0:3|0:3,0:3:0:0:
214,294,106636,5,10,0:3:0:0:
283,275,106721,1,0,0:3:0:0:
354,279,106807,2,0,P|389:289|422:317,1,63.2500019302369,10|0,0:3|0:3,0:3:0:0:
486,363,106977,5,8,0:3:0:0:
512,295,107062,1,0,0:3:0:0:
476,231,107147,1,0,0:3:0:0:
411,198,107232,1,0,0:3:0:0:
342,222,107318,1,8,0:3:0:0:
320,150,107403,1,0,0:3:0:0:
331,76,107488,1,0,0:3:0:0:
380,21,107574,1,0,0:3:0:0:
453,28,107659,5,8,0:3:0:0:
407,85,107744,1,0,0:3:0:0:
337,106,107830,1,0,0:3:0:0:
267,82,107915,1,0,0:3:0:0:
200,50,108001,1,8,0:3:0:0:
137,90,108086,1,0,0:3:0:0:
138,164,108171,1,0,0:3:0:0:
199,205,108256,1,0,0:3:0:0:
269,185,108342,6,0,P|288:151|288:112,1,63.2500019302369,12|0,0:3|0:3,0:3:0:0:
159,78,108513,2,0,P|140:111|140:151,1,63.2500019302369,12|0,0:3|0:3,0:3:0:0:
175,275,108683,6,0,P|182:313|170:350,1,63.2500019302369,10|0,0:3|0:3,0:3:0:0:
297,251,108854,2,0,P|334:261|362:289,1,63.2500019302369,10|0,0:3|0:3,0:3:0:0:
414,188,109025,2,0,P|448:169|487:169,1,63.2500019302369,10|0,0:3|0:3,0:3:0:0:
307,122,109195,6,0,P|278:95|266:58,1,63.2500019302369,10|0,0:3|0:3,0:3:0:0:
154,133,109366,2,0,P|152:94|170:59,1,63.2500019302369,10|0,0:3|0:3,0:3:0:0:
12,65,109536,2,0,P|38:36|75:24,1,63.2500019302369,10|0,0:3|0:3,0:3:0:0:
210,5,109707,5,12,0:3:0:0:
285,0,109792,1,0,0:3:0:0:
332,58,109877,1,0,0:3:0:0:
305,128,109962,1,0,0:3:0:0:
236,98,110048,1,8,0:3:0:0:
160,117,110133,1,0,0:3:0:0:
119,180,110218,1,0,0:3:0:0:
143,252,110304,1,0,0:3:0:0:
209,293,110389,5,8,0:3:0:0:
253,230,110474,1,0,0:3:0:0:
328,218,110560,1,0,0:3:0:0:
392,258,110645,1,0,0:3:0:0:
331,304,110731,1,8,0:3:0:0:
256,294,110816,1,0,0:3:0:0:
195,251,110901,1,0,0:3:0:0:
179,177,110986,1,0,0:3:0:0:
207,105,111072,6,0,P|236:80|280:64,1,63.2500019302369,12|0,0:3|0:3,0:3:0:0:
473,111,111242,6,0,P|441:115|415:132,1,63.2500019302369,10|0,0:3|0:3,0:3:0:0:
365,218,111413,2,0,P|339:199|309:192,1,63.2500019302369,10|0,0:3|0:3,0:3:0:0:
211,250,111584,2,0,P|216:219|209:188,1,63.2500019302369,10|0,0:3|0:3,0:3:0:0:
102,257,111754,6,0,P|61:251|36:234,1,63.2500019302369,10|0,0:3|0:3,0:3:0:0:
141,91,111925,2,0,P|171:85|217:98,1,74.7499965782167,10|0,0:3|0:3,0:3:0:0:
289,182,112096,2,0,P|317:168|369:169,1,80.499997543335,10|0,0:3|0:3,0:3:0:0:
395,286,112267,2,0,P|417:263|469:251,1,86.2500032901765,10|0,0:3|0:3,0:3:0:0:
487,345,112437,5,12,0:3:0:0:
469,356,112522,1,0,0:3:0:0:
441,359,112608,1,0,0:3:0:0:
416,354,112693,1,0,0:3:0:0:
388,336,112778,1,10,0:3:0:0:
376,301,112864,1,0,0:3:0:0:
360,268,112949,1,12,0:3:0:0:
332,249,113034,1,0,0:3:0:0:
296,242,113120,5,0,0:3:0:0:
262,260,113205,1,0,0:3:0:0:
234,292,113290,1,8,0:3:0:0:
214,323,113376,1,0,0:3:0:0:
180,347,113461,1,10,0:3:0:0:
133,351,113546,1,0,0:3:0:0:
84,331,113632,1,10,0:3:0:0:
51,283,113717,1,0,0:3:0:0:
45,226,113802,5,10,0:3:0:0:
50,173,113888,1,0,0:3:0:0:
85,123,113973,1,12,0:3:0:0:
140,91,114058,1,0,0:3:0:0:
209,89,114143,1,0,0:3:0:0:
273,123,114229,1,0,0:3:0:0:
312,190,114314,1,12,0:3:0:0:
305,269,114399,1,0,0:3:0:0:
260,336,114485,5,14,0:3:0:0:
197,273,114570,1,0,0:3:0:0:
176,192,114655,1,14,0:3:0:0:
205,114,114740,1,0,0:3:0:0:
273,66,114826,1,14,0:3:0:0:
357,66,114911,1,0,0:3:0:0:
426,115,114996,1,14,0:3:0:0:
455,195,115082,1,0,0:3:0:0:
433,285,115167,2,0,B|400:336|318:348|259:318|259:318|190:337|108:310|68:229|68:229|6:214|-26:145|-5:83|-5:83|17:114|59:145|116:143|116:143|141:199|204:237|260:227|290:223|290:223|324:268|398:279|433:264,1,1103.99996630859,12|2,3:0|0:0,0:0:0:0:
90,90,117897,6,0,L|81:165,2,57.5
100,0,118239,1,2,0:0:0:0:
165,180,118409,1,0,0:0:0:0:
248,41,118580,5,0,0:0:0:0:
339,94,118750,1,0,0:0:0:0:
421,25,118921,1,2,0:0:0:0:
512,79,119091,1,0,0:0:0:0:
506,249,119262,6,0,L|515:324,2,57.5
496,159,119604,1,2,0:0:0:0:
429,338,119774,1,0,0:0:0:0:
254,213,119945,6,0,L|179:222,3,57.5
135,286,120286,5,2,0:0:0:0:
162,71,120457,1,0,0:0:0:0:
362,137,120627,6,0,P|393:132|437:106,2,57.5
239,75,120969,1,2,0:0:0:0:
304,258,121139,1,0,0:0:0:0:
65,192,121310,5,0,0:0:0:0:
270,168,121480,1,0,0:0:0:0:
101,82,121651,1,2,0:0:0:0:
190,18,121822,1,0,0:0:0:0:
171,223,121992,6,0,L|180:296,2,57.5
159,130,122334,1,2,0:0:0:0:
83,272,122504,1,0,0:0:0:0:
286,177,122675,5,0,0:0:0:0:
337,266,122846,1,0,0:0:0:0:
415,114,123017,1,2,0:0:0:0:
462,303,123187,1,0,0:0:0:0:
393,233,123357,5,0,0:0:0:0:
329,275,123442,1,0,0:0:0:0:
259,248,123527,1,0,0:0:0:0:
264,68,123699,5,2,0:0:0:0:
353,54,123869,1,0,0:0:0:0:
80,171,124040,5,0,0:0:0:0:
144,213,124125,1,0,0:0:0:0:
214,186,124210,1,0,0:0:0:0:
278,0,124381,5,2,0:0:0:0:
298,135,124551,1,0,0:0:0:0:
164,39,124722,5,0,0:0:0:0:
157,84,124807,1,0,0:0:0:0:
151,130,124892,1,0,0:0:0:0:
92,0,125064,5,2,0:0:0:0:
255,32,125234,1,0,0:0:0:0:
205,222,125405,5,0,0:0:0:0:
355,132,125576,1,0,0:0:0:0:
462,277,125746,1,2,0:0:0:0:
383,233,125917,1,0,0:0:0:0:
338,301,126087,6,0,L|332:370,2,57.5
223,171,126429,2,2,P|212:144|213:82,2,57.5
94,314,126770,5,0,0:0:0:0:
219,321,126941,1,0,0:0:0:0:
230,196,127111,1,2,0:0:0:0:
103,180,127282,1,0,0:0:0:0:
297,280,127453,6,0,L|368:290,3,43.1250016450883,4|0|0|0,0:3|0:3|0:3|0:3,0:3:0:0:
441,212,127794,2,0,L|370:222,3,43.1250016450883,4|0|0|0,0:3|0:3|0:3|0:3,0:3:0:0:
254,139,128135,5,4,0:3:0:0:
284,157,128220,1,0,0:3:0:0:
326,158,128305,1,0,0:3:0:0:
369,136,128390,1,0,0:3:0:0:
388,88,128476,1,4,0:3:0:0:
369,31,128561,1,0,0:3:0:0:
302,9,128646,1,0,0:3:0:0:
236,50,128731,1,0,0:3:0:0:
245,127,128818,5,12,0:3:0:0:
302,66,128903,1,0,0:3:0:0:
384,51,128988,1,0,0:3:0:0:
458,92,129073,1,0,0:3:0:0:
470,165,129159,1,8,0:3:0:0:
430,224,129244,1,0,0:3:0:0:
372,233,129329,1,0,0:3:0:0:
329,219,129415,1,0,0:3:0:0:
293,209,129500,5,12,0:3:0:0:
254,211,129585,1,0,0:3:0:0:
216,239,129671,1,0,0:3:0:0:
210,285,129756,1,0,0:3:0:0:
242,327,129841,1,8,0:3:0:0:
298,325,129927,1,0,0:3:0:0:
335,272,130012,1,0,0:3:0:0:
297,212,130097,1,0,0:3:0:0:
221,214,130183,5,12,0:3:0:0:
148,199,130268,1,0,0:3:0:0:
96,142,130353,1,0,0:3:0:0:
111,67,130438,1,0,0:3:0:0:
179,37,130524,1,12,0:3:0:0:
248,61,130609,1,0,0:3:0:0:
325,66,130694,1,0,0:3:0:0:
396,47,130779,1,0,0:3:0:0:
462,80,130865,5,12,0:3:0:0:
465,155,130950,1,0,0:3:0:0:
407,207,131036,1,4,0:3:0:0:
334,194,131121,1,0,0:3:0:0:
274,142,131206,1,12,0:3:0:0:
195,139,131291,1,0,0:3:0:0:
141,192,131377,1,4,0:3:0:0:
156,266,131462,1,0,0:3:0:0:
233,295,131548,5,12,0:3:0:0:
309,274,131633,1,0,0:3:0:0:
361,215,131718,1,0,0:3:0:0:
373,137,131803,1,0,0:3:0:0:
341,65,131889,1,8,0:3:0:0:
274,22,131974,1,0,0:3:0:0:
195,23,132059,1,0,0:3:0:0:
129,67,132145,1,0,0:3:0:0:
171,132,132230,5,12,0:3:0:0:
243,151,132315,1,0,0:3:0:0:
319,142,132400,1,0,0:3:0:0:
384,102,132485,1,0,0:3:0:0:
421,36,132571,1,8,0:3:0:0:
462,99,132656,1,0,0:3:0:0:
474,174,132741,1,0,0:3:0:0:
454,248,132827,1,0,0:3:0:0:
392,298,132913,5,12,0:3:0:0:
315,318,132998,1,0,0:3:0:0:
241,294,133083,1,0,0:3:0:0:
190,233,133168,1,0,0:3:0:0:
180,156,133254,1,12,0:3:0:0:
215,84,133339,1,0,0:3:0:0:
284,44,133424,1,0,0:3:0:0:
363,48,133510,1,0,0:3:0:0:
379,126,133595,5,12,0:3:0:0:
355,201,133680,1,0,0:3:0:0:
296,253,133765,1,4,0:3:0:0:
218,264,133850,1,0,0:3:0:0:
147,233,133936,1,12,0:3:0:0:
103,166,134021,1,0,0:3:0:0:
105,87,134106,1,4,0:3:0:0:
147,20,134192,1,0,0:3:0:0:
225,31,134278,6,0,P|296:80|384:66,1,172.500006580353,10|0,0:0|0:0,0:0:0:0:
437,117,134534,1,0,0:0:0:0:
416,193,134619,1,10,0:0:0:0:
317,0,134790,1,2,0:0:0:0:
311,181,134960,6,0,P|240:230|152:216,1,172.500006580353,10|0,0:0|0:0,0:0:0:0:
99,267,135216,1,0,0:0:0:0:
120,343,135301,1,10,0:0:0:0:
219,150,135472,1,2,0:0:0:0:
240,331,135643,6,0,B|253:357|289:369|309:371|309:371|310:365|310:365|311:371|311:371|329:374|363:371|398:344,1,172.500006580353,8|0,0:0|0:0,0:0:0:0:
484,188,135984,2,0,P|342:195|314:271,1,172.500006580353,10|0,0:0|0:0,0:0:0:0:
168,72,136325,2,0,P|306:100|322:180,1,172.500006580353,10|0,0:0|0:0,0:0:0:0:
444,47,136666,1,10,0:0:0:0:
425,269,136837,1,10,0:0:0:0:
512,106,137008,5,8,0:0:0:0:
347,232,137178,1,10,0:0:0:0:
266,248,137263,1,0,0:0:0:0:
188,219,137348,1,10,0:0:0:0:
299,120,137520,1,2,0:0:0:0:
116,273,137690,5,8,0:0:0:0:
0,85,137861,1,10,0:0:0:0:
81,69,137946,1,0,0:0:0:0:
159,98,138031,1,10,0:0:0:0:
270,5,138202,1,2,0:0:0:0:
172,301,138373,6,10,P|254:353|343:177,1,344.999989471436,10|2,0:0|0:0,0:0:0:0:
376,297,138885,2,10,B|396:328|439:346|439:346|507:314|535:227|483:121,1,275.999991577149
245,231,139397,6,8,P|180:182|91:187,1,155.250000592232,10|8,0:0|0:0,0:0:0:0:
0,40,139738,2,2,B|117:122|165:-12|282:76,1,275.999991577149,10|2,0:0|0:0,0:0:0:0:
198,139,140250,1,8,0:0:0:0:
366,67,140420,5,10,0:0:0:0:
350,179,140591,1,0,0:0:0:0:
217,245,140762,1,10,0:0:0:0:
40,220,140932,1,0,0:0:0:0:
0,68,141103,6,0,P|89:61|167:110,1,160.99999508667,10|0,0:0|0:0,0:0:0:0:
231,259,141444,1,10,0:0:0:0:
411,223,141615,1,0,0:0:0:0:
336,58,141785,6,0,P|300:50|251:59,3,57.5,10|0|0|0,0:0|0:0|0:0|0:0,0:0:0:0:
68,111,142127,1,10,0:0:0:0:
249,289,142297,1,0,0:0:0:0:
459,209,142468,1,10,0:0:0:0:
462,347,142639,6,0,P|489:337|516:319,2,57.5,10|0|0,0:0|0:0|0:0,0:0:0:0:
265,299,142980,2,0,L|271:241,5,57.5,10|0|10|0|10|0,0:0|0:0|0:0|0:0|0:0|0:0,0:0:0:0:
311,160,143492,5,10,0:0:0:0:
293,166,143577,1,0,0:0:0:0:
274,165,143662,1,10,0:0:0:0:
256,157,143747,1,0,0:0:0:0:
193,234,143833,6,0,L|126:240,3,57.5,10|0|0|0,0:0|0:0|0:0|0:0,0:0:0:0:
36,158,144174,2,0,L|103:164,3,57.5,10|0|0|0,0:0|0:0|0:0|0:0,0:0:0:0:
178,27,144515,2,0,L|172:94,3,57.5,2|0|0|0,0:3|0:0|0:0|0:0,0:0:0:0:
235,176,144857,1,10,0:0:0:0:
287,186,144942,1,0,0:0:0:0:
339,171,145027,1,0,0:0:0:0:
371,122,145113,1,0,0:0:0:0:
355,53,145198,5,14,0:3:0:0:
290,21,145283,1,0,0:3:0:0:
222,33,145368,1,0,0:3:0:0:
172,84,145453,1,0,0:3:0:0:
162,153,145539,1,8,0:3:0:0:
194,216,145624,1,0,0:3:0:0:
256,248,145709,1,0,0:3:0:0:
325,237,145795,1,0,0:3:0:0:
364,177,145880,5,10,0:3:0:0:
346,103,145965,1,0,0:3:0:0:
276,75,146050,1,0,0:3:0:0:
209,107,146135,1,0,0:3:0:0:
200,181,146222,1,10,0:3:0:0:
262,226,146306,1,0,0:3:0:0:
338,214,146391,1,0,0:3:0:0:
409,242,146477,1,0,0:3:0:0:
439,307,146562,5,14,0:3:0:0:
483,252,146647,1,0,0:3:0:0:
501,187,146733,1,2,0:3:0:0:
491,120,146818,1,0,0:3:0:0:
457,62,146903,1,10,0:3:0:0:
408,109,146989,1,0,0:3:0:0:
345,132,147074,1,2,0:3:0:0:
279,135,147159,1,0,0:3:0:0:
223,102,147245,5,14,0:3:0:0:
168,81,147330,1,0,0:3:0:0:
112,97,147415,1,0,0:3:0:0:
75,142,147500,1,0,0:3:0:0:
72,200,147587,1,10,0:3:0:0:
102,249,147671,1,0,0:3:0:0:
156,271,147756,1,10,0:3:0:0:
218,262,147843,1,0,0:3:0:0:
269,216,147928,5,14,0:3:0:0:
332,174,148013,1,0,0:3:0:0:
406,173,148098,1,0,0:3:0:0:
473,209,148183,1,0,0:3:0:0:
429,269,148269,1,8,0:3:0:0:
360,300,148354,1,0,0:3:0:0:
286,290,148439,1,0,0:3:0:0:
226,244,148524,1,0,0:3:0:0:
197,173,148611,5,8,0:3:0:0:
220,100,148696,1,0,0:3:0:0:
276,51,148781,1,0,0:3:0:0:
350,38,148866,1,0,0:3:0:0:
328,110,148952,5,8,0:3:0:0:
270,160,149037,1,0,0:3:0:0:
197,173,149122,1,0,0:3:0:0:
126,146,149207,1,0,0:3:0:0:
84,84,149293,5,14,0:3:0:0:
141,46,149378,1,0,0:3:0:0:
209,37,149463,1,2,0:3:0:0:
274,58,149548,1,0,0:3:0:0:
324,105,149634,1,10,0:3:0:0:
349,169,149719,1,0,0:3:0:0:
344,237,149804,1,2,0:3:0:0:
310,296,149890,1,0,0:3:0:0:
252,264,149975,5,14,0:3:0:0:
186,252,150060,1,0,0:3:0:0:
122,270,150146,1,0,0:3:0:0:
75,314,150231,1,0,0:3:0:0:
123,359,150317,5,10,0:3:0:0:
185,370,150402,1,0,0:3:0:0:
246,353,150488,1,2,0:3:0:0:
291,311,150573,1,0,0:3:0:0:
306,253,150658,6,0,P|301:211|289:179,1,57.5,12|0,0:3|0:3,0:3:0:0:
169,130,150829,2,0,P|174:172|186:204,1,57.5,0|0,0:3|0:3,0:3:0:0:
297,47,150999,2,0,L|217:42,1,57.5,8|0,0:3|0:3,0:3:0:0:
73,59,151170,2,0,L|130:62,1,57.5,2|0,0:3|0:3,0:3:0:0:
333,169,151341,6,0,P|352:190|362:217,1,57.5,8|0,0:3|0:3,0:3:0:0:
227,209,151512,2,0,P|209:185|201:158,1,57.5,8|0,0:3|0:3,0:3:0:0:
282,55,151682,5,14,0:3:0:0:
352,38,151767,1,0,0:3:0:0:
425,57,151852,1,0,0:3:0:0:
484,102,151937,1,0,0:3:0:0:
493,175,152023,6,0,L|486:243,1,57.5,8|0,0:3|0:3,0:3:0:0:
419,354,152194,2,0,L|424:296,1,57.5,2|0,0:3|0:3,0:3:0:0:
343,175,152364,2,0,P|310:163|280:166,1,57.5,8|0,0:3|0:3,0:3:0:0:
211,228,152535,2,0,P|182:228|156:218,1,57.5,2|0,0:3|0:3,0:3:0:0:
72,53,152706,6,0,L|72:110,1,57.5,10|0,0:3|0:3,0:3:0:0:
44,220,152877,2,0,L|49:277,1,57.5,10|0,0:3|0:3,0:3:0:0:
187,364,153047,5,14,0:3:0:0:
262,352,153132,1,0,0:3:0:0:
321,304,153217,1,0,0:3:0:0:
342,231,153302,1,0,0:3:0:0:
321,160,153388,6,0,L|272:109,1,57.5,10|0,0:3|0:3,0:3:0:0:
129,63,153559,2,0,L|175:114,1,57.5,0|0,0:3|0:3,0:3:0:0:
219,213,153729,6,0,P|191:223|162:225,1,57.5,8|0,0:3|0:3,0:3:0:0:
6,148,153900,2,0,P|32:140|62:141,1,57.5,2|0,0:3|0:3,0:3:0:0:
181,317,154071,6,0,B|153:334|153:334|137:358,1,57.5,10|0,0:3|0:3,0:3:0:0:
0,352,154242,2,0,B|26:342|26:342|55:312,1,57.5,2|0,0:3|0:3,0:3:0:0:
134,119,154412,6,0,L|130:48,3,57.5,10|0|0|0,0:3|0:3|0:3|0:3,0:3:0:0:
337,205,154753,5,12,0:3:0:0:
297,233,154838,1,0,0:3:0:0:
244,233,154923,1,2,0:3:0:0:
210,272,155009,1,0,0:3:0:0:
163,288,155094,1,12,0:3:0:0:
114,273,155179,1,0,0:3:0:0:
84,234,155264,1,2,0:3:0:0:
85,182,155350,1,0,0:3:0:0:
125,142,155436,5,12,0:3:0:0:
179,125,155521,1,0,0:3:0:0:
235,137,155606,1,2,0:3:0:0:
278,174,155691,1,0,0:3:0:0:
328,140,155777,5,14,0:3:0:0:
388,121,155862,1,0,0:3:0:0:
450,134,155947,1,2,0:3:0:0:
498,175,156032,1,0,0:3:0:0:
464,237,156118,5,4,0:3:0:0:
401,269,156203,1,0,0:3:0:0:
330,268,156288,1,0,0:3:0:0:
268,230,156373,1,0,0:3:0:0:
234,168,156459,1,12,0:3:0:0:
235,98,156544,1,0,0:3:0:0:
270,36,156629,1,0,0:3:0:0:
332,1,156715,1,0,0:3:0:0:
361,66,156801,5,14,0:3:0:0:
352,136,156886,1,0,0:3:0:0:
317,199,156971,1,0,0:3:0:0:
261,243,157056,1,0,0:3:0:0:
192,262,157142,1,14,0:3:0:0:
121,254,157227,1,0,0:3:0:0:
59,219,157312,1,0,0:3:0:0:
26,155,157398,1,0,0:3:0:0:
82,107,157483,5,14,0:3:0:0:
153,90,157568,1,0,0:3:0:0:
224,107,157653,1,4,0:3:0:0:
279,155,157738,1,0,0:3:0:0:
303,225,157824,1,14,0:3:0:0:
288,296,157909,1,0,0:3:0:0:
241,352,157995,1,4,0:3:0:0:
172,377,158080,1,0,0:3:0:0:
102,360,158166,5,14,0:3:0:0:
144,300,158251,1,0,0:3:0:0:
162,230,158336,1,2,0:3:0:0:
153,159,158421,1,0,0:3:0:0:
194,218,158507,5,14,0:3:0:0:
260,248,158592,1,0,0:3:0:0:
332,254,158677,1,6,0:3:0:0:
400,233,158762,1,0,0:3:0:0:
428,164,158848,5,14,0:3:0:0:
352,142,158934,1,0,0:3:0:0:
277,157,159019,1,0,0:3:0:0:
216,202,159104,1,0,0:3:0:0:
193,274,159190,1,14,0:3:0:0:
234,336,159275,1,0,0:3:0:0:
307,329,159360,1,0,0:3:0:0:
336,261,159446,1,0,0:3:0:0:
291,201,159531,5,14,0:3:0:0:
216,196,159616,1,0,0:3:0:0:
141,216,159702,1,0,0:3:0:0:
68,196,159787,1,0,0:3:0:0:
39,130,159872,1,14,0:3:0:0:
80,68,159958,1,0,0:3:0:0:
156,64,160043,1,0,0:3:0:0:
209,117,160128,1,0,0:3:0:0:
200,191,160213,5,14,0:3:0:0:
137,232,160298,1,0,0:3:0:0:
61,230,160383,1,6,0:3:0:0:
7,284,160468,1,0,0:3:0:0:
20,356,160554,1,14,0:3:0:0:
93,372,160639,1,0,0:3:0:0:
164,335,160724,1,6,0:3:0:0:
240,338,160810,1,0,0:3:0:0:
309,375,160896,5,14,0:3:0:0:
387,383,160980,1,0,0:3:0:0:
461,364,161066,1,14,0:3:0:0:
510,295,161151,1,0,0:3:0:0:
512,215,161236,1,14,0:3:0:0:
468,135,161322,1,0,0:3:0:0:
378,103,161408,1,14,0:3:0:0:
286,123,161492,1,0,0:3:0:0:
228,200,161578,6,2,P|174:243|52:210,1,172.500006580353,14|2,3:0|3:0,3:0:0:0:
165,72,161920,1,0,3:0:0:0:
272,281,162090,2,2,B|299:290|321:325|321:325|373:250|333:176|316:161,1,172.500006580353,14|2,2:0|3:0,3:0:0:0:
28,274,162431,1,0,3:0:0:0:
101,311,162517,1,0,3:0:0:0:
181,288,162602,2,0,P|198:217|146:152,1,149.499993156433,14|0,3:0|3:0,3:0:0:0:
19,358,162943,1,0,3:0:0:0:
116,127,163114,6,14,P|199:80|348:143,1,253.000007720947,14|14,2:0|3:0,3:0:0:0:
394,330,163626,1,6,3:0:0:0:
214,278,163797,1,0,3:0:0:0:
365,239,163967,1,6,3:0:0:0:
283,327,164138,1,0,3:0:0:0:
221,181,164308,1,0,3:0:0:0:
256,192,164394,12,4,166185,2:0:0:0:
