osu file format v14

[General]
AudioFilename: audio.mp3
AudioLeadIn: 0
PreviewTime: 409
Countdown: 0
SampleSet: Soft
StackLeniency: 0.7
Mode: 0
LetterboxInBreaks: 0
WidescreenStoryboard: 0

[Editor]
DistanceSpacing: 1.2
BeatDivisor: 3
GridSize: 4
TimelineZoom: 1

[Metadata]
Title:Market
TitleUnicode:城下町
Artist:Kondo Koji
ArtistUnicode:近藤浩治
Creator:MoodyRPG
Version:Hard
Source:ゼルダの伝説 時のオカリナ
Tags:gens nintendo n64 oot Legend of Zelda ocarina of time Zeruda no Densetsu: Toki no Okarina video game instrumental joukamachi
BeatmapID:2110032
BeatmapSetID:1008184

[Difficulty]
HPDrainRate:6
CircleSize:4.5
OverallDifficulty:7
ApproachRate:7
SliderMultiplier:1.6
SliderTickRate:1

[Events]
//Background and Video events
0,0,"Townjpg.jpg",0,0
//Break Periods
//Storyboard Layer 0 (Background)
//Storyboard Layer 1 (Fail)
//Storyboard Layer 2 (Pass)
//Storyboard Layer 3 (Foreground)
//Storyboard Layer 4 (Overlay)
//Storyboard Sound Samples

[TimingPoints]
409,410.958904109589,4,2,1,60,1,0
39039,-100,4,2,1,35,0,0

[Colours]
Combo1 : 255,157,255
Combo2 : 38,172,68
Combo3 : 255,117,51
Combo4 : 192,192,192

[HitObjects]
10,321,409,6,0,P|75:358|146:317,1,160,2|2,0:0|0:0,0:0:0:0:
200,136,1230,2,0,L|188:81,2,53.3333333333334,4|0|0,3:0|0:0|0:0,0:0:0:0:
169,192,1641,1,2,0:0:0:0:
502,321,2052,6,0,P|437:358|366:317,1,160,2|2,0:0|0:0,0:0:0:0:
312,136,2874,2,0,L|324:81,2,53.3333333333334,4|0|0,3:0|0:0|0:0,0:0:0:0:
343,192,3285,1,2,0:0:0:0:
254,362,3696,6,0,B|231:324|254:285|278:249|255:206,1,160,2|2,0:0|0:0,0:0:0:0:
132,58,4518,2,0,L|143:-1,2,53.3333333333334,4|0|0,3:0|0:0|0:0,0:0:0:0:
71,77,4929,1,2,0:0:0:0:
37,266,5340,6,0,L|27:323,2,53.3333333333334,2|0|0,0:0|0:0|0:0,0:0:0:0:
98,247,5751,2,0,L|110:193,2,53.3333333333334,2|0|0,0:0|0:0|0:0,0:0:0:0:
149,286,6162,1,4,3:0:0:0:
256,355,6436,1,2,0:0:0:0:
256,355,6573,1,2,0:0:0:0:
426,266,6984,6,0,B|427:223|450:192|450:192|428:161|428:114,1,160,2|2,0:0|0:0,0:0:0:0:
302,261,7806,2,0,L|318:322,2,53.3333333333334,4|0|0,3:0|0:0|0:0,0:0:0:0:
255,216,8217,1,2,0:0:0:0:
83,115,8628,6,0,B|84:161|62:192|62:192|85:223|86:266,1,160,2|2,0:0|0:0,0:0:0:0:
210,123,9450,2,0,L|194:62,2,53.3333333333334,4|0|0,3:0|0:0|0:0,0:0:0:0:
257,168,9861,1,2,0:0:0:0:
412,55,10272,6,0,P|455:117|443:204,1,160,2|2,0:0|0:0,0:0:0:0:
295,317,11093,2,0,L|313:369,2,53.3333333333333,4|0|0,3:0|0:0|0:0,0:0:0:0:
317,256,11504,1,2,0:0:0:0:
137,188,11915,6,0,P|145:164|146:128,2,53.3333333333333,4|0|0,3:0|0:0|0:0,0:0:0:0:
87,229,12326,2,0,P|79:253|78:289,2,53.3333333333333,4|0|0,3:0|0:0|0:0,0:0:0:0:
43,181,12737,1,4,3:0:0:0:
29,53,13011,1,2,0:0:0:0:
29,53,13148,1,2,0:0:0:0:
220,47,13559,6,0,B|259:25|303:49|345:71|377:47,1,160,2|2,3:0|0:3,0:0:0:0:
482,207,14381,2,0,L|487:273,2,53.3333333333333,4|0|0,3:0|0:0|0:0,0:0:0:0:
426,174,14792,1,2,0:0:0:0:
292,337,15203,6,0,B|253:359|209:335|167:313|135:337,1,160,2|2,3:0|3:0,0:0:0:0:
30,177,16025,2,0,L|25:111,2,53.3333333333333,4|0|0,3:0|0:0|0:0,0:0:0:0:
86,210,16436,1,2,0:0:0:0:
256,121,16847,6,0,P|307:186|384:185,1,160,2|2,3:0|3:0,0:0:0:0:
479,302,17669,2,0,L|472:355,2,53.3333333333333,4|0|0,3:0|0:0|0:0,0:0:0:0:
464,239,18080,1,2,0:0:0:0:
389,61,18491,6,0,P|397:31|415:8,2,53.3333333333333,2|0|0,3:0|0:0|0:0,0:0:0:0:
336,98,18902,2,0,P|329:123|315:145,2,53.3333333333333,2|0|0,3:0|0:0|0:0,0:0:0:0:
292,50,19313,1,4,3:0:0:0:
164,43,19587,1,2,0:0:0:0:
164,43,19724,1,2,0:0:0:0:
95,222,20135,6,0,B|86:284|86:284|135:305|143:361,1,160,2|2,3:0|3:0,0:0:0:0:
334,355,20956,2,0,L|394:367,2,53.3333333333333,4|0|0,3:0|0:0|0:0,0:0:0:0:
295,303,21367,1,2,0:0:0:0:
408,147,21778,6,0,B|417:85|417:85|368:64|360:8,1,160,2|2,3:0|3:0,0:0:0:0:
178,29,22600,2,0,L|118:17,2,53.3333333333333,4|0|0,3:0|0:0|0:0,0:0:0:0:
217,81,23011,1,2,0:0:0:0:
175,268,23422,6,0,B|213:238|256:260|303:282|334:256,1,160,2|2,3:0|3:0,0:0:0:0:
256,81,24244,2,0,L|256:22,2,53.3333333333333,4|0|0,3:0|0:0|0:0,0:0:0:0:
256,145,24655,1,2,0:0:0:0:
420,244,25066,6,0,L|477:224,2,53.3333333333333,6|0|0,3:0|0:0|0:0,0:0:0:0:
419,308,25477,2,0,L|473:326,2,53.3333333333333,6|0|0,3:0|0:0|0:0,0:0:0:0:
364,273,25888,1,4,3:0:0:0:
255,341,26162,1,2,0:0:0:0:
255,341,26299,1,2,0:0:0:0:
71,294,26710,6,0,P|54:246|78:181,1,106.666666666667,4|0,3:0|0:0,0:0:0:0:
100,137,27121,2,0,L|83:81,2,53.3333333333333,2|0|2,0:0|0:0|0:0,0:0:0:0:
160,160,27532,2,0,B|243:160|243:160|308:103,1,160,4|2,3:0|0:0,0:0:0:0:
485,47,28354,2,0,L|497:-5,2,53.3333333333333,4|0|0,3:0|0:0|0:0,0:0:0:0:
421,59,28765,2,0,L|392:10,2,53.3333333333333,2|0|0,0:0|0:0|0:0,0:0:0:0:
411,122,29176,2,0,P|435:191|414:286,1,160,4|2,3:0|0:0,0:0:0:0:
243,352,29998,6,0,P|227:301|243:242,1,106.666666666667,4|0,3:0|0:0,0:0:0:0:
211,191,30409,2,0,P|224:167|227:124,2,53.3333333333333,2|0|2,0:0|0:0|0:0,0:0:0:0:
151,215,30819,2,0,P|90:211|23:141,1,160,4|2,3:0|0:0,0:0:0:0:
203,74,31641,2,0,L|197:15,2,53.3333333333333,4|0|0,3:0|0:0|0:0,0:0:0:0:
253,114,32052,2,0,L|243:168,2,53.3333333333333,2|0|0,0:0|0:0|0:0,0:0:0:0:
302,73,32463,2,0,B|364:73|364:73|429:73|462:111,1,160,4|2,3:0|0:0,0:0:0:0:
472,290,33285,6,0,P|431:324|374:315,1,106.666666666667,4|0,3:0|0:0,0:0:0:0:
323,288,33696,2,0,L|327:234,2,53.3333333333333,2|0|2,0:0|0:0|0:0,0:0:0:0:
260,304,34107,2,0,P|194:282|126:340,2,160,4|2|4,3:0|0:0|3:0,0:0:0:0:
147,148,35203,2,0,L|134:89,2,53.3333333333333,2|0|0,0:0|0:0|0:0,0:0:0:0:
88,174,35614,1,0,0:0:0:0:
88,174,35751,2,0,P|15:239|32:313,1,160,4|2,3:0|0:0,0:0:0:0:
256,192,36573,12,2,37806,0:0:0:0:
255,358,38217,6,0,L|255:300,3,53.3333333333333,4|0|0|2,3:0|0:0|0:0|0:0,0:0:0:0:
139,192,39039,5,4,3:0:0:0:
256,82,39450,1,4,3:0:0:0:
373,192,39861,1,2,0:0:0:0:
