osu file format v14

[General]
AudioFilename: audio.mp3
AudioLeadIn: 0
PreviewTime: 15591
Countdown: 0
SampleSet: Soft
StackLeniency: 0.7
Mode: 2
LetterboxInBreaks: 0
WidescreenStoryboard: 1

[Editor]
DistanceSpacing: 1.2
BeatDivisor: 4
GridSize: 4
TimelineZoom: 1

[Metadata]
Title:MAP5 (Mayoi no Mori)
TitleUnicode:MAP5 (迷いの森)
Artist:Kondo Koji
ArtistUnicode:近藤浩治
Creator:bigh
Version:Stage 4
Source:SUPER MARIO WORLD
Tags:スーパーマリオワールド まよいのも nintendo snes smw star road video game instrumental forest of illusion vgm vg bighzonda
BeatmapID:3351184
BeatmapSetID:1641935

[Difficulty]
HPDrainRate:6
CircleSize:5
OverallDifficulty:8.3
ApproachRate:8.3
SliderMultiplier:2.2
SliderTickRate:2

[Events]
//Background and Video events
0,0,"bg.png",0,0
//Break Periods
//Storyboard Layer 0 (Background)
//Storyboard Layer 1 (Fail)
//Storyboard Layer 2 (Pass)
//Storyboard Layer 3 (Foreground)
//Storyboard Layer 4 (Overlay)
//Storyboard Sound Samples

[TimingPoints]
543,471.17951939689,4,2,1,30,1,0
11851,-100,4,2,1,40,0,0
13736,-100,4,2,1,50,0,0
15385,-100,4,2,1,5,0,0
15620,-100,4,2,1,60,0,0
23159,-100,4,2,1,40,0,0
26929,-100,4,2,1,50,0,0
30462,-100,4,2,1,5,0,0
30698,-100,4,2,1,60,0,0
32583,-100,4,2,1,50,0,0
33525,-100,4,2,1,45,0,0
34467,-100,4,2,1,40,0,0
34939,-100,4,2,1,35,0,0
35410,-100,4,2,1,30,0,0
35881,-100,4,2,1,25,0,0
36352,-100,4,2,1,20,0,0
36823,-100,4,2,1,15,0,0
37295,-100,4,2,1,10,0,0
37530,-100,4,2,2,5,0,0

[Colours]
Combo1 : 192,84,84
Combo2 : 52,165,61
Combo3 : 84,145,177

[HitObjects]
312,312,543,5,2,0:3:0:0:
356,259,660,1,0,0:0:0:0:
312,196,778,1,2,0:3:0:0:
105,213,1014,1,2,0:3:0:0:
61,155,1131,1,0,0:0:0:0:
105,97,1249,1,2,0:3:0:0:
312,85,1485,1,0,0:0:0:0:
121,76,1720,2,0,P|51:135|133:205,1,220,2|0,0:0|0:0,0:0:0:0:
320,200,2427,6,0,L|440:200,1,110,2|0,0:0|0:0,0:0:0:0:
320,126,2898,2,0,L|175:127,1,110,2|0,0:0|0:0,0:0:0:0:
319,116,3370,1,8,0:3:0:0:
124,247,3605,2,0,L|344:239,1,220,8|0,0:3|0:0,0:0:0:0:
129,72,4312,5,0,0:0:0:0:
85,133,4430,1,0,0:0:0:0:
129,188,4548,1,2,0:3:0:0:
336,171,4783,1,0,0:0:0:0:
380,232,4901,1,0,0:0:0:0:
336,287,5019,1,2,0:3:0:0:
129,299,5254,1,0,0:0:0:0:
320,308,5490,2,0,P|391:264|371:142,1,220,2|0,0:0|0:0,0:0:0:0:
179,103,6197,6,0,L|59:103,1,110,2|0,0:0|0:0,0:0:0:0:
178,166,6668,2,0,L|323:165,1,110,2|0,0:0|0:0,0:0:0:0:
179,186,7139,1,8,0:3:0:0:
374,55,7375,2,0,P|426:130|337:224,1,220,8|0,0:3|0:0,0:0:0:0:
158,145,8081,5,2,0:3:0:0:
48,228,8317,1,0,0:0:0:0:
158,145,8553,1,0,0:0:0:0:
353,70,8788,1,2,0:3:0:0:
463,175,9024,1,0,0:0:0:0:
353,70,9259,1,0,0:0:0:0:
157,73,9495,2,0,L|158:191,1,110,2|0,0:3|0:0,0:0:0:0:
353,125,9966,5,2,0:3:0:0:
463,187,10202,1,0,0:0:0:0:
353,125,10437,1,0,0:0:0:0:
158,200,10673,1,2,0:3:0:0:
48,251,10908,1,0,0:0:0:0:
158,200,11144,1,0,0:0:0:0:
354,197,11380,2,0,L|353:79,1,110,2|0,0:3|0:0,0:0:0:0:
158,59,11851,5,2,0:3:0:0:
246,125,12086,1,0,0:0:0:0:
158,59,12322,1,0,0:0:0:0:
354,189,12558,1,2,0:3:0:0:
244,231,12793,1,0,0:0:0:0:
354,189,13029,1,0,0:0:0:0:
159,191,13264,1,2,0:3:0:0:
355,188,13500,1,2,0:0:0:0:
144,108,13736,2,0,P|216:396|280:104,1,770,2|0,0:3|0:0,0:0:0:0:
16,88,15620,5,6,0:3:0:0:
71,90,15738,1,0,0:0:0:0:
126,92,15856,1,2,0:3:0:0:
320,165,16091,1,2,0:3:0:0:
265,167,16209,1,0,0:0:0:0:
210,169,16327,1,2,0:3:0:0:
16,181,16563,1,0,0:0:0:0:
213,159,16798,2,0,P|226:251|123:311,1,220,2|0,0:0|0:0,0:0:0:0:
323,67,17505,6,0,L|439:66,1,110,2|0,0:0|0:0,0:0:0:0:
323,146,17976,2,0,L|196:148,1,110,2|0,0:0|0:0,0:0:0:0:
407,148,18447,1,10,0:3:0:0:
212,212,18683,2,0,P|125:160|72:44,1,220,10|0,0:3|0:0,0:0:0:0:
372,346,19390,5,2,0:3:0:0:
427,333,19507,1,0,0:0:0:0:
372,346,19625,1,2,0:3:0:0:
178,240,19861,1,2,0:3:0:0:
123,217,19979,1,0,0:0:0:0:
178,240,20096,1,2,0:3:0:0:
372,132,20332,1,0,0:0:0:0:
177,51,20568,2,0,L|419:41,1,220,2|0,0:0|0:0,0:0:0:0:
202,280,21274,6,0,L|76:282,1,110,2|0,0:0|0:0,0:0:0:0:
202,201,21746,2,0,L|334:197,1,110,2|0,0:0|0:0,0:0:0:0:
117,200,22217,1,10,0:3:0:0:
312,164,22452,2,0,L|64:162,1,220,10|0,0:3|0:0,0:0:0:0:
390,188,23159,5,2,0:3:0:0:
440,229,23395,1,0,0:0:0:0:
330,145,23630,1,0,0:0:0:0:
136,221,23866,1,2,0:3:0:0:
26,305,24101,1,0,0:0:0:0:
136,221,24337,1,0,0:0:0:0:
331,73,24573,2,0,L|331:222,1,110,2|0,0:3|0:0,0:0:0:0:
137,134,25044,5,2,0:3:0:0:
37,77,25279,1,0,0:0:0:0:
38,201,25515,1,0,0:0:0:0:
232,208,25751,1,2,0:3:0:0:
335,275,25986,1,0,0:0:0:0:
334,151,26222,1,0,0:0:0:0:
158,197,26457,2,0,L|46:197,1,110,2|0,0:3|0:0,0:0:0:0:
345,318,26929,5,2,0:3:0:0:
232,252,27164,1,0,0:0:0:0:
345,318,27400,1,0,0:0:0:0:
149,188,27635,1,2,0:3:0:0:
280,144,27871,1,0,0:0:0:0:
149,188,28107,1,0,0:0:0:0:
345,191,28342,1,2,0:3:0:0:
149,188,28578,1,2,0:3:0:0:
448,192,28813,2,0,P|276:-40|244:288,1,770,2|0,0:3|0:0,0:0:0:0:
496,266,30698,5,6,0:3:0:0:
441,267,30816,1,0,0:0:0:0:
386,269,30934,1,2,0:3:0:0:
191,201,31169,1,2,0:3:0:0:
246,202,31287,1,0,0:0:0:0:
301,204,31405,1,2,0:3:0:0:
106,124,31640,1,0,0:0:0:0:
300,53,31876,2,0,P|394:98|366:203,1,220,2|0,0:0|0:0,0:0:0:0:
180,202,32583,6,0,L|300:201,1,110,2|0,0:0|0:0,0:0:0:0:
485,279,33054,2,0,L|361:280,1,110,2|0,0:0|0:0,0:0:0:0:
180,282,33525,1,8,0:3:0:0:
375,202,33761,2,0,P|382:120|276:41,1,220,8|0,0:3|0:0,0:0:0:0:
256,192,34467,12,0,37530,0:0:0:0:
