osu file format v14

[General]
AudioFilename: audio.mp3
AudioLeadIn: 0
PreviewTime: 3794
Countdown: 0
SampleSet: Soft
StackLeniency: 0.7
Mode: 2
LetterboxInBreaks: 0
WidescreenStoryboard: 0

[Editor]
Bookmarks: 7635,11417,22764
DistanceSpacing: 1
BeatDivisor: 4
GridSize: 4
TimelineZoom: 2.5

[Metadata]
Title:MAP4 (Native Star)
TitleUnicode:MAP4(ネイティブスター)
Artist:Kondo Koji
ArtistUnicode:近藤浩治
Creator:Souvenir
Version:Stage 4
Source:SUPER MARIO WORLD
Tags:スーパーマリオワールド nintendo snes smw star road video game instrumental
BeatmapID:2880982
BeatmapSetID:1395792

[Difficulty]
HPDrainRate:6
CircleSize:5
OverallDifficulty:8.3
ApproachRate:8.3
SliderMultiplier:2.2
SliderTickRate:2

[Events]
//Background and Video events
0,0,"SMW.jpg",0,0
//Break Periods
//Storyboard Layer 0 (Background)
//Storyboard Layer 1 (Fail)
//Storyboard Layer 2 (Pass)
//Storyboard Layer 3 (Foreground)
//Storyboard Layer 4 (Overlay)
//Storyboard Sound Samples

[TimingPoints]
67,472.772257723917,4,2,1,40,1,0
7631,-100,4,2,1,47,0,0
10940,-100,4,1,2,47,0,0
11177,-100,4,2,1,47,0,0
11413,-100,4,2,1,55,0,0
22287,-100,4,1,2,55,0,0
22523,-100,4,2,1,55,0,0
22760,-100,4,2,1,47,0,0
24414,-100,4,2,1,40,0,0
26542,-100,4,2,1,35,0,0
27491,-100,4,2,1,30,0,0
28433,-100,4,2,1,20,0,0
29378,-100,4,2,1,10,0,0
29851,-100,4,2,1,5,0,0
30088,-100,4,2,2,5,0,0

[Colours]
Combo1 : 201,201,201
Combo2 : 134,194,255
Combo3 : 255,194,149
Combo4 : 154,255,149

[HitObjects]
284,188,67,5,2,0:0:0:0:
392,188,303,1,0,0:0:0:0:
392,80,539,1,0,0:0:0:0:
284,80,776,1,0,0:0:0:0:
88,64,1012,2,0,P|56:80|112:232,1,220,2|0,0:0|0:0,0:0:0:0:
280,68,1721,6,0,P|316:80|272:216,1,220,2|0,0:0|0:0,0:0:0:0:
172,216,2430,1,2,0:0:0:0:
172,216,2667,1,0,0:0:0:0:
372,216,2903,1,2,0:0:0:0:
264,216,3140,1,0,0:0:0:0:
372,216,3376,1,0,0:0:0:0:
480,216,3612,1,0,0:0:0:0:
280,116,3849,5,2,0:0:0:0:
172,116,4085,1,0,0:0:0:0:
172,216,4321,1,0,0:0:0:0:
280,216,4558,1,0,0:0:0:0:
476,120,4794,2,0,L|252:120,1,220,2|0,0:0|0:0,0:0:0:0:
456,40,5503,6,0,P|493:121|448:250,1,220,2|0,0:0|0:0,0:0:0:0:
344,248,6213,1,2,0:0:0:0:
344,248,6449,1,0,0:0:0:0:
144,248,6685,1,2,0:0:0:0:
252,248,6922,1,0,0:0:0:0:
144,248,7158,1,0,0:0:0:0:
36,248,7394,1,0,0:0:0:0:
256,116,7631,5,2,0:0:0:0:
368,116,7867,1,0,0:0:0:0:
480,116,8104,1,0,0:0:0:0:
368,116,8340,1,0,0:0:0:0:
152,120,8576,1,2,0:0:0:0:
42,120,8813,2,0,L|152:120,1,110
372,328,9286,6,0,P|408:316|352:188,1,220,2|0,0:0|0:0,0:0:0:0:
148,188,9995,1,2,0:0:0:0:
368,188,10231,1,2,0:0:0:0:
148,188,10467,1,0,0:0:0:0:
368,188,10940,2,0,L|368:64,1,110
80,76,11413,5,10,0:0:0:0:
80,168,11649,1,0,0:0:0:0:
188,72,11886,1,0,0:0:0:0:
188,172,12122,1,0,0:0:0:0:
404,68,12359,1,2,0:0:0:0:
296,68,12595,2,0,L|416:68,1,110
188,68,13068,6,0,P|120:152|192:216,1,220,2|0,0:0|0:0,0:0:0:0:
404,200,13777,1,2,0:0:0:0:
404,200,14013,1,0,0:0:0:0:
184,284,14250,1,2,0:0:0:0:
76,284,14486,1,0,0:0:0:0:
184,284,14722,1,0,0:0:0:0:
76,284,14959,1,0,0:0:0:0:
364,64,15195,5,10,0:0:0:0:
364,64,15432,1,0,0:0:0:0:
476,60,15668,1,0,0:0:0:0:
476,60,15904,1,0,0:0:0:0:
256,60,16141,1,2,0:0:0:0:
144,60,16377,2,0,L|24:60,1,110
252,136,16850,6,0,P|304:160|248:280,1,220,2|0,0:0|0:0,0:0:0:0:
36,264,17559,1,2,0:0:0:0:
36,264,17795,1,0,0:0:0:0:
256,116,18032,1,2,0:0:0:0:
368,116,18268,1,0,0:0:0:0:
256,116,18505,1,0,0:0:0:0:
368,116,18741,1,0,0:0:0:0:
80,60,18977,5,10,0:0:0:0:
188,60,19214,1,0,0:0:0:0:
188,60,19450,1,0,0:0:0:0:
80,60,19687,1,0,0:0:0:0:
300,60,19923,1,2,0:0:0:0:
412,60,20159,2,0,L|412:192,1,110
192,168,20632,6,0,P|138:189|203:299,1,220,2|0,0:0|0:0,0:0:0:0:
412,252,21341,1,2,0:0:0:0:
192,256,21578,1,2,0:0:0:0:
412,252,21814,1,2,0:0:0:0:
192,256,22287,2,0,L|68:256,1,110
372,72,22760,5,10,0:0:0:0:
480,68,22996,1,0,0:0:0:0:
480,68,23232,1,0,0:0:0:0:
372,72,23469,1,0,0:0:0:0:
176,68,23705,2,0,P|120:108|176:224,1,220,2|0,0:0|0:0,0:0:0:0:
372,216,24414,6,0,P|444:156|352:92,1,220,2|0,0:0|0:0,0:0:0:0:
260,88,25123,1,2,0:0:0:0:
260,88,25360,1,0,0:0:0:0:
64,92,25596,1,2,0:0:0:0:
64,92,25833,1,0,0:0:0:0:
172,96,26069,1,0,0:0:0:0:
284,96,26305,1,0,0:0:0:0:
256,192,26542,12,0,30088,0:0:0:0:
