osu file format v14

[General]
AudioFilename: audio.mp3
AudioLeadIn: 0
PreviewTime: 3794
Countdown: 0
SampleSet: Soft
StackLeniency: 0.7
Mode: 2
LetterboxInBreaks: 0
WidescreenStoryboard: 1

[Editor]
Bookmarks: 7635,11417,22764
DistanceSpacing: 1
BeatDivisor: 2
GridSize: 32
TimelineZoom: 2.5

[Metadata]
Title:MAP4 (Native Star)
TitleUnicode:MAP4(ネイティブスター)
Artist:Kondo Koji
ArtistUnicode:近藤浩治
Creator:Souvenir
Version:Stage 2
Source:SUPER MARIO WORLD
Tags:スーパーマリオワールド nintendo snes smw star road video game instrumental
BeatmapID:2880980
BeatmapSetID:1395792

[Difficulty]
HPDrainRate:4
CircleSize:4
OverallDifficulty:6.5
ApproachRate:6.5
SliderMultiplier:1.8
SliderTickRate:2

[Events]
//Background and Video events
0,0,"SMW.jpg",0,0
//Break Periods
//Storyboard Layer 0 (Background)
//Storyboard Layer 1 (Fail)
//Storyboard Layer 2 (Pass)
//Storyboard Layer 3 (Foreground)
//Storyboard Layer 4 (Overlay)
//Storyboard Sound Samples

[TimingPoints]
67,472.772257723917,4,2,1,40,1,0
7631,-100,4,2,1,47,0,0
10940,-100,4,1,2,47,0,0
11177,-100,4,2,1,47,0,0
11413,-100,4,2,1,55,0,0
22287,-100,4,1,2,55,0,0
22523,-100,4,2,1,55,0,0
22760,-100,4,2,1,47,0,0
24414,-100,4,2,1,40,0,0
26542,-100,4,2,1,35,0,0
27487,-100,4,2,1,30,0,0
28433,-100,4,2,1,20,0,0
29378,-100,4,2,1,10,0,0
29851,-100,4,2,1,5,0,0
30088,-100,4,2,2,5,0,0

[Colours]
Combo1 : 201,201,201
Combo2 : 134,194,255
Combo3 : 255,194,149
Combo4 : 154,255,149

[HitObjects]
118,68,67,5,2,0:0:0:0:
118,68,303,1,0,0:0:0:0:
118,68,539,1,0,0:0:0:0:
424,60,1012,2,0,P|456:80|424:196,1,180,2|0,0:0|0:0,0:0:0:0:
336,192,1721,6,0,P|286:123|337:56,1,180,2|0,0:0|0:0,0:0:0:0:
424,52,2430,1,2,0:0:0:0:
117,52,2903,1,2,0:0:0:0:
29,52,3140,1,0,0:0:0:0:
117,52,3376,1,0,0:0:0:0:
424,56,3849,5,2,0:0:0:0:
424,56,4085,1,0,0:0:0:0:
424,56,4321,1,0,0:0:0:0:
118,48,4794,2,0,P|70:144|130:176,1,180,2|0,0:0|0:0,0:0:0:0:
202,280,5503,6,0,P|252:214|195:153,1,180,2|0,0:0|0:0,0:0:0:0:
106,148,6213,1,2,0:0:0:0:
408,96,6685,1,2,0:0:0:0:
496,96,6922,1,0,0:0:0:0:
408,96,7158,1,0,0:0:0:0:
104,85,7631,5,2,0:0:0:0:
16,85,7867,1,0,0:0:0:0:
104,85,8104,1,0,0:0:0:0:
408,80,8576,2,0,P|452:160|408:228,1,180,2|0,0:0|0:0,0:0:0:0:
316,224,9286,6,0,L|112:224,1,180,2|0,0:0|0:0,0:0:0:0:
36,212,9995,1,2,0:0:0:0:
136,148,10231,1,2,0:0:0:0:
236,80,10467,1,0,0:0:0:0:
236,80,10940,2,0,L|236:188,1,90,0|0,0:0|0:0,0:0:0:0:
436,176,11413,5,10,0:0:0:0:
436,176,11649,1,0,0:0:0:0:
436,176,11886,1,0,0:0:0:0:
348,176,12122,1,0,0:0:0:0:
152,52,12359,2,0,P|96:112|160:176,1,180,2|0,0:0|0:0,0:0:0:0:
240,292,13068,6,0,P|293:229|237:168,1,180,2|0,0:0|0:0,0:0:0:0:
144,160,13777,1,2,0:0:0:0:
451,69,14250,1,2,0:0:0:0:
451,69,14486,1,0,0:0:0:0:
363,69,14722,1,0,0:0:0:0:
56,68,15195,5,10,0:0:0:0:
56,68,15432,1,0,0:0:0:0:
56,68,15668,1,0,0:0:0:0:
148,68,15904,1,0,0:0:0:0:
344,64,16141,2,0,P|392:128|340:208,1,180,2|0,0:0|0:0,0:0:0:0:
256,292,16850,6,0,P|210:220|258:150,1,180,2|0,0:0|0:0,0:0:0:0:
348,148,17559,1,2,0:0:0:0:
46,97,18032,1,2,0:0:0:0:
46,97,18268,1,0,0:0:0:0:
138,97,18505,1,0,0:0:0:0:
444,96,18977,5,10,0:0:0:0:
356,96,19214,1,0,0:0:0:0:
444,96,19450,1,0,0:0:0:0:
444,96,19687,1,0,0:0:0:0:
248,92,19923,2,0,L|64:92,1,180,2|0,0:0|0:0,0:0:0:0:
160,176,20632,6,0,P|204:236|152:328,1,180,2|0,0:0|0:0,0:0:0:0:
60,308,21341,1,2,0:0:0:0:
160,256,21578,1,2,0:0:0:0:
60,224,21814,1,2,0:0:0:0:
60,116,22287,2,0,L|60:212,1,90,0|0,0:0|0:0,0:0:0:0:
256,64,22760,5,10,0:0:0:0:
348,64,22996,1,0,0:0:0:0:
440,64,23232,1,0,0:0:0:0:
134,71,23705,2,0,P|82:147|134:203,1,180,2|0,0:0|0:0,0:0:0:0:
222,207,24414,6,0,L|406:207,1,180,2|0,0:0|0:0,0:0:0:0:
493,202,25123,1,2,0:0:0:0:
187,78,25596,1,2,0:0:0:0:
187,78,25833,1,0,0:0:0:0:
187,78,26069,1,0,0:0:0:0:
256,192,26542,12,0,30088,0:0:0:0:
