osu file format v14

[General]
AudioFilename: audio.mp3
AudioLeadIn: 0
PreviewTime: 568
Countdown: 1
SampleSet: Soft
StackLeniency: 0.7
Mode: 0
LetterboxInBreaks: 0
WidescreenStoryboard: 0

[Editor]
Bookmarks: 14089,27610
DistanceSpacing: 2.6
BeatDivisor: 6
GridSize: 32
TimelineZoom: 2.4

[Metadata]
Title:MAP2 (Chijou)
TitleUnicode:MAP2(地上)
Artist:Kondo Koji
ArtistUnicode:近藤浩治
Creator:Vulkin
Version:Dinosaur Land
Source:SUPER MARIO WORLD
Tags:super nintendo famicom ファミコン entertainment system snes 16 bits smw Dinosaur Land bros. 4 brothers Luigi Yoshi Bowser Ragnarok VII Gero Video Game Instrumental
BeatmapID:1935949
BeatmapSetID:926892

[Difficulty]
HPDrainRate:8
CircleSize:5
OverallDifficulty:7
ApproachRate:8
SliderMultiplier:1.4
SliderTickRate:1

[Events]
//Background and Video events
0,0,"DinosaurLand.png",0,0
//Break Periods
//Storyboard Layer 0 (Background)
//Storyboard Layer 1 (Fail)
//Storyboard Layer 2 (Pass)
//Storyboard Layer 3 (Foreground)
//Storyboard Layer 4 (Overlay)
//Storyboard Sound Samples

[TimingPoints]
566,422.356750668732,4,2,0,40,1,0
1833,-50,4,2,0,40,0,0
2255,-100,4,2,0,45,0,0
3522,-50,4,2,0,45,0,0
3944,-100,4,2,0,50,0,0
5211,-50,4,2,0,50,0,0
5634,-66.6666666666667,4,2,2,50,0,0
5775,-66.6666666666667,4,2,2,10,0,0
5915,-71.4285714285714,4,2,2,50,0,0
6056,-71.4285714285714,4,2,2,25,0,0
6197,-76.9230769230769,4,2,2,50,0,0
6338,-76.9230769230769,4,2,2,25,0,0
6478,-83.3333333333333,4,2,0,50,0,0
6901,-90.9090909090909,4,2,0,50,0,0
7323,-100,4,2,0,60,0,0
8590,-50,4,2,0,60,0,0
9013,-100,4,2,0,60,0,0
10280,-50,4,2,0,60,0,0
10702,-100,4,2,0,60,0,0
11969,-50,4,2,0,60,0,0
12391,-133.333333333333,4,2,2,60,0,0
13505,422.356750668732,4,2,2,60,1,0
13505,-133.333333333333,4,2,2,60,0,0
13927,-133.333333333333,4,2,2,5,0,0
14075,422.356750668732,4,2,0,60,1,0
15342,-50,4,2,0,60,0,0
15764,-100,4,2,0,60,0,0
17031,-50,4,2,0,60,0,0
17453,-100,4,2,0,60,0,0
18720,-50,4,2,0,60,0,0
19143,-66.6666666666667,4,2,2,60,0,0
19284,-66.6666666666667,4,2,2,10,0,0
19424,-71.4285714285714,4,2,2,60,0,0
19565,-71.4285714285714,4,2,2,30,0,0
19706,-76.9230769230769,4,2,2,60,0,0
19847,-76.9230769230769,4,2,2,30,0,0
19987,-83.3333333333333,4,2,0,60,0,0
20410,-90.9090909090909,4,2,0,60,0,0
20832,-100,4,2,0,60,0,0
22099,-50,4,2,0,60,0,0
22522,-100,4,2,0,60,0,0
23789,-50,4,2,0,60,0,0
24211,-100,4,2,0,60,0,0
25478,-50,4,2,0,60,0,0
25900,-133.333333333333,4,2,2,60,0,0
27022,422.356750668732,4,2,2,60,1,0
27022,-133.333333333333,4,2,2,60,0,0
27444,-133.333333333333,4,2,2,5,0,0
27592,422.356750668732,4,2,0,60,1,0
28859,-50,4,2,0,60,0,0
29281,-100,4,2,0,60,0,0
30548,-50,4,2,0,50,0,0
30970,-50,4,2,0,40,0,0
31815,-50,4,2,0,30,0,0
32660,-50,4,2,0,20,0,0
33504,-50,4,2,0,10,0,0
34349,-50,4,2,99,5,0,0

[Colours]
Combo1 : 128,255,0
Combo2 : 0,255,128
Combo3 : 0,225,225
Combo4 : 128,128,255

[HitObjects]
32,186,566,6,0,P|92:191|134:220,1,93.3333333333333
148,285,988,2,0,P|108:288|92:282,2,46.6666666666667,2|0|2,0:0|0:0|0:0,0:0:0:0:
201,220,1410,2,0,P|230:267|225:316,1,93.3333333333333
223,146,1833,2,0,P|300:236|301:327,1,186.666666666667,2|0,0:0|0:0,0:0:0:0:
173,355,2255,6,0,L|62:354,1,93.3333333333333
51,275,2677,2,0,P|23:293|8:319,2,46.6666666666667,2|0|2,0:0|0:0|0:0,0:0:0:0:
135,267,3100,2,0,L|240:264,1,93.3333333333333
363,163,3522,2,0,L|176:168,1,186.666666666667,2|0,0:0|0:0,0:0:0:0:
118,37,3944,6,0,P|142:68|137:121,1,93.3333333333333
94,195,4367,2,0,L|34:199,2,46.6666666666667,2|0|2,0:0|0:0|0:0,0:0:0:0:
157,251,4789,2,0,P|209:260|265:248,1,93.3333333333333
107,313,5211,2,0,P|191:333|325:306,1,186.666666666667,2|0,0:0|0:0,0:0:0:0:
328,136,5634,6,0,P|323:178|310:214,1,70.0000026702882,2|0,0:0|0:0,0:0:0:0:
432,199,5915,2,0,P|398:225|364:241,1,65.3333313395183,2|0,0:0|0:0,0:0:0:0:
471,302,6197,2,0,P|428:305|390:299,1,60.6666638895672,2|0,0:0|0:0,0:0:0:0:
446,130,6478,6,0,P|490:160|500:214,1,111.999996582031,2|0,0:0|0:0,0:0:0:0:
353,125,6901,2,0,P|368:80|409:45,1,102.666669799805,2|0,0:0|0:0,0:0:0:0:
284,134,7323,6,0,L|187:138,1,93.3333333333333
150,63,7746,2,0,P|128:78|110:112,2,46.6666666666667,2|0|2,0:0|0:0|0:0,0:0:0:0:
224,217,8168,2,0,P|224:251|201:308,1,93.3333333333333
289,189,8590,2,0,P|286:298|239:375,1,186.666666666667,2|0,0:0|0:0,0:0:0:0:
115,325,9013,6,0,P|103:285|62:245,1,93.3333333333333
36,169,9435,2,0,P|8:189|-7:209,2,46.6666666666667,2|0|2,0:0|0:0|0:0,0:0:0:0:
121,182,9857,2,0,L|234:179,1,93.3333333333333
363,99,10280,2,0,L|176:103,1,186.666666666667,2|0,0:0|0:0,0:0:0:0:
295,180,10702,6,0,P|305:216|295:277,1,93.3333333333333
213,265,11124,2,0,P|219:303|233:327,2,46.6666666666667,2|0|2,0:0|0:0|0:0,0:0:0:0:
196,182,11547,2,0,P|150:208|130:253,1,93.3333333333333
190,107,11969,2,0,P|108:141|54:247,1,186.666666666667,2|0,0:0|0:0,0:0:0:0:
107,337,12391,6,0,L|178:348,1,70.0000026702882,2|0,0:0|0:0,0:0:0:0:
320,299,12814,2,0,L|249:310,1,70.0000026702882,2|2,0:0|0:0,0:0:0:0:
250,309,13505,6,0,L|240:336,1,17.500000667572,2|2,0:0|0:0,0:0:0:0:
338,237,13645,2,0,P|369:251|385:282,1,70.0000026702882,2|0,0:0|0:0,0:0:0:0:
352,144,14075,6,0,L|337:242,1,93.3333333333333
237,104,14497,2,0,P|266:113|292:134,2,46.6666666666667,2|0|2,0:0|0:0|0:0,0:0:0:0:
223,189,14919,2,0,P|176:196|123:180,1,93.3333333333333
263,253,15342,2,0,P|163:266|79:239,1,186.666666666667,2|0,0:0|0:0,0:0:0:0:
112,99,15764,6,0,P|135:138|130:188,1,93.3333333333333
239,95,16186,2,0,L|187:98,2,46.6666666666667,2|0|2,0:0|0:0|0:0,0:0:0:0:
340,192,16609,2,0,P|354:252|353:295,1,93.3333333333333
397,139,17031,2,0,P|423:237|421:326,1,186.666666666667,2|0,0:0|0:0,0:0:0:0:
279,333,17453,6,0,P|225:333|186:347,1,93.3333333333333
124,291,17876,2,0,P|107:322|106:348,2,46.6666666666667,2|0|2,0:0|0:0|0:0,0:0:0:0:
163,216,18298,2,0,L|68:222,1,93.3333333333333
219,144,18720,2,0,L|32:155,1,186.666666666667,2|0,0:0|0:0,0:0:0:0:
268,67,19143,6,0,P|295:96|311:136,1,70.0000026702882,2|0,0:0|0:0,0:0:0:0:
399,134,19424,2,0,P|389:165|367:193,1,65.3333313395183,2|0,0:0|0:0,0:0:0:0:
406,274,19706,2,0,P|374:281|338:276,1,60.6666638895672,2|0,0:0|0:0,0:0:0:0:
412,64,19987,6,0,P|460:96|463:164,1,111.999996582031,2|0,0:0|0:0,0:0:0:0:
345,102,20410,2,0,P|335:55|359:8,1,102.666669799805,2|0,0:0|0:0,0:0:0:0:
395,197,20832,6,0,P|412:235|407:288,1,93.3333333333333
326,262,21255,2,0,P|326:300|337:326,2,46.6666666666667,2|0|2,0:0|0:0|0:0,0:0:0:0:
261,207,21677,2,0,L|149:210,1,93.3333333333333
313,122,22099,2,0,L|125:127,1,186.666666666667,2|0,0:0|0:0,0:0:0:0:
94,263,22522,6,0,P|134:293|184:299,1,93.3333333333333
226,231,22944,2,0,P|253:264|255:284,2,46.6666666666667,2|0|2,0:0|0:0|0:0,0:0:0:0:
251,147,23366,2,0,P|199:147|159:175,1,93.3333333333333
282,80,23789,2,0,P|180:73|109:115,1,186.666666666667,2|0,0:0|0:0,0:0:0:0:
68,254,24211,6,0,L|63:357,1,93.3333333333333
147,337,24633,2,0,P|140:313|117:286,2,46.6666666666667,2|0|2,0:0|0:0|0:0,0:0:0:0:
214,290,25056,2,0,L|328:287,1,93.3333333333333
166,216,25478,2,0,L|363:210,1,186.666666666667,2|0,0:0|0:0,0:0:0:0:
407,282,25900,6,0,P|412:322|400:353,1,70.0000026702882,2|0,0:0|0:0,0:0:0:0:
352,211,26323,2,0,P|347:171|359:140,1,70.0000026702882,2|2,0:0|0:0,0:0:0:0:
356,143,27022,6,0,L|379:151,1,17.500000667572,2|2,0:0|0:0,0:0:0:0:
272,229,27162,2,0,P|279:252|323:285,1,70.0000026702882,2|0,0:0|0:0,0:0:0:0:
178,232,27592,6,0,L|272:229,1,93.3333333333333
307,152,28014,2,0,P|333:170|348:195,2,46.6666666666667,2|0|2,0:0|0:0|0:0,0:0:0:0:
272,229,28436,2,0,P|253:282|253:334,1,93.3333333333333
215,169,28859,2,0,P|181:238|178:368,1,186.666666666667,2|0,0:0|0:0,0:0:0:0:
80,334,29281,6,0,L|175:346,1,93.3333333333333
241,300,29703,2,0,P|253:330|254:364,2,46.6666666666667,2|0|2,0:0|0:0|0:0,0:0:0:0:
281,225,30126,2,0,L|391:219,1,93.3333333333333
231,151,30548,2,0,L|418:140,1,186.666666666667,2|0,0:0|0:0,0:0:0:0:
256,192,30970,12,0,34349,0:0:0:0:
