osu file format v14

[General]
AudioFilename: audio.mp3
AudioLeadIn: 0
PreviewTime: 2383
Countdown: 0
SampleSet: Normal
StackLeniency: 0.7
Mode: 1
LetterboxInBreaks: 0
WidescreenStoryboard: 1

[Editor]
DistanceSpacing: 1.9
BeatDivisor: 4
GridSize: 32
TimelineZoom: 1.1

[Metadata]
Title:Lost Woods
TitleUnicode:迷いの森
Artist:Kondo Koji
ArtistUnicode:近藤浩治
Creator:Vaf
Version:Oni
Source:ゼルダの伝説 時のオカリナ
Tags:nintendo n64 oot legend of zelda ocarina of time zeruda no densetsu: toki no okarina video game instrumental ost original Mayoi no Mori
BeatmapID:2357987
BeatmapSetID:1116381

[Difficulty]
HPDrainRate:7.5
CircleSize:5
OverallDifficulty:6
ApproachRate:5
SliderMultiplier:1.4
SliderTickRate:1

[Events]
//Background and Video events
0,0,"thumb-1920-555236.jpg",0,0
//Break Periods
//Storyboard Layer 0 (Background)
//Storyboard Layer 1 (Fail)
//Storyboard Layer 2 (Pass)
//Storyboard Layer 3 (Foreground)
//Storyboard Layer 4 (Overlay)
//Storyboard Sound Samples

[TimingPoints]
669,428.571428571429,4,1,0,60,1,0

[HitObjects]
256,192,669,5,0,0:0:0:0:
256,192,883,1,8,0:0:0:0:
256,192,990,1,8,0:0:0:0:
256,192,1097,1,8,0:0:0:0:
256,192,1312,1,8,0:0:0:0:
256,192,1419,1,8,0:0:0:0:
256,192,1526,1,8,0:0:0:0:
256,192,1740,1,8,0:0:0:0:
256,192,2169,1,0,0:0:0:0:
256,192,2383,1,8,0:0:0:0:
256,192,2597,1,0,0:0:0:0:
256,192,2704,1,0,0:0:0:0:
256,192,2812,1,8,0:0:0:0:
256,192,3026,1,0,0:0:0:0:
256,192,3240,1,8,0:0:0:0:
256,192,3454,1,8,0:0:0:0:
256,192,3562,1,0,0:0:0:0:
256,192,3669,1,8,0:0:0:0:
256,192,3883,1,0,0:0:0:0:
256,192,4097,1,8,0:0:0:0:
256,192,4312,1,0,0:0:0:0:
256,192,4419,1,0,0:0:0:0:
256,192,4526,1,8,0:0:0:0:
256,192,4740,1,8,0:0:0:0:
256,192,4954,1,0,0:0:0:0:
256,192,5383,1,8,0:0:0:0:
256,192,5597,1,0,0:0:0:0:
256,192,5812,1,0,0:0:0:0:
256,192,6026,1,8,0:0:0:0:
256,192,6240,1,0,0:0:0:0:
256,192,6883,1,8,0:0:0:0:
256,192,6990,1,0,0:0:0:0:
256,192,7097,1,8,0:0:0:0:
256,192,7312,1,0,0:0:0:0:
256,192,7526,1,0,0:0:0:0:
256,192,7740,1,8,0:0:0:0:
256,192,7954,1,0,0:0:0:0:
256,192,8383,1,0,0:0:0:0:
256,192,8597,1,8,0:0:0:0:
256,192,8704,1,0,0:0:0:0:
256,192,8812,1,8,0:0:0:0:
256,192,9026,1,0,0:0:0:0:
256,192,9240,1,8,0:0:0:0:
256,192,9454,1,0,0:0:0:0:
256,192,9561,1,0,0:0:0:0:
256,192,9669,1,8,0:0:0:0:
256,192,9883,1,0,0:0:0:0:
256,192,10097,1,8,0:0:0:0:
256,192,10311,1,8,0:0:0:0:
256,192,10419,1,0,0:0:0:0:
256,192,10526,1,8,0:0:0:0:
256,192,10740,1,0,0:0:0:0:
256,192,10954,1,8,0:0:0:0:
256,192,11169,1,0,0:0:0:0:
256,192,11383,1,8,0:0:0:0:
256,192,11597,1,8,0:0:0:0:
256,192,11811,1,0,0:0:0:0:
256,192,12240,1,8,0:0:0:0:
256,192,12454,1,8,0:0:0:0:
256,192,12669,1,8,0:0:0:0:
256,192,12883,1,0,0:0:0:0:
256,192,12990,1,8,0:0:0:0:
256,192,13097,1,0,0:0:0:0:
256,192,13312,1,0,0:0:0:0:
256,192,13527,1,0,0:0:0:0:
256,192,14169,1,8,0:0:0:0:
256,192,14384,1,0,0:0:0:0:
256,192,14598,1,8,0:0:0:0:
256,192,14705,1,8,0:0:0:0:
256,192,14812,1,8,0:0:0:0:
256,192,15026,1,0,0:0:0:0:
256,192,15241,1,0,0:0:0:0:
256,192,15455,1,8,0:0:0:0:
256,192,15562,1,0,0:0:0:0:
256,192,15669,1,8,0:0:0:0:
256,192,15883,1,8,0:0:0:0:
256,192,16098,1,0,0:0:0:0:
256,192,16312,1,0,0:0:0:0:
256,192,16419,1,0,0:0:0:0:
256,192,16526,1,8,0:0:0:0:
256,192,16741,1,8,0:0:0:0:
256,192,16954,1,0,0:0:0:0:
256,192,17170,1,0,0:0:0:0:
256,192,17277,1,0,0:0:0:0:
256,192,17384,1,8,0:0:0:0:
256,192,17598,1,8,0:0:0:0:
256,192,17811,1,0,0:0:0:0:
256,192,18027,1,0,0:0:0:0:
256,192,18241,1,0,0:0:0:0:
256,192,18669,1,8,0:0:0:0:
256,192,18883,1,0,0:0:0:0:
256,192,18990,1,0,0:0:0:0:
256,192,19097,1,0,0:0:0:0:
256,192,19312,1,8,0:0:0:0:
256,192,19526,1,0,0:0:0:0:
256,192,19740,1,0,0:0:0:0:
256,192,19847,1,0,0:0:0:0:
256,192,19954,1,8,0:0:0:0:
256,192,20169,1,8,0:0:0:0:
256,192,20383,1,0,0:0:0:0:
256,192,20597,1,0,0:0:0:0:
256,192,20704,1,0,0:0:0:0:
256,192,20812,1,8,0:0:0:0:
256,192,21026,1,8,0:0:0:0:
256,192,21240,1,0,0:0:0:0:
256,192,21454,1,0,0:0:0:0:
256,192,21669,1,0,0:0:0:0:
256,192,22097,1,8,0:0:0:0:
256,192,22312,1,0,0:0:0:0:
256,192,22419,1,0,0:0:0:0:
256,192,22526,1,0,0:0:0:0:
256,192,22740,1,8,0:0:0:0:
256,192,22954,1,0,0:0:0:0:
256,192,23169,1,8,0:0:0:0:
256,192,23276,1,0,0:0:0:0:
256,192,23383,1,8,0:0:0:0:
256,192,23597,1,0,0:0:0:0:
256,192,23812,1,0,0:0:0:0:
256,192,24026,1,8,0:0:0:0:
256,192,24133,1,0,0:0:0:0:
256,192,24240,1,8,0:0:0:0:
256,192,24454,1,0,0:0:0:0:
256,192,24669,1,0,0:0:0:0:
256,192,24883,1,0,0:0:0:0:
256,192,25097,1,0,0:0:0:0:
256,192,25526,1,8,0:0:0:0:
256,192,25740,1,0,0:0:0:0:
256,192,25847,1,8,0:0:0:0:
256,192,25954,1,0,0:0:0:0:
256,192,26169,1,8,0:0:0:0:
256,192,26383,1,0,0:0:0:0:
256,192,26597,1,0,0:0:0:0:
256,192,26704,1,0,0:0:0:0:
256,192,26812,1,8,0:0:0:0:
256,192,27026,1,8,0:0:0:0:
256,192,27240,1,8,0:0:0:0:
256,192,27454,1,8,0:0:0:0:
256,192,27562,1,0,0:0:0:0:
256,192,27669,1,8,0:0:0:0:
256,192,27883,1,0,0:0:0:0:
256,192,28097,1,0,0:0:0:0:
256,192,28312,1,0,0:0:0:0:
256,192,28419,1,0,0:0:0:0:
256,192,28526,1,8,0:0:0:0:
256,192,28740,1,8,0:0:0:0:
256,192,28954,1,0,0:0:0:0:
256,192,29169,1,8,0:0:0:0:
256,192,29383,1,8,0:0:0:0:
256,192,29490,1,0,0:0:0:0:
256,192,29704,1,0,0:0:0:0:
256,192,29812,1,8,0:0:0:0:
256,192,30026,1,8,0:0:0:0:
256,192,30133,1,0,0:0:0:0:
256,192,30240,1,8,0:0:0:0:
256,192,30454,1,8,0:0:0:0:
256,192,30669,1,8,0:0:0:0:
256,192,30883,1,0,0:0:0:0:
256,192,30990,1,8,0:0:0:0:
256,192,31097,1,0,0:0:0:0:
256,192,31312,1,8,0:0:0:0:
256,192,31526,1,0,0:0:0:0:
256,192,31740,1,0,0:0:0:0:
256,192,31954,1,8,0:0:0:0:
256,192,32169,1,8,0:0:0:0:
256,192,32383,1,8,0:0:0:0:
256,192,32812,1,12,0:0:0:0:
