osu file format v14

[General]
AudioFilename: audio.mp3
AudioLeadIn: 0
PreviewTime: 2383
Countdown: 0
SampleSet: Normal
StackLeniency: 0.7
Mode: 1
LetterboxInBreaks: 0
WidescreenStoryboard: 1

[Editor]
DistanceSpacing: 1.7
BeatDivisor: 2
GridSize: 8
TimelineZoom: 1.1

[Metadata]
Title:Lost Woods
TitleUnicode:迷いの森
Artist:Kondo Koji
ArtistUnicode:近藤浩治
Creator:Vaf
Version:Futsuu
Source:ゼルダの伝説 時のオカリナ
Tags:nintendo n64 oot legend of zelda ocarina of time zeruda no densetsu: toki no okarina video game instrumental ost original Mayoi no Mori
BeatmapID:2332460
BeatmapSetID:1116381

[Difficulty]
HPDrainRate:8.5
CircleSize:5
OverallDifficulty:4
ApproachRate:5
SliderMultiplier:1.4
SliderTickRate:1

[Events]
//Background and Video events
0,0,"thumb-1920-555236.jpg",0,0
//Break Periods
//Storyboard Layer 0 (Background)
//Storyboard Layer 1 (Fail)
//Storyboard Layer 2 (Pass)
//Storyboard Layer 3 (Foreground)
//Storyboard Layer 4 (Overlay)
//Storyboard Sound Samples

[TimingPoints]
669,428.571428571429,4,1,0,60,1,0

[HitObjects]
274,204,668,5,0,0:0:0:0:
262,188,1096,1,8,0:0:0:0:
262,195,1311,1,8,0:0:0:0:
266,195,1525,1,8,0:0:0:0:
60,171,1739,1,8,0:0:0:0:
189,166,2383,1,0,0:0:0:0:
189,166,2596,1,8,0:0:0:0:
185,166,2811,1,8,0:0:0:0:
151,161,3239,1,0,0:0:0:0:
163,167,3668,1,8,0:0:0:0:
190,276,4096,1,0,0:0:0:0:
186,273,4312,1,0,0:0:0:0:
185,269,4526,1,8,0:0:0:0:
131,310,4739,1,8,0:0:0:0:
121,281,4953,1,0,0:0:0:0:
210,194,5382,1,0,0:0:0:0:
172,182,5596,1,8,0:0:0:0:
172,182,5811,1,0,0:0:0:0:
98,75,6239,1,8,0:0:0:0:
89,78,6668,1,0,0:0:0:0:
391,268,7312,1,0,0:0:0:0:
136,138,7525,1,8,0:0:0:0:
67,180,7739,1,8,0:0:0:0:
130,116,7953,1,0,0:0:0:0:
185,154,8382,1,8,0:0:0:0:
101,179,8811,1,0,0:0:0:0:
189,166,9240,1,0,0:0:0:0:
189,166,9453,1,8,0:0:0:0:
185,166,9668,1,8,0:0:0:0:
151,161,10096,1,0,0:0:0:0:
163,167,10525,1,8,0:0:0:0:
142,185,10954,1,0,0:0:0:0:
142,185,11169,1,0,0:0:0:0:
70,193,11382,1,8,0:0:0:0:
115,165,11596,1,8,0:0:0:0:
113,165,11811,1,0,0:0:0:0:
185,192,12239,1,0,0:0:0:0:
166,178,12668,1,8,0:0:0:0:
151,160,12883,1,0,0:0:0:0:
151,160,13096,1,0,0:0:0:0:
172,182,13525,1,0,0:0:0:0:
201,88,14169,1,8,0:0:0:0:
35,147,14382,1,8,0:0:0:0:
171,157,14596,1,8,0:0:0:0:
186,152,14811,1,0,0:0:0:0:
125,185,15239,1,8,0:0:0:0:
186,168,16096,1,0,0:0:0:0:
153,162,16312,1,8,0:0:0:0:
153,162,16525,1,8,0:0:0:0:
168,152,16953,1,8,0:0:0:0:
160,171,17382,1,8,0:0:0:0:
199,135,17811,1,8,0:0:0:0:
186,139,18025,1,0,0:0:0:0:
191,136,18239,1,0,0:0:0:0:
202,174,19525,1,0,0:0:0:0:
179,187,19739,1,0,0:0:0:0:
183,173,19953,1,8,0:0:0:0:
186,202,20382,1,8,0:0:0:0:
172,177,20811,1,8,0:0:0:0:
195,215,21239,1,8,0:0:0:0:
79,144,21453,1,8,0:0:0:0:
79,144,21668,1,8,0:0:0:0:
186,168,22954,1,0,0:0:0:0:
153,162,23170,1,8,0:0:0:0:
153,162,23383,1,8,0:0:0:0:
168,152,23811,1,8,0:0:0:0:
160,171,24240,1,8,0:0:0:0:
199,135,24669,1,8,0:0:0:0:
186,139,24883,1,0,0:0:0:0:
191,136,25097,1,0,0:0:0:0:
246,181,26382,1,8,0:0:0:0:
201,137,26596,1,0,0:0:0:0:
201,137,26811,1,8,0:0:0:0:
188,252,27239,1,8,0:0:0:0:
233,161,27668,1,8,0:0:0:0:
188,200,28096,1,8,0:0:0:0:
188,200,28311,1,0,0:0:0:0:
188,200,28525,1,8,0:0:0:0:
181,197,28953,1,8,0:0:0:0:
179,195,29382,1,8,0:0:0:0:
235,198,29597,1,8,0:0:0:0:
212,192,29811,1,8,0:0:0:0:
194,190,30026,1,0,0:0:0:0:
200,190,30239,1,8,0:0:0:0:
437,166,30669,1,0,0:0:0:0:
199,178,31097,1,0,0:0:0:0:
199,178,31526,1,0,0:0:0:0:
188,157,31739,1,0,0:0:0:0:
184,162,31953,1,8,0:0:0:0:
178,162,32168,1,8,0:0:0:0:
179,162,32382,1,8,0:0:0:0:
211,167,32812,1,12,0:0:0:0:
