osu file format v14

[General]
AudioFilename: audio.mp3
AudioLeadIn: 0
PreviewTime: 9893
Countdown: 0
SampleSet: Drum
StackLeniency: 0.7
Mode: 0
LetterboxInBreaks: 0
WidescreenStoryboard: 1

[Editor]
Bookmarks: 3034,9898,16762,23626,30491,37355,44219,51083,57948,64812,71676,75108,88837
DistanceSpacing: 1
BeatDivisor: 6
GridSize: 8
TimelineZoom: 1

[Metadata]
Title:Isle Delfino
TitleUnicode:ドルピックタウン
Artist:Kondo Koji
ArtistUnicode:近藤浩治
Creator:SaltyLucario
Version:StarCastler's Hard
Source:スーパーマリオサンシャイン
Tags:super mario sunshine plaza dolphin dolphic town soundtrack ost folk video game retro instrumental shinobu tanaka nagata ながた しのぶ 永田しのぶ nintendo gamecube gc tiktok tik tok meme saltking salty verychill chill starcastler jelljel shmiklak marvollo m_a_r_v_o_l_l_o krfawy moodyrpg
BeatmapID:2521306
BeatmapSetID:1203997

[Difficulty]
HPDrainRate:4.5
CircleSize:3
OverallDifficulty:6.5
ApproachRate:7
SliderMultiplier:2.56
SliderTickRate:2

[Events]
//Background and Video events
0,0,"4016e307-d2f5-41f7-abbf-a1d59902913b.png",0,0
//Break Periods
2,3230,8993
2,71864,74196
//Storyboard Layer 0 (Background)
//Storyboard Layer 1 (Fail)
//Storyboard Layer 2 (Pass)
//Storyboard Layer 3 (Foreground)
//Storyboard Layer 4 (Overlay)
//Storyboard Sound Samples

[TimingPoints]
40,451.127819548872,4,2,1,50,1,0
791,555.555555555556,4,2,1,50,1,0
3030,428.969757632087,4,3,0,50,1,0
85391,-200,4,3,0,50,0,0

[Colours]
Combo1 : 247,175,9
Combo2 : 71,226,90
Combo3 : 53,210,219
Combo4 : 245,82,106

[HitObjects]
256,192,40,12,4,3030,0:2:0:0:
120,48,9893,5,4,0:2:0:0:
120,144,10036,1,0,0:0:0:0:
120,144,10108,1,2,0:0:0:0:
176,240,10322,1,2,0:2:0:0:
64,240,10536,1,0,0:0:0:0:
8,336,10751,2,0,B|56:368|112:336|168:304|216:336,1,213.333333333333,2|2,0:0|0:2,0:0:0:0:
392,48,11609,1,0,0:2:0:0:
392,144,11752,1,0,0:0:0:0:
392,144,11823,1,2,0:0:0:0:
336,240,12038,1,2,0:2:0:0:
448,240,12252,1,0,0:0:0:0:
504,336,12467,2,0,B|456:368|400:336|344:304|296:336,1,213.333333333333,2|2,0:0|0:2,0:0:0:0:
256,48,13325,5,0,0:2:0:0:
256,144,13468,1,0,0:0:0:0:
256,144,13539,1,2,0:0:0:0:
200,240,13754,1,2,0:2:0:0:
312,240,13968,1,0,0:0:0:0:
344,96,14183,2,0,B|320:48|256:24|192:48|168:96,1,213.333333333333,2|2,0:2|0:0,0:0:0:0:
64,128,14755,1,0,0:0:0:0:
64,128,14826,1,2,0:2:0:0:
40,232,15041,2,2,B|104:344|256:392|408:344|472:232,1,512,2|0,0:2|0:0,0:2:0:0:
392,48,16757,5,4,0:2:0:0:
488,48,16900,1,0,0:0:0:0:
488,48,16971,1,2,0:0:0:0:
488,160,17186,1,2,0:2:0:0:
440,256,17400,1,0,0:0:0:0:
504,336,17614,2,0,B|456:368|400:336|344:304|296:336,1,213.333333333333,2|2,0:0|0:2,0:0:0:0:
120,48,18472,1,0,0:2:0:0:
24,48,18615,1,0,0:0:0:0:
24,48,18687,1,2,0:0:0:0:
24,160,18901,1,2,0:2:0:0:
72,256,19116,1,0,0:0:0:0:
8,336,19330,2,0,B|56:368|112:336|168:304|216:336,1,213.333333333333,2|2,0:0|0:2,0:0:0:0:
256,48,20188,5,0,0:2:0:0:
256,144,20331,1,0,0:0:0:0:
256,144,20403,1,2,0:0:0:0:
312,240,20617,1,2,0:2:0:0:
200,240,20832,1,0,0:0:0:0:
168,96,21046,2,0,B|192:48|256:24|320:48|344:96,1,213.333333333333,2|2,0:2|0:0,0:0:0:0:
448,128,21618,1,0,0:0:0:0:
448,128,21690,1,2,0:2:0:0:
472,232,21904,2,2,B|408:344|256:392|104:344|40:232,1,512,2|0,0:2|0:0,0:2:0:0:
256,295,23620,5,4,0:2:0:0:
368,296,23835,2,0,L|496:296,1,128,2|0,0:2|0:0,0:0:0:0:
496,192,24264,1,2,0:2:0:0:
496,192,24371,1,0,0:0:0:0:
496,192,24478,2,0,B|440:144|376:184|376:200|312:240|256:192,1,256,2|2,0:0|0:2,0:0:0:0:
64,48,25336,2,2,B|448:48,1,384,2|0,0:2|0:0,0:2:0:0:
448,144,26194,2,2,B|64:144,1,384,0|0,0:0|0:0,0:2:0:0:
256,296,27052,5,0,0:2:0:0:
144,296,27266,2,0,L|16:296,1,128,2|0,0:2|0:0,0:0:0:0:
16,192,27695,1,2,0:2:0:0:
16,192,27803,1,0,0:0:0:0:
16,192,27910,2,0,B|72:144|136:184|136:200|200:240|256:192,1,256,2|2,0:0|0:2,0:0:0:0:
448,48,28768,2,2,B|64:48,1,384,2|0,0:2|0:0,0:2:0:0:
64,144,29626,2,2,B|448:144,1,384,2|0,0:0|0:0,0:2:0:0:
496,296,30484,5,4,0:2:0:0:
384,296,30698,2,0,L|256:296,1,128,2|0,0:2|0:0,0:0:0:0:
144,296,31127,1,2,0:2:0:0:
144,296,31234,1,0,0:0:0:0:
144,296,31342,2,0,B|72:312|32:248,2,128,2|0|2,0:0|0:0|0:2,0:0:0:0:
368,72,32199,1,2,0:2:0:0:
256,72,32414,1,0,0:0:0:0:
144,72,32628,1,2,0:3:0:0:
144,312,33057,2,0,B|184:368|256:376|328:368|368:312,1,256,2|0,0:2|0:0,0:0:0:0:
496,88,33915,5,0,0:2:0:0:
384,88,34130,2,0,L|256:88,1,128,2|0,0:2|0:0,0:0:0:0:
192,192,34559,1,2,0:2:0:0:
192,192,34666,1,0,0:0:0:0:
192,192,34773,2,0,B|192:320,1,128,2|0,0:0|0:0,0:0:0:0:
320,320,35202,2,0,B|320:192,1,128,2|0,0:2|0:0,0:0:0:0:
472,152,35631,2,2,B|408:40|256:-8|104:40|40:152,1,512,2|2,0:2|0:2,0:2:0:0:
120,56,37347,5,4,0:2:0:0:
176,128,37490,1,0,0:0:0:0:
176,128,37562,1,2,0:0:0:0:
176,240,37776,1,2,0:2:0:0:
64,240,37991,1,0,0:0:0:0:
8,336,38205,2,0,B|56:368|112:336|168:304|216:336,1,213.333333333333,2|2,0:0|0:2,0:0:0:0:
392,56,39063,5,0,0:2:0:0:
336,128,39206,1,0,0:0:0:0:
336,128,39277,1,2,0:0:0:0:
336,240,39492,1,2,0:2:0:0:
448,240,39706,1,0,0:0:0:0:
504,336,39921,2,0,B|456:368|400:336|344:304|296:336,1,213.333333333333,2|2,0:0|0:2,0:0:0:0:
256,48,40779,5,0,0:2:0:0:
256,144,40922,1,0,0:0:0:0:
256,144,40993,1,2,0:0:0:0:
200,240,41208,1,2,0:2:0:0:
312,240,41422,1,0,0:0:0:0:
344,96,41637,2,0,B|320:48|256:24|192:48|168:96,1,213.333333333333,2|2,0:2|0:0,0:0:0:0:
64,128,42209,1,0,0:0:0:0:
64,128,42280,1,2,0:2:0:0:
40,232,42495,2,2,B|104:344|256:392|408:344|472:232,1,512,2|0,0:2|0:0,0:2:0:0:
272,32,44211,5,4,0:2:0:0:
384,32,44425,1,0,0:0:0:0:
496,32,44640,1,2,0:0:0:0:
440,128,44854,1,0,0:0:0:0:
384,224,45069,2,0,B|128:224,1,256,2|2,0:2|0:0,0:0:0:0:
72,128,45712,1,0,0:0:0:0:
16,224,45926,2,2,B|32:360|192:376,1,256,2|0,0:2|0:0,0:2:0:0:
256,288,46570,1,0,0:0:0:0:
320,376,46784,2,2,B|480:360|496:224,1,256,2|0,0:0|0:0,0:2:0:0:
240,32,47642,5,0,0:2:0:0:
128,32,47857,1,0,0:0:0:0:
16,32,48071,1,2,0:0:0:0:
72,128,48286,1,0,0:0:0:0:
128,224,48500,2,0,B|384:224,1,256,2|2,0:2|0:2,0:0:0:0:
440,128,49144,1,0,0:0:0:0:
496,224,49358,2,2,B|480:360|320:376,3,256,2|0|0|0,0:2|0:0|0:2|0:2,0:2:0:0:
112,248,51074,5,4,0:2:0:0:
112,360,51289,1,0,0:0:0:0:
16,304,51503,1,2,0:0:0:0:
16,192,51718,1,0,0:0:0:0:
128,192,51932,2,0,L|384:192,1,256,2|2,0:2|0:0,0:0:0:0:
496,192,52576,1,0,0:0:0:0:
496,80,52790,2,2,B|464:8|384:-8|320:40|320:112,1,256,2|0,0:2|0:0,0:2:0:0:
256,192,53433,1,0,0:0:0:0:
192,112,53648,2,2,B|192:40|128:-8|48:8|16:80,1,256,2|0,0:0|0:0,0:2:0:0:
400,248,54506,5,0,0:2:0:0:
400,360,54720,1,0,0:0:0:0:
496,304,54935,1,2,0:0:0:0:
496,192,55149,1,0,0:0:0:0:
384,192,55364,2,0,L|128:192,1,256,2|2,0:2|0:0,0:0:0:0:
16,192,56007,1,0,0:0:0:0:
16,80,56222,2,2,B|48:8|128:-8|192:40|192:112,3,256,2|0|0|0,0:2|0:0|0:2|0:2,0:2:0:0:
144,344,57938,5,4,0:2:0:0:
32,344,58152,1,0,0:0:0:0:
88,248,58367,1,2,0:0:0:0:
200,248,58581,1,0,0:0:0:0:
256,344,58796,2,0,B|400:360|480:248,1,256,2|2,0:2|0:0,0:0:0:0:
480,136,59439,1,0,0:0:0:0:
384,80,59654,2,2,B|296:40|200:104|200:192,1,256,2|0,0:2|0:0,0:2:0:0:
256,288,60297,1,0,0:0:0:0:
312,192,60511,2,2,B|312:104|216:40|128:80,1,256,2|2,0:0|0:0,0:2:0:0:
368,344,61369,5,0,0:2:0:0:
480,344,61584,1,0,0:0:0:0:
424,248,61798,1,2,0:0:0:0:
312,248,62013,1,0,0:0:0:0:
256,344,62227,2,0,B|112:360|32:248,1,256,2|2,0:2|0:0,0:0:0:0:
32,136,62871,1,0,0:0:0:0:
128,80,63085,2,2,B|216:40|312:104|312:192,1,256,2|0,0:2|0:0,0:2:0:0:
256,288,63729,1,0,0:0:0:0:
200,192,63943,2,2,B|200:104|296:40|384:80,1,256,2|0,0:0|0:0,0:2:0:0:
392,336,64801,5,4,0:2:0:0:
392,256,64944,1,0,0:0:0:0:
392,256,65016,1,2,0:0:0:0:
504,256,65230,1,2,0:2:0:0:
448,160,65445,1,0,0:0:0:0:
504,64,65659,2,0,B|456:32|400:64|344:96|296:64,1,213.333333333333,2|2,0:0|0:2,0:0:0:0:
120,336,66517,5,0,0:2:0:0:
120,256,66660,1,0,0:0:0:0:
120,256,66732,1,2,0:0:0:0:
8,256,66946,1,2,0:2:0:0:
64,160,67160,1,0,0:0:0:0:
8,64,67375,2,0,B|56:32|112:64|168:96|216:64,1,213.333333333333,2|2,0:0|0:2,0:0:0:0:
256,336,68233,5,0,0:2:0:0:
256,240,68376,1,0,0:0:0:0:
256,240,68447,1,2,0:0:0:0:
312,144,68662,1,2,0:2:0:0:
200,144,68876,1,0,0:0:0:0:
168,288,69091,2,0,B|192:336|256:360|320:336|344:288,1,213.333333333333,2|2,0:2|0:0,0:0:0:0:
448,256,69663,1,0,0:0:0:0:
448,256,69734,1,2,0:2:0:0:
472,152,69949,2,2,B|408:40|256:-8|104:40|40:152,2,512,2|2|4,0:2|0:0|0:2,0:2:0:0:
488,328,75096,5,4,0:2:0:0:
376,328,75311,2,0,B|320:280|256:320|256:336|192:376|136:328,1,256,2|2,0:2|0:2,0:0:0:0:
137,329,75847,1,0,0:0:0:0:
137,329,75954,1,2,0:0:0:0:
24,328,76169,1,0,0:0:0:0:
80,232,76383,1,2,0:2:0:0:
80,232,76598,1,0,0:0:0:0:
192,232,76812,1,2,0:2:0:0:
136,136,77027,1,0,0:0:0:0:
40,88,77241,2,2,B|56:-8|208:-8|168:112|256:136|344:112|304:-8|456:-8|472:88,1,512,2|0,0:0|0:0,0:2:0:0:
368,288,78528,5,0,0:2:0:0:
256,288,78743,1,2,0:2:0:0:
256,288,78850,1,0,0:0:0:0:
256,288,78957,1,2,0:0:0:0:
144,288,79172,1,0,0:0:0:0:
200,192,79386,1,2,0:0:0:0:
200,80,79601,1,0,0:0:0:0:
104,136,79815,1,2,0:2:0:0:
8,192,80030,1,0,0:0:0:0:
40,296,80244,2,2,B|56:392|208:392|168:272|256:248|344:272|304:392|456:392|472:296,2,512,2|0|0,0:2|0:0|0:2,0:2:0:0:
256,192,82174,12,4,85106,0:2:0:0:
244,56,85392,6,0,C|216:112|160:104|176:168|120:192|176:216|160:280|216:272|256:328|296:272|352:280|336:216|392:192|336:168|352:104|296:112|268:56,1,1024,2|4,0:0|0:2,0:2:0:0:
