osu file format v14

[General]
AudioFilename: audio.mp3
AudioLeadIn: 0
PreviewTime: 9893
Countdown: 0
SampleSet: Soft
StackLeniency: 0.7
Mode: 0
LetterboxInBreaks: 0
WidescreenStoryboard: 1

[Editor]
Bookmarks: 23692,38634,53219
DistanceSpacing: 1
BeatDivisor: 6
GridSize: 4
TimelineZoom: 1

[Metadata]
Title:Isle Delfino
TitleUnicode:ドルピックタウン
Artist:Kondo Koji
ArtistUnicode:近藤浩治
Creator:SaltyLucario
Version:Krfawy x Salty's Normal
Source:スーパーマリオサンシャイン
Tags:super mario sunshine plaza dolphin dolphic town soundtrack ost folk video game retro instrumental shinobu tanaka nagata ながた しのぶ 永田しのぶ nintendo gamecube gc tiktok tik tok meme saltking salty verychill chill starcastler jelljel shmiklak marvollo m_a_r_v_o_l_l_o krfawy moodyrpg
BeatmapID:2521790
BeatmapSetID:1203997

[Difficulty]
HPDrainRate:4
CircleSize:5
OverallDifficulty:4
ApproachRate:5
SliderMultiplier:0.8
SliderTickRate:1

[Events]
//Background and Video events
0,0,"4016e307-d2f5-41f7-abbf-a1d59902913b.png",0,0
//Break Periods
//Storyboard Layer 0 (Background)
//Storyboard Layer 1 (Fail)
//Storyboard Layer 2 (Pass)
//Storyboard Layer 3 (Foreground)
//Storyboard Layer 4 (Overlay)
//Storyboard Sound Samples

[TimingPoints]
40,451.127819548872,4,2,1,45,1,0
791,555.555555555556,4,2,1,45,1,0
3030,428.969757632087,4,2,1,55,1,0

[Colours]
Combo1 : 247,175,9
Combo2 : 71,226,90
Combo3 : 53,210,219
Combo4 : 245,82,106

[HitObjects]
208,192,3030,6,0,B|256:176|256:136|256:136|256:176|304:192,1,160,2|0,3:2|3:2,0:0:0:0:
371,219,4316,1,0,3:2:0:0:
366,290,4745,2,0,B|360:333|360:333|384:361|384:361|360:333|313:328,1,160,2|0,3:2|3:2,0:0:0:0:
256,283,6032,1,0,3:2:0:0:
198,328,6461,6,0,B|151:333|127:361|127:361|151:333|151:333|146:290,1,160,2|0,3:2|3:2,0:0:0:0:
141,219,7748,1,0,3:2:0:0:
208,192,8177,2,0,B|256:208|256:248|256:248|256:208|304:192,1,160,2|0,3:2|3:2,0:0:0:0:
371,165,9464,1,0,3:2:0:0:
437,138,9893,5,0,3:2:0:0:
445,134,10108,1,2,0:2:0:0:
453,130,10322,2,0,B|520:103|520:103|433:54,1,160,2|0,3:2|3:2,0:0:0:0:
377,29,11609,1,0,3:2:0:0:
369,33,11824,1,2,0:2:0:0:
361,37,12038,2,0,B|294:64|294:64|301:68|301:68|213:103,1,160,2|0,3:2|3:2,0:0:0:0:
162,130,13325,5,0,3:2:0:0:
154,134,13540,1,2,0:2:0:0:
146,138,13754,1,2,3:2:0:0:
81,170,14183,2,0,B|105:209|147:210|147:210|201:294,1,160,2|2,3:2|3:2,0:0:0:0:
220,342,15470,1,0,3:2:0:0:
292,342,15899,1,0,3:2:0:0:
322,276,16328,1,0,3:2:0:0:
291,210,16757,5,0,3:2:0:0:
292,201,16972,1,2,0:2:0:0:
293,192,17186,2,0,B|293:148|329:124|329:124|292:53,1,160,2|0,3:2|3:2,0:0:0:0:
221,35,18472,1,0,3:2:0:0:
220,44,18686,1,2,0:2:0:0:
220,53,18901,2,0,B|183:124|183:124|219:148|219:192,1,160,2|0,3:2|3:2,0:0:0:0:
178,253,20188,5,0,3:2:0:0:
170,257,20403,1,2,0:2:0:0:
162,261,20617,1,2,3:2:0:0:
95,236,21046,2,0,B|128:136|128:136|145:188,1,160,2|2,3:2|3:2,0:0:0:0:
178,253,22333,1,0,3:2:0:0:
211,318,22762,1,0,3:2:0:0:
170,378,23191,1,0,3:0:0:0:
129,318,23620,6,0,P|114:272|181:256,1,120,0|2,3:0|0:2,0:0:0:0:
178,253,24478,1,2,3:2:0:0:
195,183,24907,1,2,3:2:0:0:
193,174,25121,1,0,0:0:0:0:
192,166,25336,2,0,B|168:122|208:94|208:94|256:94|256:141|256:141|256:94|304:94|304:94|344:122|320:166,1,320,2|0,3:2|3:2,0:0:0:0:
292,233,27481,5,0,3:2:0:0:
290,242,27695,1,2,0:2:0:0:
288,251,27910,1,2,3:2:0:0:
260,317,28339,1,2,3:2:0:0:
188,310,28768,2,0,B|134:251|134:251|188:192,2,160,2|2|0,3:2|3:2|3:2,0:0:0:0:
260,317,30913,5,2,3:2:0:0:
269,317,31127,1,2,0:2:0:0:
278,317,31342,1,2,3:2:0:0:
350,324,31770,1,2,3:2:0:0:
405,278,32199,2,0,P|435:237|432:193,2,80,2|2|2,3:2|3:2|3:2,0:0:0:0:
364,217,33486,1,0,3:2:0:0:
323,156,33915,6,0,P|263:180|219:219,1,120,2|2,3:2|0:2,0:0:0:0:
218,225,34773,1,2,3:2:0:0:
206,296,35202,1,2,3:2:0:0:
256,347,35631,2,0,B|284:367|340:363|316:307|372:303|400:323,2,160,2|2|0,3:2|3:2|3:2,0:0:0:0:
248,343,37562,5,2,0:2:0:0:
241,339,37776,2,0,B|167:347|167:347|160:340|160:340|73:349,1,160,2|0,3:2|3:2,0:0:0:0:
42,289,39063,1,0,3:2:0:0:
43,282,39277,1,2,0:2:0:0:
44,274,39492,2,0,B|56:170|56:170|89:235,1,160,2|0,3:2|3:2,0:0:0:0:
152,227,40779,5,0,3:2:0:0:
159,228,40993,1,2,0:2:0:0:
166,229,41208,1,2,3:2:0:0:
237,232,41637,2,0,B|302:237|302:237|324:274|362:284|394:268,1,160,2|2,3:2|3:2,0:0:0:0:
445,238,42924,1,0,3:0:0:0:
460,167,43353,1,0,3:0:0:0:
475,96,43782,1,0,3:0:0:0:
404,110,44211,5,0,3:0:0:0:
397,111,44425,1,2,0:2:0:0:
390,112,44640,1,2,3:2:0:0:
322,85,45069,2,0,P|314:123|330:159,1,80,2|2,3:2|3:2,0:0:0:0:
379,212,45926,2,0,B|457:196|457:196|527:264,2,160,2|2|0,3:2|3:2|3:2,0:0:0:0:
371,214,47857,5,2,0:2:0:0:
363,216,48071,1,2,3:2:0:0:
317,271,48500,2,0,L|231:262,1,80,2|2,3:2|3:2,0:0:0:0:
184,213,49358,2,0,B|155:247|169:290|169:290|127:288|127:288|93:306|93:306|83:259|34:247,1,240,2|0,3:2|3:2,0:0:0:0:
52,178,51074,5,0,3:2:0:0:
54,170,51289,1,2,0:2:0:0:
56,162,51503,1,2,3:2:0:0:
74,92,51932,2,0,B|90:8,1,80,2|2,3:2|3:2,0:0:0:0:
160,24,52790,2,0,B|146:93|146:93|152:107|152:107|135:198,2,160,2|2|0,3:2|3:2|3:2,0:0:0:0:
167,23,54720,5,2,0:2:0:0:
174,21,54935,1,2,3:2:0:0:
240,47,55364,2,0,P|286:71|319:67,1,80,2|2,3:2|3:2,0:0:0:0:
374,31,56222,2,0,B|396:77|372:111|372:111|395:187|395:187|364:224|381:269,1,240,2|0,3:2|3:2,0:0:0:0:
387,329,57938,5,0,3:2:0:0:
379,330,58152,1,2,0:2:0:0:
371,331,58367,1,2,3:2:0:0:
315,376,58796,2,0,P|299:349|306:301,1,80,2|2,3:2|3:2,0:0:0:0:
264,242,59654,2,0,B|168:254|168:254|199:237|211:205,2,160,2|2|0,3:2|3:2|3:2,0:0:0:0:
271,241,61584,5,2,0:2:0:0:
278,240,61798,1,2,3:2:0:0:
308,174,62227,2,0,B|315:155|315:155|299:85,1,80,2|2,3:2|3:2,0:0:0:0:
267,33,63085,2,0,B|351:3|339:82|424:39,2,160,2|2|0,3:2|3:2|3:2,0:0:0:0:
259,35,65016,5,2,0:2:0:0:
251,37,65230,2,0,B|184:52|184:52|173:49|173:49|81:68,1,160,2|0,3:2|3:2,0:0:0:0:
56,126,66517,1,0,3:2:0:0:
59,132,66732,1,2,0:2:0:0:
62,138,66946,2,0,B|85:214|85:214|54:318,1,160,2|0,3:2|3:2,0:0:0:0:
101,350,68233,5,0,3:2:0:0:
108,348,68447,1,2,0:2:0:0:
115,346,68662,1,2,3:2:0:0:
181,319,69091,2,0,B|166:285|138:276|138:276|170:164,1,160,2|2,3:2|3:2,0:0:0:0:
191,115,70378,1,0,3:2:0:0:
256,80,70807,1,0,3:2:0:0:
321,115,71236,1,0,3:2:0:0:
347,182,71665,6,0,B|325:225|347:261|347:261|312:284|310:325,1,160,2|0,3:2|3:2,0:0:0:0:
256,374,72952,1,0,3:2:0:0:
201,325,73381,2,0,B|200:284|165:261|165:261|187:225|164:182,1,160,2|0,3:2|3:2,0:0:0:0:
132,117,74667,1,0,3:2:0:0:
200,96,75096,6,0,B|240:88|256:44|256:44|272:88|313:94,1,160,2|2,3:2|3:2,0:0:0:0:
380,117,76383,1,2,3:2:0:0:
356,185,76812,1,2,3:2:0:0:
388,248,77241,2,0,B|332:270|294:222|294:222|269:227|269:227|229:169|152:205,1,240,2|0,3:2|3:2,0:0:0:0:
103,212,78957,5,2,3:2:0:0:
121,281,79386,2,0,L|139:382,1,80,2|2,3:2|3:2,0:0:0:0:
62,355,80244,2,0,B|41:242|41:242|45:232|45:232|21:98,1,240,2|0,3:2|3:2,0:0:0:0:
65,59,81960,5,0,3:2:0:0:
72,60,82174,1,2,0:2:0:0:
79,61,82389,1,2,3:2:0:0:
129,112,82818,1,2,3:2:0:0:
136,111,83032,1,0,0:0:0:0:
144,110,83247,2,0,L|196:103,2,40,2|0|2,3:2|0:0|3:2,0:0:0:0:
167,178,84105,2,0,L|219:171,2,40,2|0|2,3:2|0:0|3:2,0:0:0:0:
189,246,84963,2,0,L|241:240,1,40,2|0,3:2|0:0,0:0:0:0:
256,192,85392,12,0,88823,3:2:0:0:
