osu file format v14

[General]
AudioFilename: audio.mp3
AudioLeadIn: 0
PreviewTime: 9893
Countdown: 0
SampleSet: Soft
StackLeniency: 0.7
Mode: 0
LetterboxInBreaks: 0
WidescreenStoryboard: 1

[Editor]
Bookmarks: 0,3030,6461,9892,16755,23618,37343,44206,51283,58146,64795,71657,75089
DistanceSpacing: 1
BeatDivisor: 12
GridSize: 16
TimelineZoom: 1.8

[Metadata]
Title:Isle Delfino
TitleUnicode:ドルピックタウン
Artist:Kondo Koji
ArtistUnicode:近藤浩治
Creator:SaltyLucario
Version:Jelljel's Extra
Source:スーパーマリオサンシャイン
Tags:super mario sunshine plaza dolphin dolphic town soundtrack ost folk video game retro instrumental shinobu tanaka nagata ながた しのぶ 永田しのぶ nintendo gamecube gc tiktok tik tok meme saltking salty verychill chill starcastler jelljel shmiklak marvollo m_a_r_v_o_l_l_o krfawy moodyrpg
BeatmapID:2521314
BeatmapSetID:1203997

[Difficulty]
HPDrainRate:6
CircleSize:5
OverallDifficulty:8
ApproachRate:8.6
SliderMultiplier:2
SliderTickRate:1

[Events]
//Background and Video events
0,0,"4016e307-d2f5-41f7-abbf-a1d59902913b.png",0,0
//Break Periods
//Storyboard Layer 0 (Background)
//Storyboard Layer 1 (Fail)
//Storyboard Layer 2 (Pass)
//Storyboard Layer 3 (Foreground)
//Storyboard Layer 4 (Overlay)
//Storyboard Sound Samples

[TimingPoints]
40,451.127819548872,4,2,1,45,1,0
791,555.555555555556,4,2,1,45,1,0
2874,-83.3333333333333,4,2,99,5,0,0
3030,428.969757632087,4,2,1,55,1,0
3030,-83.3333333333333,4,2,1,55,0,0
10215,-83.3333333333333,4,2,99,5,0,0
10322,-83.3333333333333,4,2,1,55,0,0
10429,-83.3333333333333,4,2,99,5,0,0
10536,-83.3333333333333,4,2,1,55,0,0
10644,-83.3333333333333,4,2,99,5,0,0
10751,-83.3333333333333,4,2,1,55,0,0
10858,-83.3333333333333,4,2,99,5,0,0
10965,-83.3333333333333,4,2,1,55,0,0
11931,-83.3333333333333,4,2,99,5,0,0
12038,-83.3333333333333,4,2,1,55,0,0
12145,-83.3333333333333,4,2,99,5,0,0
12252,-83.3333333333333,4,2,1,55,0,0
12360,-83.3333333333333,4,2,99,5,0,0
12467,-83.3333333333333,4,2,1,55,0,0
12574,-83.3333333333333,4,2,99,5,0,0
12681,-83.3333333333333,4,2,1,55,0,0
13645,-83.3333333333333,4,2,99,5,0,0
13752,-83.3333333333333,4,2,1,55,0,0
13861,-83.3333333333333,4,2,99,5,0,0
13968,-83.3333333333333,4,2,1,55,0,0
14075,-83.3333333333333,4,2,99,5,0,0
14182,-83.3333333333333,4,2,1,55,0,0
14397,-83.3333333333333,4,2,99,5,0,0
14504,-83.3333333333333,4,2,1,55,0,0
17078,-83.3333333333333,4,2,99,5,0,0
17185,-83.3333333333333,4,2,1,55,0,0
17293,-83.3333333333333,4,2,99,5,0,0
17400,-83.3333333333333,4,2,1,55,0,0
17507,-83.3333333333333,4,2,99,5,0,0
17614,-83.3333333333333,4,2,1,55,0,0
17722,-83.3333333333333,4,2,99,5,0,0
17829,-83.3333333333333,4,2,1,55,0,0
18794,-83.3333333333333,4,2,99,5,0,0
18901,-83.3333333333333,4,2,1,55,0,0
19009,-83.3333333333333,4,2,99,5,0,0
19116,-83.3333333333333,4,2,1,55,0,0
19223,-83.3333333333333,4,2,99,5,0,0
19330,-83.3333333333333,4,2,1,55,0,0
19438,-83.3333333333333,4,2,99,5,0,0
19545,-83.3333333333333,4,2,1,55,0,0
20510,-83.3333333333333,4,2,99,5,0,0
20617,-83.3333333333333,4,2,1,55,0,0
20725,-83.3333333333333,4,2,99,5,0,0
20832,-83.3333333333333,4,2,1,55,0,0
20939,-83.3333333333333,4,2,99,5,0,0
21046,-83.3333333333333,4,2,1,55,0,0
21261,-83.3333333333333,4,2,99,5,0,0
21368,-83.3333333333333,4,2,1,55,0,0
24800,-83.3333333333333,4,2,99,5,0,0
24907,-83.3333333333333,4,2,1,55,0,0
25229,-83.3333333333333,4,2,99,5,0,0
25336,-83.3333333333333,4,2,1,55,0,0
28231,-83.3333333333333,4,2,99,5,0,0
28338,-83.3333333333333,4,2,1,55,0,0
28660,-83.3333333333333,4,2,99,5,0,0
28767,-83.3333333333333,4,2,1,55,0,0
31663,-83.3333333333333,4,2,99,5,0,0
31770,-83.3333333333333,4,2,1,55,0,0
32092,-83.3333333333333,4,2,99,5,0,0
32199,-83.3333333333333,4,2,1,55,0,0
35095,-83.3333333333333,4,2,99,5,0,0
35202,-83.3333333333333,4,2,1,55,0,0
35524,-83.3333333333333,4,2,99,5,0,0
35631,-83.3333333333333,4,2,1,55,0,0
37669,-83.3333333333333,4,2,99,5,0,0
37776,-83.3333333333333,4,2,1,55,0,0
37883,-83.3333333333333,4,2,99,5,0,0
37990,-83.3333333333333,4,2,1,55,0,0
38098,-83.3333333333333,4,2,99,5,0,0
38205,-83.3333333333333,4,2,1,55,0,0
38312,-83.3333333333333,4,2,99,5,0,0
38419,-83.3333333333333,4,2,1,55,0,0
39385,-83.3333333333333,4,2,99,5,0,0
39492,-83.3333333333333,4,2,1,55,0,0
39599,-83.3333333333333,4,2,99,5,0,0
39706,-83.3333333333333,4,2,1,55,0,0
39814,-83.3333333333333,4,2,99,5,0,0
39921,-83.3333333333333,4,2,1,55,0,0
40028,-83.3333333333333,4,2,99,5,0,0
40135,-83.3333333333333,4,2,1,55,0,0
41101,-83.3333333333333,4,2,99,5,0,0
41208,-83.3333333333333,4,2,1,55,0,0
41315,-83.3333333333333,4,2,99,5,0,0
41422,-83.3333333333333,4,2,1,55,0,0
41530,-83.3333333333333,4,2,99,5,0,0
41637,-83.3333333333333,4,2,1,55,0,0
41851,-83.3333333333333,4,2,99,5,0,0
41958,-83.3333333333333,4,2,1,55,0,0
44532,-83.3333333333333,4,2,99,5,0,0
44639,-83.3333333333333,4,2,1,55,0,0
44747,-83.3333333333333,4,2,99,5,0,0
44854,-83.3333333333333,4,2,1,55,0,0
44961,-83.3333333333333,4,2,99,5,0,0
45068,-83.3333333333333,4,2,1,55,0,0
45390,-83.3333333333333,4,2,99,5,0,0
45497,-83.3333333333333,4,2,1,55,0,0
45605,-83.3333333333333,4,2,99,5,0,0
45712,-83.3333333333333,4,2,1,55,0,0
45819,-83.3333333333333,4,2,99,5,0,0
45926,-83.3333333333333,4,2,1,55,0,0
46677,-83.3333333333333,4,2,99,5,0,0
46784,-83.3333333333333,4,2,1,55,0,0
47535,-83.3333333333333,4,2,99,5,0,0
47642,-83.3333333333333,4,2,1,55,0,0
47964,-83.3333333333333,4,2,99,5,0,0
48071,-83.3333333333333,4,2,1,55,0,0
48179,-83.3333333333333,4,2,99,5,0,0
48286,-83.3333333333333,4,2,1,55,0,0
48393,-83.3333333333333,4,2,99,5,0,0
48500,-83.3333333333333,4,2,1,55,0,0
48822,-83.3333333333333,4,2,99,5,0,0
48929,-83.3333333333333,4,2,1,55,0,0
49037,-83.3333333333333,4,2,99,5,0,0
49144,-83.3333333333333,4,2,1,55,0,0
49251,-83.3333333333333,4,2,99,5,0,0
49358,-83.3333333333333,4,2,1,55,0,0
51396,-83.3333333333333,4,2,99,5,0,0
51503,-83.3333333333333,4,2,1,55,0,0
51610,-83.3333333333333,4,2,99,5,0,0
51717,-83.3333333333333,4,2,1,55,0,0
51825,-83.3333333333333,4,2,99,5,0,0
51932,-83.3333333333333,4,2,1,55,0,0
52254,-83.3333333333333,4,2,99,5,0,0
52361,-83.3333333333333,4,2,1,55,0,0
52468,-83.3333333333333,4,2,99,5,0,0
52575,-83.3333333333333,4,2,1,55,0,0
52683,-83.3333333333333,4,2,99,5,0,0
52790,-83.3333333333333,4,2,1,55,0,0
53541,-83.3333333333333,4,2,99,5,0,0
53648,-83.3333333333333,4,2,1,55,0,0
54399,-83.3333333333333,4,2,99,5,0,0
54506,-83.3333333333333,4,2,1,55,0,0
54828,-83.3333333333333,4,2,99,5,0,0
54935,-83.3333333333333,4,2,1,55,0,0
55042,-83.3333333333333,4,2,99,5,0,0
55149,-83.3333333333333,4,2,1,55,0,0
55257,-83.3333333333333,4,2,99,5,0,0
55364,-83.3333333333333,4,2,1,55,0,0
55686,-83.3333333333333,4,2,99,5,0,0
55793,-83.3333333333333,4,2,1,55,0,0
55900,-83.3333333333333,4,2,99,5,0,0
56007,-83.3333333333333,4,2,1,55,0,0
56115,-83.3333333333333,4,2,99,5,0,0
56222,-83.3333333333333,4,2,1,55,0,0
57401,-83.3333333333333,4,2,99,5,0,0
57508,-83.3333333333333,4,2,1,55,0,0
58259,-83.3333333333333,4,2,99,5,0,0
58366,-83.3333333333333,4,2,1,55,0,0
58474,-83.3333333333333,4,2,99,5,0,0
58581,-83.3333333333333,4,2,1,55,0,0
58688,-83.3333333333333,4,2,99,5,0,0
58795,-83.3333333333333,4,2,1,55,0,0
59117,-83.3333333333333,4,2,99,5,0,0
59224,-83.3333333333333,4,2,1,55,0,0
59332,-83.3333333333333,4,2,99,5,0,0
59439,-83.3333333333333,4,2,1,55,0,0
59546,-83.3333333333333,4,2,99,5,0,0
59653,-83.3333333333333,4,2,1,55,0,0
60404,-83.3333333333333,4,2,99,5,0,0
60511,-83.3333333333333,4,2,1,55,0,0
60833,-83.3333333333333,4,2,99,5,0,0
60940,-83.3333333333333,4,2,1,55,0,0
61262,-83.3333333333333,4,2,99,5,0,0
61369,-83.3333333333333,4,2,1,55,0,0
61691,-83.3333333333333,4,2,99,5,0,0
61798,-83.3333333333333,4,2,1,55,0,0
61906,-83.3333333333333,4,2,99,5,0,0
62013,-83.3333333333333,4,2,1,55,0,0
62120,-83.3333333333333,4,2,99,5,0,0
62227,-83.3333333333333,4,2,1,55,0,0
62549,-83.3333333333333,4,2,99,5,0,0
62656,-83.3333333333333,4,2,1,55,0,0
62764,-83.3333333333333,4,2,99,5,0,0
62871,-83.3333333333333,4,2,1,55,0,0
62978,-83.3333333333333,4,2,99,5,0,0
63085,-83.3333333333333,4,2,1,55,0,0
63836,-83.3333333333333,4,2,99,5,0,0
63943,-83.3333333333333,4,2,1,55,0,0
64694,-83.3333333333333,4,2,99,5,0,0
64801,-83.3333333333333,4,2,1,55,0,0
65123,-83.3333333333333,4,2,99,5,0,0
65230,-83.3333333333333,4,2,1,55,0,0
65337,-83.3333333333333,4,2,99,5,0,0
65444,-83.3333333333333,4,2,1,55,0,0
65552,-83.3333333333333,4,2,99,5,0,0
65659,-83.3333333333333,4,2,1,55,0,0
65766,-83.3333333333333,4,2,99,5,0,0
65873,-83.3333333333333,4,2,1,55,0,0
66839,-83.3333333333333,4,2,99,5,0,0
66946,-83.3333333333333,4,2,1,55,0,0
67053,-83.3333333333333,4,2,99,5,0,0
67160,-83.3333333333333,4,2,1,55,0,0
67268,-83.3333333333333,4,2,99,5,0,0
67375,-83.3333333333333,4,2,1,55,0,0
67482,-83.3333333333333,4,2,99,5,0,0
67589,-83.3333333333333,4,2,1,55,0,0
68555,-83.3333333333333,4,2,99,5,0,0
68662,-83.3333333333333,4,2,1,55,0,0
68769,-83.3333333333333,4,2,99,5,0,0
68876,-83.3333333333333,4,2,1,55,0,0
68984,-83.3333333333333,4,2,99,5,0,0
69091,-83.3333333333333,4,2,1,55,0,0
69305,-83.3333333333333,4,2,99,5,0,0
69412,-83.3333333333333,4,2,1,55,0,0
71236,-66.6666666666667,4,2,1,55,0,0
71657,-83.3333333333333,4,2,1,55,0,0
76062,-83.3333333333333,4,2,99,5,0,0
76169,-83.3333333333333,4,2,1,55,0,0
76276,-83.3333333333333,4,2,99,5,0,0
76383,-83.3333333333333,4,2,1,55,0,0
76491,-83.3333333333333,4,2,99,5,0,0
76598,-83.3333333333333,4,2,1,55,0,0
76705,-83.3333333333333,4,2,99,5,0,0
76812,-83.3333333333333,4,2,1,55,0,0
76920,-83.3333333333333,4,2,99,5,0,0
77027,-83.3333333333333,4,2,1,55,0,0
77134,-83.3333333333333,4,2,99,5,0,0
77241,-83.3333333333333,4,2,1,55,0,0
79064,-83.3333333333333,4,2,99,5,0,0
79171,-83.3333333333333,4,2,1,55,0,0
79279,-83.3333333333333,4,2,99,5,0,0
79386,-83.3333333333333,4,2,1,55,0,0
79493,-83.3333333333333,4,2,99,5,0,0
79600,-83.3333333333333,4,2,1,55,0,0
79708,-83.3333333333333,4,2,99,5,0,0
79815,-83.3333333333333,4,2,1,55,0,0
79922,-83.3333333333333,4,2,99,5,0,0
80029,-83.3333333333333,4,2,1,55,0,0
80137,-83.3333333333333,4,2,99,5,0,0
80244,-83.3333333333333,4,2,1,55,0,0
84105,-90.9090909090909,4,2,1,55,0,0
84534,-100,4,2,1,55,0,0
85070,-112.485939257593,4,2,1,55,0,0

[Colours]
Combo1 : 247,175,9
Combo2 : 71,226,90
Combo3 : 53,210,219
Combo4 : 245,82,106

[HitObjects]
256,192,40,12,0,2874,0:0:0:0:
255,55,3030,5,2,3:2:0:0:
255,55,3244,1,0,0:0:0:0:
342,322,3458,1,0,3:2:0:0:
342,322,3673,1,0,0:0:0:0:
115,158,3887,1,0,3:2:0:0:
115,158,4102,1,0,0:0:0:0:
395,156,4316,1,0,3:2:0:0:
395,156,4531,1,0,0:0:0:0:
169,322,4745,5,2,3:2:0:0:
169,322,4960,1,0,0:0:0:0:
395,156,5174,1,0,3:2:0:0:
395,156,5389,1,0,0:0:0:0:
115,158,5603,1,0,3:2:0:0:
115,158,5818,1,0,0:0:0:0:
342,322,6032,1,0,3:2:0:0:
342,322,6247,1,0,0:0:0:0:
255,55,6461,5,2,3:2:0:0:
255,55,6675,1,0,0:0:0:0:
342,322,6889,1,0,3:2:0:0:
342,322,7104,1,0,0:0:0:0:
115,158,7318,1,0,3:2:0:0:
115,158,7533,1,0,0:0:0:0:
395,156,7747,1,0,3:2:0:0:
395,156,7962,1,0,0:0:0:0:
169,322,8176,5,2,3:2:0:0:
169,322,8391,1,0,0:0:0:0:
395,156,8605,1,0,3:2:0:0:
395,156,8820,1,0,0:0:0:0:
115,158,9034,1,0,3:2:0:0:
115,158,9249,1,0,0:0:0:0:
342,322,9463,1,0,3:2:0:0:
342,322,9678,1,0,0:0:0:0:
255,55,9893,5,0,3:2:0:0:
308,135,10036,1,2,0:2:0:0:
308,135,10108,2,0,L|368:153,1,59.9999981689454,2|0,0:2|0:0,0:0:0:0:
434,67,10322,2,0,L|374:85,1,59.9999981689454,2|0,3:2|0:0,0:0:0:0:
312,0,10536,2,0,L|372:18,1,59.9999981689454,2|0,0:2|0:0,0:0:0:0:
482,176,10751,2,0,P|495:143|488:113,1,59.9999981689454,2|0,3:2|0:0,0:0:0:0:
434,67,10965,1,0,0:0:0:0:
417,135,11108,2,0,B|379:202|458:236|415:301,1,159.999995117188,2|0,0:2|0:0,0:0:0:0:
257,329,11609,5,0,3:2:0:0:
204,249,11752,1,2,0:2:0:0:
204,249,11824,2,0,B|173:233|173:233|144:231,1,59.9999981689454,2|0,0:2|0:0,0:0:0:0:
78,317,12038,2,0,L|138:299,1,59.9999981689454,2|0,3:2|0:0,0:0:0:0:
200,384,12252,2,0,L|140:366,1,59.9999981689454,2|0,0:2|0:0,0:0:0:0:
30,208,12467,2,0,P|17:241|24:271,1,59.9999981689454,2|0,3:2|0:0,0:0:0:0:
78,317,12681,1,0,0:0:0:0:
95,249,12824,2,0,B|133:182|54:148|97:83,1,159.999995117188,2|0,0:2|0:0,0:0:0:0:
257,55,13325,5,0,3:2:0:0:
308,135,13468,1,2,0:2:0:0:
308,135,13539,2,0,L|248:153,1,59.9999981689454,2|0,0:2|0:0,0:0:0:0:
204,210,13754,2,0,L|264:228,1,59.9999981689454,2|0,3:2|0:0,0:0:0:0:
308,289,13968,2,0,L|248:307,1,59.9999981689454,2|0,0:2|0:0,0:0:0:0:
189,380,14183,2,0,B|256:342|290:421|355:378,1,159.999995117188,2|0,3:2|0:0,0:0:0:0:
373,317,14540,5,2,0:2:0:0:
260,185,14755,1,2,0:2:0:0:
256,192,14826,1,2,0:2:0:0:
169,322,15041,5,2,3:2:0:0:
169,322,15256,1,0,0:0:0:0:
395,156,15470,1,0,3:2:0:0:
395,156,15685,1,0,0:0:0:0:
115,158,15899,1,0,3:2:0:0:
115,158,16114,1,0,0:0:0:0:
342,322,16328,1,0,3:2:0:0:
342,322,16543,1,0,0:0:0:0:
257,55,16757,5,0,3:2:0:0:
204,135,16900,1,2,0:2:0:0:
204,135,16972,2,0,L|144:153,1,59.9999981689454,2|0,0:2|0:0,0:0:0:0:
43,65,17186,2,0,L|88:107,1,59.9999981689454,2|0,3:2|0:0,0:0:0:0:
63,240,17400,2,0,L|77:179,1,59.9999981689454,2|0,0:2|0:0,0:0:0:0:
121,276,17614,2,0,P|101:298|73:308,1,59.9999981689454,2|0,3:2|0:0,0:0:0:0:
0,289,17829,1,0,0:0:0:0:
37,368,17972,2,0,B|104:406|138:327|203:370,1,159.999995117188,2|0,0:2|0:0,0:0:0:0:
255,329,18472,5,0,3:2:0:0:
308,249,18615,1,2,0:2:0:0:
308,249,18687,2,0,L|368:231,1,59.9999981689454,2|0,0:2|0:0,0:0:0:0:
467,313,18901,2,0,B|438:302|438:302|422:271,1,59.9999981689454,2|0,3:2|0:0,0:0:0:0:
449,144,19115,2,0,L|435:205,1,59.9999981689454,2|0,0:2|0:0,0:0:0:0:
391,108,19330,2,0,P|411:86|439:76,1,59.9999981689454,2|0,3:2|0:0,0:0:0:0:
512,95,19544,1,0,0:0:0:0:
475,16,19688,2,0,B|408:-22|374:57|309:14,1,159.999995117188,2|0,0:2|0:0,0:0:0:0:
255,55,20188,5,0,3:2:0:0:
204,135,20331,1,2,0:2:0:0:
204,135,20402,2,0,L|264:153,1,59.9999981689454,2|0,0:2|0:0,0:0:0:0:
308,210,20617,2,0,L|248:228,1,59.9999981689454,2|0,3:2|0:0,0:0:0:0:
204,289,20831,2,0,L|264:307,1,59.9999981689454,2|0,0:2|0:0,0:0:0:0:
323,380,21046,2,0,B|256:342|222:421|157:378,1,159.999995117188,2|0,3:2|0:0,0:0:0:0:
139,317,21403,5,2,0:2:0:0:
252,185,21618,1,2,0:2:0:0:
256,192,21689,1,2,0:2:0:0:
343,322,21904,5,2,3:2:0:0:
343,322,22119,1,0,3:2:0:0:
117,156,22333,1,0,3:2:0:0:
117,156,22548,1,0,3:2:0:0:
397,158,22762,1,0,3:2:0:0:
397,158,22977,1,0,3:2:0:0:
170,322,23191,1,0,3:2:0:0:
170,322,23406,1,0,3:2:0:0:
257,55,23620,5,0,3:2:0:0:
257,55,23835,2,0,B|309:84|371:56|371:56|437:24|488:74,1,239.999992675781,2|2,0:2|0:2,0:0:0:0:
461,162,24335,1,2,0:2:0:0:
461,162,24406,1,2,0:2:0:0:
461,162,24478,2,0,P|379:120|441:89,1,199.999993896485,2|0,3:2|0:0,0:0:0:0:
512,68,24907,2,0,P|483:40|334:65,1,199.999993896485,2|0,3:2|0:0,0:0:0:0:
257,55,25336,5,2,3:2:0:0:
257,55,25550,1,0,3:2:0:0:
170,322,25764,1,0,3:2:0:0:
170,322,25979,1,0,3:2:0:0:
397,158,26193,1,0,3:2:0:0:
397,158,26408,1,0,3:2:0:0:
117,156,26622,1,0,3:2:0:0:
117,156,26837,1,0,3:2:0:0:
255,55,27052,5,0,3:2:0:0:
255,55,27267,2,0,B|203:84|141:56|141:56|75:24|24:74,1,239.999992675781,2|2,0:2|0:2,0:0:0:0:
51,162,27767,1,2,0:2:0:0:
51,162,27838,1,2,0:2:0:0:
51,162,27910,2,0,P|133:120|71:89,1,199.999993896485,2|0,3:2|0:0,0:0:0:0:
0,68,28339,2,0,P|29:40|178:65,1,199.999993896485,2|0,3:2|0:0,0:0:0:0:
255,55,28768,5,2,3:2:0:0:
255,55,28982,1,0,3:2:0:0:
342,322,29196,1,0,3:2:0:0:
342,322,29411,1,0,3:2:0:0:
184,192,29625,1,2,3:2:0:0:
184,192,29840,1,0,3:2:0:0:
394,190,30054,1,0,3:2:0:0:
394,190,30269,1,0,3:2:0:0:
255,55,30484,5,0,3:2:0:0:
255,55,30698,2,0,B|226:107|254:169|254:169|286:235|236:286,1,239.999992675781,2|2,0:2|0:2,0:0:0:0:
157,251,31199,1,2,0:2:0:0:
157,251,31270,1,2,0:2:0:0:
157,251,31342,2,0,P|239:209|177:178,1,199.999993896485,2|0,3:2|0:0,0:0:0:0:
211,333,31770,2,0,P|263:314|308:205,1,179.999994506836,2|0,3:2|0:0,0:0:0:0:
255,55,32199,5,2,3:2:0:0:
255,55,32414,1,2,3:2:0:0:
173,248,32628,1,2,3:2:0:0:
173,248,32843,1,2,3:2:0:0:
274,184,33057,1,2,3:2:0:0:
274,184,33272,1,2,3:2:0:0:
197,154,33486,1,2,3:2:0:0:
197,154,33701,1,2,3:2:0:0:
255,329,33915,5,2,3:2:0:0:
255,329,34130,2,0,B|284:277|256:215|256:215|224:149|274:98,1,239.999992675781,2|2,0:2|0:2,0:0:0:0:
353,133,34631,1,2,0:2:0:0:
353,133,34702,1,2,0:2:0:0:
353,133,34774,2,0,P|271:175|333:206,1,199.999993896485,2|0,3:2|0:0,0:0:0:0:
299,51,35202,2,0,P|247:70|202:179,1,179.999994506836,2|0,3:2|0:0,0:0:0:0:
342,322,35631,5,2,3:2:0:0:
342,322,35846,1,2,3:2:0:0:
115,158,36060,1,2,3:2:0:0:
115,158,36275,1,2,3:2:0:0:
420,148,36489,1,2,3:2:0:0:
420,148,36704,1,2,3:2:0:0:
129,358,36918,1,2,3:2:0:0:
129,358,37133,1,2,3:2:0:0:
257,55,37347,5,0,3:2:0:0:
308,135,37490,1,2,0:2:0:0:
308,135,37562,2,0,B|337:148|337:148|368:153,1,59.9999981689454,2|0,0:2|0:0,0:0:0:0:
380,41,37776,2,0,L|409:96,1,59.9999981689454,2|0,3:2|0:0,0:0:0:0:
497,25,37991,2,0,L|479:85,1,59.9999981689454,2|0,0:2|0:0,0:0:0:0:
474,212,38205,2,0,P|452:192|442:164,1,59.9999981689454,2|0,3:2|0:0,0:0:0:0:
512,152,38420,1,0,0:0:0:0:
512,268,38562,2,0,B|445:306|411:227|346:270,1,159.999995117188,2|0,0:2|0:0,0:0:0:0:
255,329,39063,5,0,3:2:0:0:
204,249,39206,1,2,0:2:0:0:
204,249,39278,2,0,L|144:231,1,59.9999981689454,2|0,0:2|0:0,0:0:0:0:
131,342,39492,2,0,B|105:312|105:312|101:286,1,59.9999981689454,2|0,3:2|0:0,0:0:0:0:
15,359,39707,2,0,L|33:299,1,59.9999981689454,2|0,0:2|0:0,0:0:0:0:
38,172,39921,2,0,P|60:192|70:220,1,59.9999981689454,2|0,3:2|0:0,0:0:0:0:
0,232,40136,1,0,0:0:0:0:
0,116,40278,2,0,B|67:78|101:157|166:114,1,159.999995117188,2|0,0:2|0:0,0:0:0:0:
255,55,40779,5,0,3:2:0:0:
308,135,40922,1,2,0:2:0:0:
308,135,40993,2,0,L|290:195,1,59.9999981689454,2|0,0:2|0:0,0:0:0:0:
209,211,41208,2,0,L|227:271,1,59.9999981689454,2|0,3:2|0:0,0:0:0:0:
306,302,41422,2,0,L|288:362,1,59.9999981689454,2|0,0:2|0:0,0:0:0:0:
156,338,41637,2,0,B|194:271|115:237|158:172,1,159.999995117188,2|0,3:2|0:0,0:0:0:0:
212,115,41994,5,2,0:2:0:0:
330,211,42209,1,2,0:2:0:0:
334,205,42280,1,2,0:2:0:0:
257,55,42495,5,2,3:2:0:0:
257,55,42709,1,0,3:0:0:0:
170,322,42923,1,0,3:0:0:0:
170,322,43138,1,0,3:0:0:0:
397,158,43352,1,0,3:0:0:0:
397,158,43567,1,0,3:0:0:0:
117,156,43781,1,0,3:0:0:0:
117,156,43996,1,0,3:0:0:0:
342,322,44211,1,0,3:0:0:0:
419,351,44425,6,0,L|481:336,1,59.9999981689454,2|0,0:2|0:0,0:0:0:0:
367,303,44640,2,0,L|413:259,1,59.9999981689454,2|0,3:2|0:0,0:0:0:0:
297,287,44854,2,0,L|315:225,1,59.9999981689454,2|0,0:2|0:0,0:0:0:0:
228,308,45069,2,0,B|134:351|140:265|51:299,1,179.999994506836,2|0,3:2|0:0,0:0:0:0:
28,364,45498,2,0,P|57:364|86:356,1,59.9999981689454,2|0,3:2|0:0,0:0:0:0:
133,233,45712,2,0,P|97:225|59:229,1,59.9999981689454,2|0,0:2|0:0,0:0:0:0:
50,363,45926,6,0,B|87:377|124:372|144:361|144:361|170:350|195:349|215:353|231:361|231:361|249:370|274:373|312:375|341:358|341:358|360:348|388:343|410:345|432:354|459:370,1,419.999987182618,2|0,3:2|0:0,0:0:0:0:
456,368,46784,6,0,B|432:354|410:345|388:343|360:348|341:358|341:358|312:375|275:373|250:370|231:361|231:361|215:353|196:349|171:350|145:361|145:361|125:372|87:377|50:363,1,419.999987182618,2|0,3:2|0:0,0:0:0:0:
0,305,47642,1,0,3:2:0:0:
71,246,47857,6,0,L|133:231,1,59.9999981689454,2|0,0:2|0:0,0:0:0:0:
217,220,48071,2,0,L|198:281,1,59.9999981689454,2|0,3:2|0:0,0:0:0:0:
160,350,48286,2,0,L|116:303,1,59.9999981689454,2|0,0:2|0:0,0:0:0:0:
71,246,48500,2,0,B|165:203|159:289|248:255,1,179.999994506836,2|0,3:2|0:0,0:0:0:0:
356,224,48929,2,0,P|385:231|410:246,1,59.9999981689454,2|0,3:2|0:0,0:0:0:0:
317,357,49144,2,0,P|308:328|308:298,1,59.9999981689454,2|0,0:2|0:0,0:0:0:0:
205,223,49358,2,0,B|219:241|225:273|223:318|203:354|162:370|109:373|83:367|55:348|55:348|91:309|137:280|176:301|214:310|250:333|250:333|293:363|357:364|397:343|413:318,1,659.999979858399,2|0,3:2|0:0,0:0:0:0:
453,244,50645,5,0,3:2:0:0:
384,210,50860,1,0,3:2:0:0:
342,62,51074,1,0,3:2:0:0:
419,33,51289,6,0,L|481:48,1,59.9999981689454,2|0,0:2|0:0,0:0:0:0:
367,81,51504,2,0,L|413:125,1,59.9999981689454,2|0,3:2|0:0,0:0:0:0:
297,97,51718,2,0,L|315:159,1,59.9999981689454,2|0,0:2|0:0,0:0:0:0:
228,76,51933,2,0,B|134:33|140:119|51:85,1,179.999994506836,2|0,3:2|0:0,0:0:0:0:
28,20,52362,2,0,P|57:20|86:28,1,59.9999981689454,2|0,3:2|0:0,0:0:0:0:
133,151,52576,2,0,P|97:159|59:155,1,59.9999981689454,2|0,0:2|0:0,0:0:0:0:
50,21,52790,6,0,B|87:7|124:12|144:23|144:23|170:34|195:35|215:31|231:23|231:23|249:14|274:11|312:9|341:26|341:26|360:36|388:41|410:39|432:30|459:14,1,419.999987182618,2|0,3:2|0:0,0:0:0:0:
456,16,53648,6,0,B|432:30|410:39|388:41|360:36|341:26|341:26|312:9|275:11|250:14|231:23|231:23|215:31|196:35|171:34|145:23|145:23|125:12|87:7|50:21,1,419.999987182618,2|0,3:2|0:0,0:0:0:0:
0,79,54506,1,0,3:2:0:0:
71,138,54721,6,0,L|133:153,1,59.9999981689454,2|0,0:2|0:0,0:0:0:0:
217,164,54935,2,0,L|198:102,1,59.9999981689454,2|0,3:2|0:0,0:0:0:0:
160,34,55150,2,0,L|116:80,1,59.9999981689454,2|0,0:2|0:0,0:0:0:0:
71,138,55364,2,0,B|165:181|159:95|248:129,1,179.999994506836,2|0,3:2|0:0,0:0:0:0:
356,160,55793,2,0,P|385:152|410:137,1,59.9999981689454,2|0,3:2|0:0,0:0:0:0:
317,27,56008,2,0,P|308:55|308:85,1,59.9999981689454,2|0,0:2|0:0,0:0:0:0:
205,161,56222,2,0,B|219:143|225:111|223:66|203:30|162:14|109:11|83:17|55:36|55:36|91:75|137:104|176:83|214:74|250:51|250:51|293:21|357:20|397:41|413:66,1,659.999979858399,2|0,3:2|0:0,0:0:0:0:
426,144,57509,5,0,3:2:0:0:
384,292,57723,1,0,3:0:0:0:
315,326,57938,1,0,3:2:0:0:
241,315,58152,6,0,L|232:252,1,59.9999981689454,2|0,0:2|0:0,0:0:0:0:
144,353,58367,2,0,L|167:293,1,59.9999981689454,2|0,3:2|0:0,0:0:0:0:
41,335,58581,2,0,L|91:295,1,59.9999981689454,2|0,0:2|0:0,0:0:0:0:
225,241,58796,2,0,B|131:284|137:198|48:232,1,179.999994506836,2|0,3:2|0:0,0:0:0:0:
3,351,59225,2,0,P|39:359|77:355,1,59.9999981689454,2|0,3:2|0:0,0:0:0:0:
178,188,59439,2,0,P|213:176|251:177,1,59.9999981689454,2|0,0:2|0:0,0:0:0:0:
413,328,59654,2,0,B|442:267|420:187|293:187|250:251|274:334|349:359|349:359|341:322|357:283,1,419.999987182618,2|0,3:2|0:0,0:0:0:0:
412,169,60511,2,0,P|446:190|476:341,1,199.999993896485,2|0,3:2|0:0,0:0:0:0:
438,370,60940,2,0,P|467:317|420:204,1,179.999994506836,0|0,3:2|0:0,0:0:0:0:
309,144,61369,5,0,3:2:0:0:
280,75,61584,6,0,L|289:12,1,59.9999981689454,2|0,0:2|0:0,0:0:0:0:
377,113,61799,2,0,L|354:53,1,59.9999981689454,2|0,3:2|0:0,0:0:0:0:
480,95,62013,2,0,L|430:55,1,59.9999981689454,2|0,0:2|0:0,0:0:0:0:
309,144,62227,2,0,B|207:161|235:79|140:89,1,179.999994506836,2|0,3:2|0:0,0:0:0:0:
42,146,62656,2,0,P|77:158|115:157,1,59.9999981689454,2|0,3:2|0:0,0:0:0:0:
221,36,62871,2,0,P|186:24|151:23,1,59.9999981689454,2|0,0:2|0:0,0:0:0:0:
0,152,63085,2,0,B|100:241|188:154|188:154|285:69|375:164,1,419.999987182618,2|0,3:2|0:0,0:0:0:0:
200,258,63943,2,0,P|209:167|298:306,1,419.999987182618,2|0,3:2|0:0,0:0:0:0:
255,329,64801,5,0,3:2:0:0:
204,249,64944,1,2,0:2:0:0:
204,249,65016,2,0,B|175:236|175:236|144:231,1,59.9999981689454,2|0,0:2|0:0,0:0:0:0:
132,343,65230,2,0,L|103:288,1,59.9999981689454,2|0,3:2|0:0,0:0:0:0:
15,359,65445,2,0,L|33:299,1,59.9999981689454,2|0,0:2|0:0,0:0:0:0:
38,172,65659,2,0,P|60:192|70:220,1,59.9999981689454,2|0,3:2|0:0,0:0:0:0:
0,232,65874,1,0,0:0:0:0:
0,116,66018,2,0,B|67:78|101:157|166:114,1,159.999995117188,2|0,0:2|0:0,0:0:0:0:
257,55,66517,5,0,3:2:0:0:
308,135,66660,1,2,0:2:0:0:
308,135,66732,2,0,L|368:153,1,59.9999981689454,2|0,0:2|0:0,0:0:0:0:
381,42,66946,2,0,B|407:72|407:72|411:98,1,59.9999981689454,2|0,3:2|0:0,0:0:0:0:
497,25,67161,2,0,L|479:85,1,59.9999981689454,2|0,0:2|0:0,0:0:0:0:
474,212,67375,2,0,P|452:192|442:164,1,59.9999981689454,2|0,3:2|0:0,0:0:0:0:
512,152,67590,1,0,0:0:0:0:
512,268,67732,2,0,B|445:306|411:227|346:270,1,159.999995117188,2|0,0:2|0:0,0:0:0:0:
257,329,68233,5,0,3:2:0:0:
204,249,68376,1,2,0:2:0:0:
204,249,68447,2,0,L|222:189,1,59.9999981689454,2|0,0:2|0:0,0:0:0:0:
303,173,68662,2,0,L|285:113,1,59.9999981689454,2|0,3:2|0:0,0:0:0:0:
206,82,68876,2,0,L|224:22,1,59.9999981689454,2|0,0:2|0:0,0:0:0:0:
356,46,69091,2,0,B|318:113|397:147|354:212,1,159.999995117188,2|0,3:2|0:0,0:0:0:0:
299,268,69448,5,2,0:2:0:0:
182,173,69663,1,2,0:2:0:0:
178,179,69734,1,2,0:2:0:0:
256,368,69949,6,0,L|176:352,1,79.9999975585938,0|0,3:0|3:0,0:0:0:0:
166,364,70163,1,0,3:0:0:0:
256,288,70306,1,0,3:0:0:0:
256,288,70378,2,0,L|336:272,1,79.9999975585938,0|0,3:0|3:0,0:0:0:0:
346,284,70592,1,0,3:0:0:0:
219,212,70735,1,0,3:0:0:0:
219,212,70807,6,0,L|167:195,2,39.9999987792969,0|0|0,3:2|3:2|3:2,0:0:0:0:
255,156,71021,2,0,L|216:143,2,39.9999987792969,0|0|0,3:2|3:2|3:2,0:0:0:0:
335,139,71236,6,0,L|386:128,2,50.0000019073487,0|0|0,3:2|3:2|3:2,0:0:0:0:
317,75,71450,2,0,L|365:64,2,50.0000019073487,0|0|0,3:2|3:2|3:2,0:0:0:0:
255,55,71665,5,2,3:2:0:0:
255,55,71879,1,0,0:0:0:0:
342,322,72093,1,0,3:2:0:0:
342,322,72308,1,0,0:0:0:0:
115,158,72522,1,0,3:2:0:0:
115,158,72737,1,0,0:0:0:0:
395,156,72951,1,0,3:2:0:0:
395,156,73166,1,0,0:0:0:0:
169,322,73380,5,2,3:2:0:0:
169,322,73595,1,0,0:0:0:0:
395,156,73809,1,0,3:2:0:0:
395,156,74024,1,0,0:0:0:0:
115,158,74238,1,0,3:2:0:0:
115,158,74453,1,0,0:0:0:0:
342,322,74667,1,0,3:2:0:0:
342,322,74882,1,0,0:0:0:0:
255,55,75096,5,2,3:2:0:0:
255,55,75311,2,0,B|307:84|369:56|369:56|435:24|486:74,1,239.999992675781,2|2,0:2|0:2,0:0:0:0:
477,140,75811,1,2,0:2:0:0:
477,140,75883,1,2,0:2:0:0:
477,140,75954,2,0,P|450:134|421:101,1,59.9999981689454,2|0,3:2|0:0,0:0:0:0:
355,62,76169,2,0,P|363:88|349:129,1,59.9999981689454,2|0,0:2|0:0,0:0:0:0:
243,207,76383,2,0,P|263:192|303:186,1,59.9999981689454,2|0,3:2|0:0,0:0:0:0:
430,260,76598,2,0,P|410:275|370:281,1,59.9999981689454,2|0,0:2|0:0,0:0:0:0:
253,237,76812,6,0,L|277:294,1,59.9999981689454,2|0,3:2|0:0,0:0:0:0:
336,354,77027,2,0,L|360:297,1,59.9999981689454,2|0,0:2|0:0,0:0:0:0:
229,384,77241,2,0,B|193:388|159:381|137:360|120:330|120:330|99:272|27:247|-21:295|-34:361|12:405|61:406|101:386|125:365|125:346|125:346|143:317|175:291|199:271|238:278|277:294|277:294|337:318|369:293,1,719.999978027344,2|0,3:2|3:2,0:0:0:0:
184,104,78814,5,2,0:2:0:0:
184,104,78886,1,2,0:2:0:0:
184,104,78957,2,0,L|126:92,1,59.9999981689454,2|0,3:2|0:0,0:0:0:0:
26,150,79172,2,0,P|46:168|84:178,1,59.9999981689454,2|0,0:2|0:0,0:0:0:0:
192,39,79386,2,0,P|220:47|243:66,1,59.9999981689454,2|0,3:2|0:0,0:0:0:0:
306,160,79601,2,0,P|298:131|304:101,1,59.9999981689454,2|0,0:2|0:0,0:0:0:0:
455,146,79815,2,0,P|433:166|405:176,1,59.9999981689454,2|0,3:2|0:0,0:0:0:0:
461,0,80030,2,0,P|489:8|512:27,1,59.9999981689454,2|0,0:2|0:0,0:0:0:0:
492,201,80244,1,2,3:2:0:0:
448,134,80316,2,0,B|424:108|404:99|373:93|352:99|325:108|307:117|307:117|268:148|227:149|188:134|170:104|179:65|212:36|256:31|297:47|322:76|335:111|335:111|345:120|356:160|339:197|277:234|218:222|163:189|132:140|132:140|71:125|46:149|18:184|28:222,1,919.999971923829,2|0,0:2|3:2,0:0:0:0:
9,324,82174,5,2,0:2:0:0:
71,346,82282,1,2,0:2:0:0:
135,331,82389,1,2,3:2:0:0:
178,269,82603,5,2,0:2:0:0:
219,243,82711,1,2,0:2:0:0:
266,244,82818,1,2,3:2:0:0:
333,297,83032,5,0,0:0:0:0:
333,297,83104,1,2,0:0:0:0:
333,297,83175,1,2,0:0:0:0:
333,297,83247,2,0,L|452:279,1,119.999996337891
485,209,83533,5,2,0:2:0:0:
485,209,83604,1,2,0:2:0:0:
485,209,83676,2,0,P|497:153|493:84,1,119.999996337891,2|0,3:2|0:0,0:0:0:0:
426,31,83962,5,2,0:2:0:0:
426,31,84033,1,2,0:2:0:0:
426,31,84105,2,0,P|394:60|363:127,1,110.000003356934,2|0,3:2|0:0,0:0:0:0:
308,198,84391,5,2,0:2:0:0:
308,198,84462,1,2,0:2:0:0:
308,198,84534,2,0,P|280:164|280:96,1,100,2|0,3:2|0:0,0:0:0:0:
209,32,84891,6,0,L|196:73,1,33.3333333333333,2|2,0:2|3:2,0:0:0:0:
215,127,85070,2,0,B|255:29|255:29|303:142|303:142|423:149|423:149|331:230|331:230|360:347|360:347|256:286|256:286|152:348|152:348|178:232|178:232|85:151|85:151|222:139,1,1200.15000247223,2|0,0:0|3:2,0:0:0:0:
256,192,88823,5,0,3:2:0:0:
