osu file format v14

[General]
AudioFilename: audio.mp3
AudioLeadIn: 0
PreviewTime: 0
Countdown: 0
SampleSet: None
StackLeniency: 0.4
Mode: 0
LetterboxInBreaks: 0
WidescreenStoryboard: 1

[Editor]
Bookmarks: 147503
DistanceSpacing: 1.2
BeatDivisor: 4
GridSize: 8
TimelineZoom: 1

[Metadata]
Title:Delfino Plaza
TitleUnicode:Delfino Plaza
Artist:Kondo Koji
ArtistUnicode:近藤 浩治
Creator:Nitroz
Version:ar 8.5
Source:スーパーマリオサンシャイン
Tags:Super Mario Sunshine SiIvaGunner OST VGM Instrumental Video Game Nintendo
BeatmapID:3006793
BeatmapSetID:982840

[Difficulty]
HPDrainRate:6
CircleSize:3.8
OverallDifficulty:7
ApproachRate:8.5
SliderMultiplier:2
SliderTickRate:1

[Events]
//Background and Video events
0,0,"maxresdefault (6).jpg",0,0
//Break Periods
//Storyboard Layer 0 (Background)
//Storyboard Layer 1 (Fail)
//Storyboard Layer 2 (Pass)
//Storyboard Layer 3 (Foreground)
//Storyboard Layer 4 (Overlay)
//Storyboard Sound Samples

[TimingPoints]
3231,429.381118680941,4,1,0,40,1,0
148361,-250,4,1,0,70,0,0
154373,-50,4,1,0,50,0,0
155768,-100,4,1,0,40,0,0
158666,-100,4,1,0,25,0,0
161887,-100,4,1,0,55,0,0
166825,-175.438596491228,4,1,0,40,0,0
170260,-178.571428571429,4,1,0,40,0,0
173480,-75.7575757575758,4,1,0,40,0,0
182712,-75.7575757575758,4,1,0,10,0,0

[HitObjects]
64,168,225,6,0,P|128:136|208:144,1,150
224,232,654,2,0,P|200:272|184:232,1,100
464,192,1012,1,0,0:0:0:0:
296,352,1191,1,0,0:0:0:0:
352,96,1370,1,0,0:0:0:0:
464,336,1585,1,0,0:0:0:0:
256,192,1728,12,0,2908,0:0:0:0:
144,232,3231,5,0,0:0:0:0:
192,112,3445,1,0,0:0:0:0:
368,232,3660,5,0,0:0:0:0:
320,112,3874,1,0,0:0:0:0:
192,352,4089,6,0,P|144:363|96:352,1,100
320,352,4519,2,0,P|368:363|416:352,1,100
142,232,4948,5,0,0:0:0:0:
191,110,5162,1,0,0:0:0:0:
369,232,5377,5,0,0:0:0:0:
320,110,5591,1,0,0:0:0:0:
192,352,5807,6,0,P|144:363|96:352,1,100
320,352,6237,2,0,P|368:363|416:352,1,100
141,232,6666,5,0,0:0:0:0:
190,109,6880,1,0,0:0:0:0:
370,232,7095,5,0,0:0:0:0:
321,109,7309,1,0,0:0:0:0:
192,352,7524,6,0,P|144:363|96:352,1,100
320,352,7954,2,0,P|368:363|416:352,1,100
140,232,8383,5,0,0:0:0:0:
190,108,8597,1,0,0:0:0:0:
371,232,8812,5,0,0:0:0:0:
321,108,9026,1,0,0:0:0:0:
192,352,9242,6,0,P|144:363|96:352,1,100
320,352,9672,2,0,P|368:363|416:352,1,100
139,232,10101,5,0,0:0:0:0:
189,107,10315,1,0,0:0:0:0:
372,232,10530,5,0,0:0:0:0:
322,107,10744,1,0,0:0:0:0:
192,352,10959,6,0,P|144:363|96:352,1,100
320,352,11389,2,0,P|368:363|416:352,1,100
138,232,11818,5,0,0:0:0:0:
189,106,12032,1,0,0:0:0:0:
373,232,12247,5,0,0:0:0:0:
322,106,12461,1,0,0:0:0:0:
192,352,12677,6,0,P|144:363|96:352,1,100
320,352,13107,2,0,P|368:363|416:352,1,100
137,232,13536,5,0,0:0:0:0:
188,105,13750,1,0,0:0:0:0:
374,232,13965,5,0,0:0:0:0:
323,105,14179,1,0,0:0:0:0:
192,352,14394,6,0,P|144:363|96:352,1,100
320,352,14824,2,0,P|368:363|416:352,1,100
136,232,15253,5,0,0:0:0:0:
187,104,15467,1,0,0:0:0:0:
375,232,15682,5,0,0:0:0:0:
324,104,15896,1,0,0:0:0:0:
192,352,16112,6,0,P|144:363|96:352,1,100
320,352,16542,2,0,P|368:363|416:352,1,100
135,232,16971,5,0,0:0:0:0:
187,103,17185,1,0,0:0:0:0:
376,232,17400,5,0,0:0:0:0:
324,103,17614,1,0,0:0:0:0:
192,352,17829,6,0,P|144:363|96:352,1,100
320,352,18259,2,0,P|368:363|416:352,1,100
134,232,18688,5,0,0:0:0:0:
186,101,18902,1,0,0:0:0:0:
377,232,19117,5,0,0:0:0:0:
325,101,19331,1,0,0:0:0:0:
192,352,19547,6,0,P|144:363|96:352,1,100
320,352,19977,2,0,P|368:363|416:352,1,100
133,232,20406,5,0,0:0:0:0:
186,100,20620,1,0,0:0:0:0:
378,232,20835,5,0,0:0:0:0:
325,100,21049,1,0,0:0:0:0:
192,352,21264,6,0,P|144:363|96:352,1,100
320,352,21694,2,0,P|368:363|416:352,1,100
133,232,22123,5,0,0:0:0:0:
186,100,22337,1,0,0:0:0:0:
378,232,22552,5,0,0:0:0:0:
325,100,22766,1,0,0:0:0:0:
192,352,22982,6,0,P|144:363|96:352,1,100
320,352,23412,2,0,P|368:363|416:352,1,100
132,232,23841,5,0,0:0:0:0:
185,99,24055,1,0,0:0:0:0:
379,232,24270,5,0,0:0:0:0:
326,99,24484,1,0,0:0:0:0:
192,352,24699,6,0,P|144:363|96:352,1,100
320,352,25129,2,0,P|368:363|416:352,1,100
131,232,25558,5,0,0:0:0:0:
184,98,25772,1,0,0:0:0:0:
380,232,25987,5,0,0:0:0:0:
327,98,26201,1,0,0:0:0:0:
192,352,26417,6,0,P|144:363|96:352,1,100
320,352,26847,2,0,P|368:363|416:352,1,100
130,232,27276,5,0,0:0:0:0:
184,97,27490,1,0,0:0:0:0:
381,232,27705,5,0,0:0:0:0:
327,97,27919,1,0,0:0:0:0:
192,352,28134,6,0,P|144:363|96:352,1,100
320,352,28564,2,0,P|368:363|416:352,1,100
129,232,28993,5,0,0:0:0:0:
183,95,29207,1,0,0:0:0:0:
382,232,29422,5,0,0:0:0:0:
328,95,29636,1,0,0:0:0:0:
192,352,29852,6,0,P|144:363|96:352,1,100
320,352,30282,2,0,P|368:363|416:352,1,100
127,232,30711,5,0,0:0:0:0:
182,94,30925,1,0,0:0:0:0:
384,232,31140,5,0,0:0:0:0:
329,94,31354,1,0,0:0:0:0:
192,352,31569,6,0,P|144:363|96:352,1,100
320,352,31999,2,0,P|368:363|416:352,1,100
126,232,32428,5,0,0:0:0:0:
182,93,32642,1,0,0:0:0:0:
385,232,32857,5,0,0:0:0:0:
329,93,33071,1,0,0:0:0:0:
192,352,33287,6,0,P|144:363|96:352,1,100
320,352,33717,2,0,P|368:363|416:352,1,100
125,232,34146,5,0,0:0:0:0:
181,92,34360,1,0,0:0:0:0:
386,232,34575,5,0,0:0:0:0:
330,92,34789,1,0,0:0:0:0:
192,352,35004,6,0,P|144:363|96:352,1,100
320,352,35434,2,0,P|368:363|416:352,1,100
124,232,35863,5,0,0:0:0:0:
180,90,36077,1,0,0:0:0:0:
387,232,36292,5,0,0:0:0:0:
331,90,36506,1,0,0:0:0:0:
192,352,36722,6,0,P|144:363|96:352,1,100
320,352,37152,2,0,P|368:363|416:352,1,100
123,232,37581,5,0,0:0:0:0:
180,89,37795,1,0,0:0:0:0:
388,232,38010,5,0,0:0:0:0:
331,89,38224,1,0,0:0:0:0:
192,352,38439,6,0,P|144:363|96:352,1,100
320,352,38869,2,0,P|368:363|416:352,1,100
123,232,39299,5,0,0:0:0:0:
180,89,39513,1,0,0:0:0:0:
388,232,39728,5,0,0:0:0:0:
331,89,39942,1,0,0:0:0:0:
192,352,40157,6,0,P|144:363|96:352,1,100
320,352,40587,2,0,P|368:363|416:352,1,100
122,232,41016,5,0,0:0:0:0:
179,88,41230,1,0,0:0:0:0:
389,232,41445,5,0,0:0:0:0:
332,88,41659,1,0,0:0:0:0:
192,352,41874,6,0,P|144:363|96:352,1,100
320,352,42304,2,0,P|368:363|416:352,1,100
120,232,42734,5,0,0:0:0:0:
178,87,42948,1,0,0:0:0:0:
391,232,43163,5,0,0:0:0:0:
333,87,43377,1,0,0:0:0:0:
192,352,43592,6,0,P|144:363|96:352,1,100
320,352,44022,2,0,P|368:363|416:352,1,100
119,232,44451,5,0,0:0:0:0:
178,85,44665,1,0,0:0:0:0:
392,232,44880,5,0,0:0:0:0:
333,85,45094,1,0,0:0:0:0:
192,352,45309,6,0,P|144:363|96:352,1,100
320,352,45739,2,0,P|368:363|416:352,1,100
118,232,46169,5,0,0:0:0:0:
177,84,46383,1,0,0:0:0:0:
393,232,46598,5,0,0:0:0:0:
334,84,46812,1,0,0:0:0:0:
192,352,47027,6,0,P|144:363|96:352,1,100
320,352,47457,2,0,P|368:363|416:352,1,100
117,232,47886,5,0,0:0:0:0:
176,83,48100,1,0,0:0:0:0:
394,232,48315,5,0,0:0:0:0:
335,83,48529,1,0,0:0:0:0:
192,352,48744,6,0,P|144:363|96:352,1,100
320,352,49174,2,0,P|368:363|416:352,1,100
115,232,49604,5,0,0:0:0:0:
175,81,49818,1,0,0:0:0:0:
396,232,50033,5,0,0:0:0:0:
336,81,50247,1,0,0:0:0:0:
192,352,50462,6,0,P|144:363|96:352,1,100
320,352,50892,2,0,P|368:363|416:352,1,100
114,232,51321,5,0,0:0:0:0:
175,80,51535,1,0,0:0:0:0:
397,232,51750,5,0,0:0:0:0:
336,80,51964,1,0,0:0:0:0:
192,352,52179,6,0,P|144:363|96:352,1,100
320,352,52609,2,0,P|368:363|416:352,1,100
113,232,53039,5,0,0:0:0:0:
174,79,53253,1,0,0:0:0:0:
398,232,53468,5,0,0:0:0:0:
337,79,53682,1,0,0:0:0:0:
192,352,53897,6,0,P|144:363|96:352,1,100
320,352,54327,2,0,P|368:363|416:352,1,100
112,232,54756,5,0,0:0:0:0:
173,77,54970,1,0,0:0:0:0:
399,232,55185,5,0,0:0:0:0:
338,77,55399,1,0,0:0:0:0:
192,352,55614,6,0,P|144:363|96:352,1,100
320,352,56044,2,0,P|368:363|416:352,1,100
110,232,56474,5,0,0:0:0:0:
173,76,56688,1,0,0:0:0:0:
401,232,56903,5,0,0:0:0:0:
338,76,57117,1,0,0:0:0:0:
192,352,57332,6,0,P|144:363|96:352,1,100
320,352,57762,2,0,P|368:363|416:352,1,100
109,232,58191,5,0,0:0:0:0:
172,74,58405,1,0,0:0:0:0:
402,232,58620,5,0,0:0:0:0:
339,74,58834,1,0,0:0:0:0:
192,352,59049,6,0,P|144:363|96:352,1,100
320,352,59479,2,0,P|368:363|416:352,1,100
108,232,59909,5,0,0:0:0:0:
171,73,60123,1,0,0:0:0:0:
403,232,60338,5,0,0:0:0:0:
340,73,60552,1,0,0:0:0:0:
192,352,60768,6,0,P|144:363|96:352,1,100
320,352,61198,2,0,P|368:363|416:352,1,100
106,232,61626,5,0,0:0:0:0:
170,72,61840,1,0,0:0:0:0:
405,232,62055,5,0,0:0:0:0:
341,72,62269,1,0,0:0:0:0:
192,352,62485,6,0,P|144:363|96:352,1,100
320,352,62915,2,0,P|368:363|416:352,1,100
105,232,63344,5,0,0:0:0:0:
169,70,63558,1,0,0:0:0:0:
406,232,63773,5,0,0:0:0:0:
342,70,63987,1,0,0:0:0:0:
192,352,64203,6,0,P|144:363|96:352,1,100
320,352,64633,2,0,P|368:363|416:352,1,100
104,232,65061,5,0,0:0:0:0:
169,69,65275,1,0,0:0:0:0:
407,232,65490,5,0,0:0:0:0:
342,69,65704,1,0,0:0:0:0:
192,352,65920,6,0,P|144:363|96:352,1,100
320,352,66350,2,0,P|368:363|416:352,1,100
102,232,66779,5,0,0:0:0:0:
168,67,66993,1,0,0:0:0:0:
409,232,67208,5,0,0:0:0:0:
343,67,67422,1,0,0:0:0:0:
192,352,67638,6,0,P|144:363|96:352,1,100
320,352,68068,2,0,P|368:363|416:352,1,100
101,232,68496,5,0,0:0:0:0:
167,66,68710,1,0,0:0:0:0:
410,232,68925,5,0,0:0:0:0:
344,66,69139,1,0,0:0:0:0:
192,352,69355,6,0,P|144:363|96:352,1,100
320,352,69785,2,0,P|368:363|416:352,1,100
99,232,70214,5,0,0:0:0:0:
166,64,70428,1,0,0:0:0:0:
412,232,70643,5,0,0:0:0:0:
345,64,70857,1,0,0:0:0:0:
192,352,71073,6,0,P|144:363|96:352,1,100
320,352,71503,2,0,P|368:363|416:352,1,100
98,232,71931,5,0,0:0:0:0:
166,63,72145,1,0,0:0:0:0:
413,232,72360,5,0,0:0:0:0:
345,63,72574,1,0,0:0:0:0:
192,352,72790,6,0,P|144:363|96:352,1,100
320,352,73220,2,0,P|368:363|416:352,1,100
97,232,73649,5,0,0:0:0:0:
165,61,73863,1,0,0:0:0:0:
414,232,74078,5,0,0:0:0:0:
346,61,74292,1,0,0:0:0:0:
192,352,74508,6,0,P|144:363|96:352,1,100
320,352,74938,2,0,P|368:363|416:352,1,100
95,232,75367,5,0,0:0:0:0:
164,60,75581,1,0,0:0:0:0:
416,232,75796,5,0,0:0:0:0:
347,60,76010,1,0,0:0:0:0:
192,352,76225,6,0,P|144:363|96:352,1,100
320,352,76655,2,0,P|368:363|416:352,1,100
94,232,77084,5,0,0:0:0:0:
163,58,77298,1,0,0:0:0:0:
417,232,77513,5,0,0:0:0:0:
348,58,77727,1,0,0:0:0:0:
192,352,77943,6,0,P|144:363|96:352,1,100
320,352,78373,2,0,P|368:363|416:352,1,100
92,232,78802,5,0,0:0:0:0:
162,57,79016,1,0,0:0:0:0:
419,232,79231,5,0,0:0:0:0:
349,57,79445,1,0,0:0:0:0:
192,352,79660,6,0,P|144:363|96:352,1,100
320,352,80090,2,0,P|368:363|416:352,1,100
91,232,80519,5,0,0:0:0:0:
161,55,80733,1,0,0:0:0:0:
420,232,80948,5,0,0:0:0:0:
350,55,81162,1,0,0:0:0:0:
192,352,81378,6,0,P|144:363|96:352,1,100
320,352,81808,2,0,P|368:363|416:352,1,100
89,232,82237,5,0,0:0:0:0:
161,54,82451,1,0,0:0:0:0:
422,232,82666,5,0,0:0:0:0:
350,54,82880,1,0,0:0:0:0:
192,352,83095,6,0,P|144:363|96:352,1,100
320,352,83525,2,0,P|368:363|416:352,1,100
88,232,83954,5,0,0:0:0:0:
160,52,84168,1,0,0:0:0:0:
423,232,84383,5,0,0:0:0:0:
351,52,84597,1,0,0:0:0:0:
192,352,84813,6,0,P|144:363|96:352,1,100
320,352,85243,2,0,P|368:363|416:352,1,100
86,232,85672,5,0,0:0:0:0:
159,50,85886,1,0,0:0:0:0:
425,232,86101,5,0,0:0:0:0:
352,50,86315,1,0,0:0:0:0:
192,352,86530,6,0,P|144:363|96:352,1,100
320,352,86960,2,0,P|368:363|416:352,1,100
85,232,87389,5,0,0:0:0:0:
158,49,87603,1,0,0:0:0:0:
426,232,87818,5,0,0:0:0:0:
353,49,88032,1,0,0:0:0:0:
192,352,88248,6,0,P|144:363|96:352,1,100
320,352,88678,2,0,P|368:363|416:352,1,100
83,232,89107,5,0,0:0:0:0:
157,47,89321,1,0,0:0:0:0:
428,232,89536,5,0,0:0:0:0:
354,47,89750,1,0,0:0:0:0:
192,352,89965,6,0,P|144:363|96:352,1,100
320,352,90395,2,0,P|368:363|416:352,1,100
82,232,90824,5,0,0:0:0:0:
156,45,91038,1,0,0:0:0:0:
429,232,91253,5,0,0:0:0:0:
355,45,91467,1,0,0:0:0:0:
192,352,91683,6,0,P|144:363|96:352,1,100
320,352,92113,2,0,P|368:363|416:352,1,100
80,232,92542,5,0,0:0:0:0:
155,44,92756,1,0,0:0:0:0:
431,232,92971,5,0,0:0:0:0:
356,44,93185,1,0,0:0:0:0:
192,352,93400,6,0,P|144:363|96:352,1,100
320,352,93830,2,0,P|368:363|416:352,1,100
79,232,94259,5,0,0:0:0:0:
154,42,94473,1,0,0:0:0:0:
432,232,94688,5,0,0:0:0:0:
357,42,94902,1,0,0:0:0:0:
192,352,95118,6,0,P|144:363|96:352,1,100
320,352,95548,2,0,P|368:363|416:352,1,100
77,232,95977,5,0,0:0:0:0:
154,40,96191,1,0,0:0:0:0:
434,232,96406,5,0,0:0:0:0:
357,40,96620,1,0,0:0:0:0:
192,352,96835,6,0,P|144:363|96:352,1,100
320,352,97265,2,0,P|368:363|416:352,1,100
76,232,97694,5,0,0:0:0:0:
153,40,97908,1,0,0:0:0:0:
435,232,98123,5,0,0:0:0:0:
358,40,98337,1,0,0:0:0:0:
192,352,98553,6,0,P|144:363|96:352,1,100
320,352,98983,2,0,P|368:363|416:352,1,100
76,232,99412,5,0,0:0:0:0:
153,40,99626,1,0,0:0:0:0:
435,232,99841,5,0,0:0:0:0:
358,40,100055,1,0,0:0:0:0:
192,352,100270,6,0,P|144:363|96:352,1,100
320,352,100700,2,0,P|368:363|416:352,1,100
76,232,101129,5,0,0:0:0:0:
153,40,101343,1,0,0:0:0:0:
435,232,101558,5,0,0:0:0:0:
358,40,101772,1,0,0:0:0:0:
192,352,101988,6,0,P|144:363|96:352,1,100
320,352,102418,2,0,P|368:363|416:352,1,100
74,232,102847,5,0,0:0:0:0:
152,38,103061,1,0,0:0:0:0:
436,232,103276,5,0,0:0:0:0:
358,38,103490,1,0,0:0:0:0:
192,352,103705,6,0,P|144:363|96:352,1,100
320,352,104135,2,0,P|368:363|416:352,1,100
72,232,104564,5,0,0:0:0:0:
151,37,104778,1,0,0:0:0:0:
438,232,104993,5,0,0:0:0:0:
359,37,105207,1,0,0:0:0:0:
192,352,105423,6,0,P|144:363|96:352,1,100
320,352,105853,2,0,P|368:363|416:352,1,100
71,233,106282,5,0,0:0:0:0:
150,35,106496,1,0,0:0:0:0:
439,233,106711,5,0,0:0:0:0:
360,35,106925,1,0,0:0:0:0:
192,352,107140,6,0,P|144:363|96:352,1,100
320,352,107570,2,0,P|368:363|416:352,1,100
69,233,107999,5,0,0:0:0:0:
149,34,108213,1,0,0:0:0:0:
441,233,108428,5,0,0:0:0:0:
361,34,108642,1,0,0:0:0:0:
192,352,108858,6,0,P|144:363|96:352,1,100
320,352,109288,2,0,P|368:363|416:352,1,100
67,233,109717,5,0,0:0:0:0:
148,33,109931,1,0,0:0:0:0:
443,233,110146,5,0,0:0:0:0:
362,33,110360,1,0,0:0:0:0:
192,352,110575,6,0,P|144:363|96:352,1,100
320,352,111005,2,0,P|368:363|416:352,1,100
66,234,111435,5,0,0:0:0:0:
147,31,111649,1,0,0:0:0:0:
444,234,111864,5,0,0:0:0:0:
363,31,112078,1,0,0:0:0:0:
192,352,112293,6,0,P|144:363|96:352,1,100
320,352,112723,2,0,P|368:363|416:352,1,100
64,234,113152,5,0,0:0:0:0:
146,30,113366,1,0,0:0:0:0:
446,234,113581,5,0,0:0:0:0:
364,30,113795,1,0,0:0:0:0:
192,352,114010,6,0,P|144:363|96:352,1,100
320,352,114440,2,0,P|368:363|416:352,1,100
62,234,114870,5,0,0:0:0:0:
145,28,115084,1,0,0:0:0:0:
448,234,115299,5,0,0:0:0:0:
365,28,115513,1,0,0:0:0:0:
192,352,115728,6,0,P|144:363|96:352,1,100
320,352,116158,2,0,P|368:363|416:352,1,100
60,235,116587,5,0,0:0:0:0:
144,27,116801,1,0,0:0:0:0:
450,235,117016,5,0,0:0:0:0:
366,27,117230,1,0,0:0:0:0:
192,352,117445,6,0,P|144:363|96:352,1,100
320,352,117875,2,0,P|368:363|416:352,1,100
59,235,118305,5,0,0:0:0:0:
143,25,118519,1,0,0:0:0:0:
451,235,118734,5,0,0:0:0:0:
367,25,118948,1,0,0:0:0:0:
192,352,119163,6,0,P|144:363|96:352,1,100
320,352,119593,2,0,P|368:363|416:352,1,100
57,236,120022,5,0,0:0:0:0:
142,24,120236,1,0,0:0:0:0:
453,236,120451,5,0,0:0:0:0:
368,24,120665,1,0,0:0:0:0:
192,352,120880,6,0,P|144:363|96:352,1,100
320,352,121310,2,0,P|368:363|416:352,1,100
55,236,121740,5,0,0:0:0:0:
141,22,121954,1,0,0:0:0:0:
455,236,122169,5,0,0:0:0:0:
369,22,122383,1,0,0:0:0:0:
192,352,122598,6,0,P|144:363|96:352,1,100
320,352,123028,2,0,P|368:363|416:352,1,100
53,236,123457,5,0,0:0:0:0:
140,21,123671,1,0,0:0:0:0:
457,236,123886,5,0,0:0:0:0:
370,21,124100,1,0,0:0:0:0:
192,352,124315,6,0,P|144:363|96:352,1,100
320,352,124745,2,0,P|368:363|416:352,1,100
51,237,125175,5,0,0:0:0:0:
139,19,125389,1,0,0:0:0:0:
458,237,125604,5,0,0:0:0:0:
371,19,125818,1,0,0:0:0:0:
192,352,126033,6,0,P|144:363|96:352,1,100
320,352,126463,2,0,P|368:363|416:352,1,100
50,237,126892,5,0,0:0:0:0:
138,18,127106,1,0,0:0:0:0:
460,237,127321,5,0,0:0:0:0:
372,18,127535,1,0,0:0:0:0:
192,352,127750,6,0,P|144:363|96:352,1,100
320,352,128180,2,0,P|368:363|416:352,1,100
48,238,128610,5,0,0:0:0:0:
137,16,128824,1,0,0:0:0:0:
462,238,129039,5,0,0:0:0:0:
373,16,129253,1,0,0:0:0:0:
192,352,129469,6,0,P|144:363|96:352,1,100
320,352,129899,2,0,P|368:363|416:352,1,100
46,238,130327,5,0,0:0:0:0:
136,14,130541,1,0,0:0:0:0:
464,238,130756,5,0,0:0:0:0:
374,14,130970,1,0,0:0:0:0:
192,352,131186,6,0,P|144:363|96:352,1,100
320,352,131616,2,0,P|368:363|416:352,1,100
44,239,132045,5,0,0:0:0:0:
134,13,132259,1,0,0:0:0:0:
466,239,132474,5,0,0:0:0:0:
375,13,132688,1,0,0:0:0:0:
192,352,132904,6,0,P|144:363|96:352,1,100
320,352,133334,2,0,P|368:363|416:352,1,100
42,239,133762,5,0,0:0:0:0:
133,11,133976,1,0,0:0:0:0:
468,239,134191,5,0,0:0:0:0:
376,11,134405,1,0,0:0:0:0:
192,352,134621,6,0,P|144:363|96:352,1,100
320,352,135051,2,0,P|368:363|416:352,1,100
40,239,135480,5,0,0:0:0:0:
132,10,135694,1,0,0:0:0:0:
470,239,135909,5,0,0:0:0:0:
378,10,136123,1,0,0:0:0:0:
192,352,136339,6,0,P|144:363|96:352,1,100
320,352,136769,2,0,P|368:363|416:352,1,100
38,240,137197,5,0,0:0:0:0:
131,8,137411,1,0,0:0:0:0:
472,240,137626,5,0,0:0:0:0:
379,8,137840,1,0,0:0:0:0:
192,352,138056,6,0,P|144:363|96:352,1,100
320,352,138486,2,0,P|368:363|416:352,1,100
36,240,138915,5,0,0:0:0:0:
130,6,139129,1,0,0:0:0:0:
474,240,139344,5,0,0:0:0:0:
380,6,139558,1,0,0:0:0:0:
192,352,139774,6,0,P|144:363|96:352,1,100
320,352,140204,2,0,P|368:363|416:352,1,100
34,241,140632,5,0,0:0:0:0:
129,5,140846,1,0,0:0:0:0:
475,241,141061,5,0,0:0:0:0:
381,5,141275,1,0,0:0:0:0:
192,352,141491,6,0,P|144:363|96:352,1,100
320,352,141921,2,0,P|368:363|416:352,1,100
32,241,142350,5,0,0:0:0:0:
128,3,142564,1,0,0:0:0:0:
477,241,142779,5,0,0:0:0:0:
382,3,142993,1,0,0:0:0:0:
192,352,143209,6,0,P|144:363|96:352,1,100
320,352,143639,2,0,P|368:363|416:352,1,100
30,242,144068,5,0,0:0:0:0:
127,1,144282,1,0,0:0:0:0:
479,242,144497,5,0,0:0:0:0:
383,1,144711,1,0,0:0:0:0:
192,352,144926,6,0,P|144:363|96:352,1,100
320,352,145356,2,0,P|368:363|416:352,1,100
28,242,145785,5,0,0:0:0:0:
125,0,145999,1,0,0:0:0:0:
481,242,146214,5,0,0:0:0:0:
384,0,146428,1,0,0:0:0:0:
192,352,146644,6,0,P|144:363|96:352,1,100
320,352,147074,2,0,P|368:363|416:352,1,100
304,80,147503,5,0,0:0:0:0:
208,304,147717,1,0,0:0:0:0:
208,80,147932,5,0,0:0:0:0:
304,304,148146,1,0,0:0:0:0:
444,192,148361,2,0,B|352:120|260:188|256:192|252:196|160:264|68:192,1,400
344,88,150938,6,0,P|256:291|168:88,1,560
256,352,154373,6,0,B|240:336|240:336|272:336|272:336|240:320|240:320|272:320|272:320|240:304|240:304|272:304|272:304|240:288|240:288|272:288|272:288|240:272|240:272|272:272|272:272|240:256|240:256|272:232,1,400
256,32,155768,6,0,B|272:48|272:48|240:48|240:48|272:64|272:64|240:64|240:64|272:80|272:80|240:80|240:80|272:96|272:96|240:96|240:96|272:112|272:112|240:112|240:112|272:128|272:128|240:128|240:128|272:144|272:144|240:144|240:144|272:160|272:160|240:160|240:160|272:176|272:176|240:176|240:176|272:192|272:192|240:192|240:192|272:208|272:208|240:208|240:208|256:232,1,750
249,222,158666,6,0,L|256:280,8,50
264,112,161887,6,0,P|256:308|248:112,1,600
472,336,163604,6,0,B|459:317|459:317|453:348|453:348|443:314|443:314|437:346|437:346|427:311|427:311|421:343|421:343|411:309|411:309|406:340|406:340|395:306|395:306|390:337|390:337|380:303|380:303|351:330,1,400
212,148,164892,6,0,P|256:128|300:148,1,100
300,236,165537,6,0,P|256:256|212:236,1,100
212,236,165966,6,0,P|256:256|300:236,1,100
40,48,166825,6,0,B|58:35|58:35|52:66|52:66|74:37|74:37|68:69|68:69|90:40|90:40|84:72|84:72|105:43|105:43|100:74|100:74|121:46|121:46|116:77|116:77|137:48|137:48|131:80|131:80|153:51|153:51|147:83|147:83|168:54|168:54|163:85|163:85|184:57|184:57|179:88|179:88|200:60|200:60|194:91|194:91|216:62|216:62|210:94|210:94|236:80,1,740.99999095459
168,296,170260,6,0,P|256:93|344:296,1,560
159,329,173480,6,0,B|131:303|131:303|121:337|121:337|116:306|116:306|105:340|105:340|100:309|100:309|90:343|90:343|84:311|84:311|74:346|74:346|68:314|68:314|58:348|58:348|52:317|52:317|40:336,1,395.999998791504
256,192,175305,5,0,0:0:0:0:
68,192,177130,2,0,B|160:120|252:188|256:192|260:196|352:264|444:192,1,400
256,192,180136,12,0,182712,0:0:0:0:
