osu file format v14

[General]
AudioFilename: audio.mp3
AudioLeadIn: 0
PreviewTime: 39795
Countdown: 0
SampleSet: Soft
StackLeniency: 0.3
Mode: 0
LetterboxInBreaks: 0
WidescreenStoryboard: 0

[Editor]
Bookmarks: 82872
DistanceSpacing: 0.4
BeatDivisor: 4
GridSize: 32
TimelineZoom: 1.799999

[Metadata]
Title:Black Night Town (TV Size)
TitleUnicode:ブラックナイトタウン (TV Size)
Artist:Kondo Akihisa
ArtistUnicode:近藤 晃央
Creator:Kroytz
Version:toybot's Insane
Source:NARUTO-ナルト-疾風伝
Tags:Shippuden Ending Ed 27 Irie Japanese Pop Sasuke Uchiha Kowari Xexyz Azunyan- Mayu Sakuma toybot DeviousPanda AncuL
BeatmapID:2103541
BeatmapSetID:997273

[Difficulty]
HPDrainRate:5
CircleSize:4
OverallDifficulty:8
ApproachRate:9
SliderMultiplier:1.7
SliderTickRate:1

[Events]
//Background and Video events
0,0,"BG.jpg",0,0
//Break Periods
//Storyboard Layer 0 (Background)
//Storyboard Layer 1 (Fail)
//Storyboard Layer 2 (Pass)
//Storyboard Layer 3 (Foreground)
//Storyboard Layer 4 (Overlay)
//Storyboard Sound Samples

[TimingPoints]
230,329.67032967033,4,2,1,40,1,0
560,329.67032967033,4,2,1,40,1,0
560,-500,4,2,1,40,0,0
1109,-100,4,2,20,5,0,0
1219,-200,4,2,1,40,0,0
1768,-200,4,2,20,5,0,0
1878,-200,4,2,1,40,0,0
2757,-200,4,2,1,20,0,0
3197,-500,4,2,1,40,0,0
3746,-500,4,2,20,5,0,0
3856,-200,4,2,1,40,0,0
4406,-200,4,2,20,5,0,0
4516,-400,4,2,1,40,0,0
5175,-400,4,2,1,20,0,0
5834,-400,4,2,1,50,0,0
6384,-400,4,2,20,5,0,0
6494,-200,4,2,1,40,0,0
7043,-200,4,2,20,5,0,0
7153,-200,4,2,1,40,0,0
8032,-200,4,2,1,20,0,0
8472,-400,4,2,1,40,0,0
9021,-400,4,2,1,5,0,0
9131,-166.666666666667,4,2,1,40,0,0
9680,-166.666666666667,4,2,5,20,0,0
9790,-133.333333333333,4,2,1,40,0,0
10340,-133.333333333333,4,2,20,5,0,0
10450,-133.333333333333,4,2,1,40,0,0
11109,-100,4,2,2,60,0,0
11439,-80,4,2,2,60,0,0
11768,-66.6666666666667,4,2,2,60,0,0
13746,-100,4,2,2,60,0,0
14076,-80,4,2,2,60,0,0
14406,-66.6666666666667,4,2,2,60,0,0
16384,-100,4,2,4,60,0,0
16603,-100,4,2,2,60,0,0
16713,-80,4,2,4,60,0,0
16933,-80,4,2,2,60,0,0
17043,-66.6666666666667,4,2,4,60,0,0
17263,-66.6666666666667,4,2,2,60,0,0
17373,-66.6666666666667,4,2,4,60,0,0
17592,-66.6666666666667,4,2,2,60,0,0
17702,-100,4,2,2,60,0,0
18032,-133.333333333333,4,2,2,60,0,0
18911,-133.333333333333,4,2,20,5,0,0
19021,-100,4,2,1,60,0,0
23801,-100,4,2,1,5,0,0
23856,-100,4,2,1,60,0,0
24186,-100,4,2,20,5,0,0
24296,-100,4,2,1,60,0,0
28252,-100,4,2,6,60,0,0
28472,-100,4,2,1,60,0,0
29241,-117.647058823529,4,2,1,60,0,0
29570,-117.647058823529,4,2,10,60,0,0
29790,-117.647058823529,4,2,1,60,0,0
29900,-117.647058823529,4,2,4,60,0,0
30120,-117.647058823529,4,2,1,60,0,0
30230,-117.647058823529,4,2,4,60,0,0
30450,-117.647058823529,4,2,1,60,0,0
30560,-117.647058823529,4,2,4,60,0,0
30779,-117.647058823529,4,2,1,60,0,0
30889,-117.647058823529,4,2,4,60,0,0
31109,-117.647058823529,4,2,1,60,0,0
31219,-117.647058823529,4,2,4,60,0,0
31439,-117.647058823529,4,2,1,60,0,0
31549,-117.647058823529,4,2,4,60,0,0
32098,-117.647058823529,4,2,1,60,0,0
32208,-117.647058823529,4,2,4,60,0,0
32428,-117.647058823529,4,2,1,60,0,0
32538,-117.647058823529,4,2,4,60,0,0
32757,-117.647058823529,4,2,1,60,0,0
32867,-117.647058823529,4,2,4,60,0,0
33087,-117.647058823529,4,2,1,60,0,0
33197,-117.647058823529,4,2,4,60,0,0
33307,-117.647058823529,4,2,1,60,0,0
33417,-117.647058823529,4,2,1,60,0,0
33527,-117.647058823529,4,2,4,60,0,0
33746,-117.647058823529,4,2,1,60,0,0
33856,-111.111111111111,4,2,4,60,0,0
34076,-111.111111111111,4,2,1,60,0,0
34186,-111.111111111111,4,2,4,60,0,0
34406,-111.111111111111,4,2,1,60,0,0
34516,-111.111111111111,4,2,4,60,0,0
34735,-111.111111111111,4,2,1,60,0,0
34790,-117.647058823529,4,2,1,60,0,0
34845,-117.647058823529,4,2,4,60,0,0
35065,-117.647058823529,4,2,1,60,0,0
35175,-117.647058823529,4,2,4,60,0,0
35395,-117.647058823529,4,2,1,60,0,0
35505,-117.647058823529,4,2,4,60,0,0
35724,-117.647058823529,4,2,1,60,0,0
35834,-117.647058823529,4,2,4,60,0,0
36054,-117.647058823529,4,2,1,60,0,0
36164,-117.647058823529,4,2,4,60,0,0
36384,-117.647058823529,4,2,1,60,0,0
36494,-117.647058823529,4,2,4,60,0,0
36713,-117.647058823529,4,2,1,60,0,0
36823,-90.9090909090909,4,2,15,60,0,0
36933,-90.9090909090909,4,2,4,60,0,0
37483,-83.3333333333333,4,2,16,30,0,0
37647,-333.333333333333,4,2,16,30,0,0
38060,-333.333333333333,4,2,16,5,0,0
38142,-133.333333333333,4,2,16,30,0,0
38801,-133.333333333333,4,2,1,60,0,0
38966,-50,4,2,2,70,0,0
39131,-50,4,2,2,5,0,0
39213,-45.4545454545455,4,2,2,80,0,0
39378,-45.4545454545455,4,2,2,5,0,0
39461,-100,4,2,2,80,0,0
40010,-100,4,2,20,5,0,0
40120,-80,4,2,6,80,0,1
40230,-80,4,2,1,80,0,1
40779,-80,4,2,6,80,0,1
40999,-80,4,2,1,80,0,1
41439,-80,4,2,6,80,0,1
41549,-80,4,2,1,80,0,1
42098,-80,4,2,6,80,0,1
42318,-80,4,2,1,80,0,1
42757,-80,4,2,6,80,0,1
42867,-80,4,2,1,80,0,1
43417,-80,4,2,6,80,0,1
43527,-80,4,2,1,80,0,1
44076,-80,4,2,6,80,0,1
44186,-80,4,2,1,80,0,1
44735,-80,4,2,6,80,0,1
45065,-80,4,2,1,80,0,1
45395,-80,4,2,6,80,0,1
45505,-80,4,2,1,80,0,1
46054,-80,4,2,6,80,0,1
46164,-80,4,2,1,80,0,1
46713,-80,4,2,6,80,0,1
46933,-80,4,2,1,80,0,1
47373,-80,4,2,6,80,0,1
47702,-80,4,2,1,80,0,1
48032,-80,4,2,6,80,0,1
48142,-80,4,2,1,80,0,1
48691,-80,4,2,6,80,0,1
48801,-80,4,2,1,80,0,1
49351,-80,4,2,6,80,0,1
49570,-80,4,2,1,80,0,1
50010,-80,4,2,15,80,0,1
50120,-80,4,2,1,80,0,1
50230,-80,4,2,2,80,0,0
50560,-80,4,2,1,80,0,0
50669,-80,4,2,5,80,0,1
50779,-80,4,2,1,80,0,1
51329,-80,4,2,5,80,0,1
51439,-80,4,2,1,80,0,1
51988,-80,4,2,5,80,0,1
52098,-80,4,2,1,80,0,1
52647,-80,4,2,5,80,0,1
52757,-80,4,2,1,80,0,1
53307,-80,4,2,5,80,0,1
53417,-80,4,2,1,80,0,1
53966,-80,4,2,5,80,0,1
54076,-80,4,2,1,80,0,1
54625,-80,4,2,5,80,0,1
54735,-80,4,2,1,80,0,1
55285,-80,4,2,5,80,0,1
55395,-80,4,2,1,80,0,1
55944,-80,4,2,5,80,0,1
56054,-80,4,2,1,80,0,1
56603,-80,4,2,5,80,0,1
56713,-80,4,2,1,80,0,1
57263,-80,4,2,5,80,0,1
57373,-80,4,2,1,80,0,1
57922,-80,4,2,5,80,0,1
58032,-80,4,2,1,80,0,1
58581,-80,4,2,5,80,0,1
58691,-80,4,2,1,80,0,1
59241,-80,4,2,5,80,0,1
59351,-80,4,2,1,80,0,1
59900,-80,4,2,2,80,0,1
60779,-66.6666666666667,4,2,2,80,0,1
60999,-57.1428571428571,4,2,2,80,0,1
61219,-133.333333333333,4,2,1,80,0,0
62538,-133.333333333333,4,2,2,80,0,0
62647,-66.6666666666667,4,2,2,80,0,0
63087,-66.6666666666667,4,2,1,80,0,0
63417,-133.333333333333,4,2,1,60,0,0
63746,-133.333333333333,4,2,1,30,0,0
63856,-100,4,2,4,80,0,0
64076,-100,4,2,2,80,0,0
64186,-80,4,2,4,80,0,0
64406,-80,4,2,2,80,0,0
64515,-66.6666666666667,4,2,2,80,0,0
64516,-66.6666666666667,4,2,4,80,0,0
64735,-66.6666666666667,4,2,2,80,0,0
64845,-66.6666666666667,4,2,4,80,0,0
65065,-66.6666666666667,4,2,2,80,0,0
65175,-66.6666666666667,4,2,4,80,0,0
65395,-66.6666666666667,4,2,2,80,0,0
65505,-66.6666666666667,4,2,4,80,0,0
65724,-66.6666666666667,4,2,2,80,0,0
65834,-66.6666666666667,4,2,4,80,0,0
66054,-66.6666666666667,4,2,2,80,0,0
66164,-66.6666666666667,4,2,4,80,0,0
66384,-66.6666666666667,4,2,2,80,0,0
66494,-100,4,2,4,80,0,0
66713,-100,4,2,2,80,0,0
66823,-80,4,2,4,80,0,0
67043,-80,4,2,2,80,0,0
67153,-66.6666666666667,4,2,4,80,0,0
67373,-66.6666666666667,4,2,2,80,0,0
67483,-66.6666666666667,4,2,4,80,0,0
67702,-66.6666666666667,4,2,1,80,0,0
68032,-66.6666666666667,4,2,2,80,0,0
68142,-133.333333333333,4,2,2,80,0,0
68581,-133.333333333333,4,2,20,5,0,0
68691,-133.333333333333,4,2,1,80,0,0
69131,-200,4,2,1,40,0,0
71768,-200,4,2,1,40,0,0
74076,-200,4,2,20,5,0,0
74406,-400,4,2,1,20,0,0
74955,-400,4,2,20,5,0,0
75065,-80,4,2,17,70,0,0
75614,-80,4,2,20,5,0,0
75724,-80,4,2,17,80,0,0
76274,-80,4,2,20,5,0,0
76384,-80,4,2,17,80,0,0
76933,-80,4,2,20,5,0,0
77053,329.67032967033,4,2,17,80,1,0
77053,-222.222222222222,4,2,17,80,0,0
78591,-222.222222222222,4,2,17,40,0,0
78949,-222.222222222222,4,2,20,5,0,0
79036,329.67032967033,4,2,1,80,1,0
79036,-1000,4,2,1,80,0,0
83704,329.67032967033,4,2,1,60,1,0
83704,-1000,4,2,1,60,0,0
83787,-1000,4,2,1,80,0,0
87577,329.67032967033,4,2,1,80,1,0
87822,329.67032967033,4,2,1,60,1,0

[Colours]
Combo1 : 67,18,67
Combo2 : 45,67,142
Combo3 : 44,76,124
Combo4 : 54,96,129
Combo5 : 45,125,125
Combo6 : 102,0,0

[HitObjects]
428,117,560,6,0,P|401:116|377:131,1,56.6666666666667,2|0,0:0|0:0,0:0:0:0:
428,117,1219,6,0,P|372:78|304:89,1,141.666666666667,2|0,0:0|0:0,0:0:0:0:
243,141,1878,1,2,0:0:0:0:
103,257,3197,6,0,P|130:253|153:269,1,56.6666666666667,2|0,0:0|0:0,0:0:0:0:
103,257,3856,6,0,P|69:194|85:124,1,141.666666666667,2|0,0:0|0:0,0:0:0:0:
157,137,4516,2,0,P|152:95|123:64,1,85,2|0,0:0|0:0,0:0:0:0:
316,310,5834,38,0,P|350:305|370:277,1,70.8333333333333,2|0,0:0|0:0,0:0:0:0:
316,310,6494,6,0,P|278:253|305:190,1,141.666666666667,2|0,0:0|0:0,0:0:0:0:
376,162,7153,1,2,0:0:0:0:
125,54,8472,6,0,P|153:76|163:110,1,70.8333333333333,2|0,0:0|0:0,0:0:0:0:
125,54,9131,6,0,P|148:133|102:202,1,169.999994812012,2|4,0:0|0:0,0:0:0:0:
68,133,9790,38,0,B|175:100|154:208|270:174,1,212.500008106232,6|0,0:0|0:0,0:0:0:0:
329,212,10450,5,8,0:2:0:0:
338,167,10559,1,8,0:2:0:0:
320,124,10669,1,8,0:2:0:0:
280,101,10779,1,8,0:2:0:0:
234,106,10889,1,8,0:2:0:0:
200,136,10999,1,8,0:2:0:0:
264,175,11109,6,0,P|313:149|370:147,1,113.333333333333,2|0,0:0|0:0,0:0:0:0:
391,215,11439,2,0,P|333:175|263:174,1,141.666666666667,10|0,0:0|0:0,0:0:0:0:
263,175,11768,2,0,P|337:211|359:290,1,170.000006484986,2|0,0:0|0:0,0:0:0:0:
330,360,12098,2,0,P|296:335|284:295,1,85.0000032424928,10|0,0:0|0:0,0:0:0:0:
220,239,12318,1,8,0:0:0:0:
147,265,12428,1,2,0:0:0:0:
147,264,12757,6,0,P|143:179|127:95,1,170.000006484986,10|0,0:0|0:0,0:0:0:0:
126,96,13087,2,0,P|126:138|114:178,1,85.0000032424928,2|0,0:0|0:0,0:0:0:0:
56,277,13307,1,8,0:0:0:0:
33,201,13417,2,0,B|121:184|101:258|198:234,1,170.000006484986,2|8,0:0|0:0,0:0:0:0:
285,171,13746,38,0,P|341:175|391:201,1,113.333333333333,6|0,0:0|0:0,0:0:0:0:
390,201,14076,2,0,P|359:138|302:96,1,141.666666666667,10|0,0:0|0:0,0:0:0:0:
365,42,14406,2,0,P|401:117|389:199,1,170.000006484986,2|0,0:0|0:0,0:0:0:0:
446,252,14735,2,0,P|410:274|360:270,1,85.0000032424928,10|0,0:0|0:0,0:0:0:0:
283,234,14955,1,8,0:0:0:0:
229,289,15065,2,0,B|166:241|95:262|95:262|139:269,1,170.000006484986,2|0,0:0|0:0,0:0:0:0:
133,269,15340,1,0,0:0:0:0:
141,274,15395,6,0,P|152:330|59:325,1,170.000006484986,10|0,0:0|0:0,0:0:0:0:
46,255,15724,1,2,0:0:0:0:
164,171,15944,1,8,0:0:0:0:
97,128,16054,1,2,0:0:0:0:
294,184,16274,1,8,0:0:0:0:
248,106,16384,6,0,P|257:51|296:10,1,113.333333333333,6|0,0:0|0:0,0:0:0:0:
367,45,16713,2,0,P|298:57|248:106,1,141.666666666667,10|0,0:0|0:0,0:0:0:0:
248,106,17043,2,0,P|327:81|405:111,1,170.000006484986,2|0,0:0|0:0,0:0:0:0:
392,186,17373,2,0,P|467:156|469:73,1,170.000006484986,10|4,0:0|3:3,0:0:0:0:
406,111,17702,6,0,P|401:138|410:165,1,56.6666666666667,8|0,3:3|0:0,0:0:0:0:
459,272,17922,1,4,0:0:0:0:
387,320,18032,38,0,P|292:332|171:143,1,340.000012969971,12|0,0:0|0:0,0:0:0:0:
48,255,19021,6,0,P|49:170|33:86,1,170,6|10,0:0|0:0,0:0:0:0:
177,34,19570,1,0,0:0:0:0:
152,61,19680,2,0,P|209:118|287:97,1,170,2|10,0:0|0:0,0:0:0:0:
383,16,20230,1,0,0:0:0:0:
438,70,20340,1,2,0:0:0:0:
437,70,20669,6,0,P|430:97|427:125,1,56.6666666666667,8|0,0:0|0:0,0:0:0:0:
364,185,20889,1,8,0:0:0:0:
421,244,20999,2,0,B|452:199|452:199|428:125,1,113.333333333333,2|8,0:0|0:0,0:0:0:0:
363,185,21329,2,0,P|310:201|253:199,1,113.333333333333,2|8,0:0|0:0,0:0:0:0:
183,159,21658,6,0,P|264:180|316:246,1,170,2|10,0:0|0:0,0:0:0:0:
170,324,22208,1,0,0:0:0:0:
143,309,22318,2,0,P|173:239|242:271,1,170,2|10,0:0|0:0,0:0:0:0:
355,354,22867,1,0,0:0:0:0:
413,306,22977,1,2,0:0:0:0:
413,305,23307,38,0,P|412:249|399:194,1,113.333333333333,8|8,0:0|0:0,0:0:0:0:
345,137,23636,2,0,P|358:99|398:87,1,85,2|0,0:0|0:0,0:0:0:0:
408,94,23856,2,0,L|412:50,2,28.3333333333333,8|0|2,0:0|0:0|0:3,0:0:0:0:
242,271,24296,6,0,P|163:302|79:305,1,170,6|10,0:0|0:0,0:0:0:0:
21,120,24845,1,0,0:0:0:0:
48,96,24955,2,0,B|130:108|81:170|185:186,1,170,2|10,0:0|0:0,0:0:0:0:
308,77,25505,1,0,0:0:0:0:
233,100,25614,1,2,0:0:0:0:
233,100,25944,6,0,P|224:72|224:44,1,56.6666666666667,8|0,0:0|0:0,0:0:0:0:
292,153,26164,1,8,0:0:0:0:
239,212,26274,2,0,B|184:231|184:231|130:189,1,113.333333333333,2|8,0:0|0:0,0:0:0:0:
145,191,26603,2,0,B|179:218|179:218|161:308,1,113.333333333333,2|8,0:0|0:0,0:0:0:0:
112,345,26933,6,0,P|187:308|271:311,1,170,2|10,0:0|0:0,0:0:0:0:
392,202,27483,1,2,0:0:0:0:
411,231,27592,2,0,P|357:242|293:155,1,170,2|10,0:0|0:0,0:0:0:0:
105,143,28142,1,2,0:0:0:0:
93,161,28252,2,0,P|147:165|181:123,1,113.333333333333,2|0,0:0|0:0,0:0:0:0:
203,46,28581,37,8,0:0:0:0:
247,31,28691,1,8,0:0:0:0:
293,40,28801,1,8,0:0:0:0:
329,75,28911,2,0,P|345:130|334:185,1,113.333333333333,10|4,0:0|0:3,0:0:0:0:
277,241,29241,6,0,P|321:206|309:261,1,144.500002756119,4|6,0:3|0:0,0:0:0:0:
310,260,29900,2,0,B|235:245|252:316|158:285,2,144.500002756119,2|8|2,0:0|0:0|0:0,0:0:0:0:
121,346,30779,1,2,0:0:0:0:
106,333,30889,6,0,P|96:299|117:235,1,96.3333351707459,2|0,0:0|0:0,0:0:0:0:
193,194,31219,2,0,P|172:234|127:229,1,96.3333351707459,2|0,0:0|0:0,0:0:0:0:
57,164,31549,2,0,B|132:149|115:220|209:189,1,144.500002756119,8|2,0:0|0:0,0:0:0:0:
345,127,32098,1,2,0:0:0:0:
282,85,32208,6,0,B|309:114|309:114|287:232,1,144.500002756119,2|2,0:0|0:0,0:0:0:0:
378,305,32757,1,2,0:0:0:0:
396,291,32867,2,0,L|287:306,1,96.3333351707459,8|0,0:0|0:0,0:0:0:0:
237,354,33197,2,0,P|214:352|193:340,1,48.1666675853729,2|0,0:0|0:0,0:0:0:0:
161,218,33417,38,0,P|92:228|60:290,1,144.500002756119,2|0,0:0|0:0,0:0:0:0:
137,289,33856,2,0,P|141:212|124:138,1,152.999995330811,2|10,0:0|0:0,0:0:0:0:
264,69,34406,1,2,0:0:0:0:
238,49,34516,2,0,P|235:100|245:150,1,101.999996887207,2|2,0:0|0:0,0:0:0:0:
338,235,34845,6,0,P|335:194|301:215,1,96.3333351707459,6|0,0:0|0:0,0:0:0:0:
302,215,35175,2,0,B|377:200|360:271|454:240,2,144.500002756119,2|8|2,0:0|0:0|0:0,0:0:0:0:
466,119,36054,1,2,0:0:0:0:
453,140,36164,2,0,P|406:135|384:95,1,96.3333351707459,2|0,0:0|0:0,0:0:0:0:
378,15,36494,2,0,P|356:55|310:58,1,96.3333351707459,2|0,0:0|0:0,0:0:0:0:
394,14,36823,6,0,P|362:66|303:73,1,124.666670471192,10|0,0:0|0:0,0:0:0:0:
268,68,37153,1,8,0:0:0:0:
221,91,37263,1,8,0:0:0:0:
200,151,37373,1,8,0:0:0:0:
235,217,37483,6,0,P|242:241|240:267,1,50.9999984436036,2|0,0:0|0:0,0:0:0:0:
161,292,37647,38,0,P|149:322|124:341,1,63.7499980545045
112,337,38142,6,0,P|144:231|29:218,1,255.000009727478,0|0,0:0|0:0,0:0:0:0:
31,215,38966,6,0,P|111:211|145:136,1,170,2|0,3:2|0:0,0:0:0:0:
145,137,39213,2,0,P|96:209|154:275,1,187.000005706787,2|0,3:2|0:0,0:0:0:0:
152,274,39461,6,0,B|296:238|287:366|447:319,1,297.5,2|0,3:2|0:0,0:0:0:0:
505,239,40120,6,0,P|500:171|488:89,2,141.666666666667,6|2|2,0:2|0:2|0:2,0:0:0:0:
327,339,40779,1,8,1:2:0:0:
261,234,40999,1,0,2:2:0:0:
276,220,41109,2,0,L|350:238,1,70.8333333333333,8|2,0:2|0:2,0:0:0:0:
418,209,41329,1,0,0:0:0:0:
296,130,41439,6,0,P|226:144|159:166,2,141.666666666667,2|2|2,0:2|0:2|0:2,0:0:0:0:
167,260,42098,2,0,P|76:215|73:114,1,212.5,8|8,1:2|0:2,0:0:0:0:
136,71,42538,1,2,0:2:0:0:
143,143,42647,1,8,0:2:0:0:
71,36,42757,70,0,P|138:25|218:9,2,141.666666666667,2|2|2,0:2|0:2|0:2,0:0:0:0:
235,242,43417,1,10,1:2:0:0:
357,104,43636,1,0,0:2:0:0:
340,88,43746,2,0,L|265:106,1,70.8333333333333,8|2,2:0|0:2,0:0:0:0:
208,151,43966,1,0,0:0:0:0:
357,190,44076,6,0,P|408:243|449:316,1,141.666666666667,2|2,0:2|0:2,0:0:0:0:
458,97,44516,1,2,0:2:0:0:
318,339,44735,2,0,B|228:358|197:280|197:280|220:254|227:217,1,212.5,10|8,1:2|0:0,0:0:0:0:
194,152,45175,1,2,0:0:0:0:
148,214,45285,1,8,0:0:0:0:
273,163,45395,70,0,P|282:99|282:21,1,141.666666666667,2|2,0:2|0:2,0:0:0:0:
77,157,45834,1,0,0:2:0:0:
384,272,46054,2,0,P|375:208|374:130,1,141.666666666667,10|0,1:2|0:2,0:0:0:0:
449,73,46384,1,8,0:0:0:0:
469,91,46494,2,0,L|458:166,1,70.8333333333333,2|0,0:2|0:0,0:0:0:0:
366,286,46713,5,2,0:2:0:0:
244,55,46933,1,0,0:0:0:0:
160,312,47153,1,2,0:2:0:0:
60,31,47373,2,0,B|72:114|37:194|37:194|62:270,1,212.5,10|8,1:2|0:2,0:0:0:0:
97,347,47812,1,2,0:2:0:0:
26,313,47922,1,8,0:0:0:0:
139,283,48032,70,0,P|209:274|279:270,1,141.666666666667,2|2,0:2|0:2,0:0:0:0:
185,54,48472,1,2,0:2:0:0:
298,187,48691,2,0,P|368:191|438:199,1,141.666666666667,10|0,1:2|0:2,0:0:0:0:
465,185,49021,1,8,0:0:0:0:
489,145,49131,1,2,0:2:0:0:
480,90,49241,1,0,0:0:0:0:
421,44,49351,5,2,0:0:0:0:
387,324,49570,1,8,0:2:0:0:
107,290,49790,1,2,0:0:0:0:
141,10,50010,1,10,1:2:0:0:
294,137,50230,69,8,3:2:0:0:
302,221,50340,1,8,3:2:0:0:
219,230,50450,1,8,3:2:0:0:
210,146,50560,1,8,3:2:0:0:
300,146,50669,6,0,P|332:142|370:140,1,70.8333333333333,10|0,1:2|0:0,0:0:0:0:
147,192,50889,2,0,P|126:166|106:133,1,70.8333333333333,2|0,0:0|0:0,0:0:0:0:
264,302,51109,2,0,P|250:334|233:366,1,70.8333333333333,2|0,0:0|0:0,0:0:0:0:
215,143,51329,2,0,P|204:87|193:-6,1,141.666666666667,8|0,1:2|0:0,0:0:0:0:
226,22,51658,1,0,0:0:0:0:
269,9,51768,1,2,0:0:0:0:
319,34,51878,1,2,0:0:0:0:
384,4,51988,70,0,L|464:12,1,70.8333333333333,10|0,1:2|0:0,0:0:0:0:
463,167,52208,2,0,L|393:172,1,70.8333333333333,2|0,0:0|0:0,0:0:0:0:
387,324,52428,2,0,L|470:328,1,70.8333333333333,2|0,0:0|0:0,0:0:0:0:
318,223,52647,2,0,B|245:210|259:277|167:250,1,141.666666666667,8|0,1:2|0:0,0:0:0:0:
53,101,53087,1,2,0:0:0:0:
72,88,53197,1,2,0:0:0:0:
142,123,53307,6,0,P|139:158|131:193,1,70.8333333333333,10|0,1:2|0:0,0:0:0:0:
21,352,53527,2,0,P|7:319|0:284,1,70.8333333333333,2|0,0:0|0:0,0:0:0:0:
227,201,53746,2,0,P|211:239|194:263,1,70.8333333333333,2|0,0:0|0:0,0:0:0:0:
0,135,53966,2,0,B|42:99|91:93|91:93|133:118,1,141.666666666667,8|0,1:2|0:0,0:0:0:0:
165,130,54296,1,0,0:0:0:0:
219,123,54406,1,2,0:0:0:0:
266,76,54516,1,2,0:0:0:0:
269,1,54625,70,0,L|186:7,1,70.8333333333333,10|0,1:2|0:0,0:0:0:0:
193,174,54845,2,0,L|276:180,1,70.8333333333333,2|0,0:0|0:0,0:0:0:0:
269,348,55065,2,0,L|190:350,1,70.8333333333333,2|0,0:2|0:0,0:0:0:0:
332,235,55285,2,0,B|402:221|391:276|482:257,1,141.666666666667,8|0,1:2|0:0,0:0:0:0:
281,40,55724,2,0,P|271:74|269:109,1,70.8333333333333,2|0,0:0|0:0,0:0:0:0:
247,236,55944,6,0,P|246:165|226:97,1,141.666666666667,10|2,1:2|0:0,0:0:0:0:
83,240,56384,1,2,0:0:0:0:
306,320,56603,2,0,P|336:256|340:186,1,141.666666666667,8|0,1:2|0:0,0:0:0:0:
397,128,56933,1,0,0:0:0:0:
420,137,57043,2,0,L|348:154,1,70.8333333333333,2|0,0:2|0:0,0:0:0:0:
158,180,57263,70,0,P|127:116|123:46,1,141.666666666667,10|0,1:2|0:0,0:0:0:0:
248,120,57702,1,2,0:0:0:0:
152,293,57922,2,0,P|94:253|63:190,1,141.666666666667,8|2,1:2|0:0,0:0:0:0:
93,112,58252,1,0,0:0:0:0:
113,125,58362,2,0,L|99:210,1,70.8333333333333,2|0,0:0|0:0,0:0:0:0:
23,316,58581,5,10,1:2:0:0:
234,244,58801,1,10,0:0:0:0:
424,354,59021,1,10,0:0:0:0:
466,259,59241,69,10,1:2:0:0:
310,362,59461,1,10,0:0:0:0:
135,288,59680,1,10,0:0:0:0:
218,359,59900,6,0,P|226:325|231:289,1,70.8333333333333,12|8,3:2|3:2,0:0:0:0:
267,216,60120,2,0,P|259:182|253:146,1,70.8333333333333,8|8,3:2|3:2,0:0:0:0:
237,70,60340,1,8,3:2:0:0:
248,28,60450,1,8,3:2:0:0:
203,62,60560,70,0,L|134:78,1,70.8333333333333,8|8,3:2|3:2,0:0:0:0:
351,183,60779,6,0,L|436:204,1,85.0000032424928,8|8,3:2|3:2,0:0:0:0:
152,308,60999,70,0,L|56:334,1,99.1666676123937,8|8,3:2|3:2,0:0:0:0:
9,264,61219,22,0,B|143:286|93:357|243:372,2,255.000009727478,4|0|8,0:0|0:0|3:2,0:0:0:0:
4,296,62647,6,0,P|47:289|102:247,1,85.0000032424928,8|8,3:2|3:2,0:0:0:0:
133,174,62867,2,0,P|134:90|82:25,1,170.000006484986,8|8,3:2|0:2,0:0:0:0:
83,26,63417,6,0,P|137:57|199:51,1,127.500004863739,0|0,0:0|0:0,0:0:0:0:
324,41,63856,6,0,P|349:79|345:159,1,113.333333333333,6|0,0:0|0:0,0:0:0:0:
277,167,64186,2,0,P|318:111|324:41,1,141.666666666667,10|0,0:0|0:0,0:0:0:0:
325,41,64516,2,0,P|282:112|202:131,1,170.000006484986,2|0,0:0|0:0,0:0:0:0:
141,82,64845,2,0,B|120:118|120:118|135:178,1,85.0000032424928,10|0,0:0|0:0,0:0:0:0:
66,231,65065,1,8,0:0:0:0:
105,297,65175,1,2,0:0:0:0:
105,296,65505,38,0,P|185:270|269:267,1,170.000006484986,10|0,0:0|0:0,0:0:0:0:
269,267,65834,2,0,P|230:283|197:309,1,85.0000032424928,2|0,0:0|0:0,0:0:0:0:
352,234,66054,1,8,0:0:0:0:
291,183,66164,2,0,B|244:144|166:152|166:152|195:163|227:189,1,170.000006484986,10|8,0:0|0:0,0:0:0:0:
314,338,66494,6,0,P|323:282|352:234,1,113.333333333333,6|0,0:0|0:0,0:0:0:0:
351,234,66823,2,0,P|353:315|389:367,1,141.666666666667,10|0,0:0|0:0,0:0:0:0:
465,345,67153,2,0,P|390:308|352:235,1,170.000006484986,2|0,0:0|0:0,0:0:0:0:
329,155,67483,2,0,B|371:149|371:149|420:182,1,85.0000032424928,10|0,0:0|0:0,0:0:0:0:
501,144,67702,1,8,0:0:0:0:
481,66,67812,1,4,0:3:0:0:
448,340,68032,5,2,0:0:0:0:
459,295,68142,2,0,B|353:278|379:347|247:326,1,212.500008106232,12|8,0:0|0:0,0:0:0:0:
204,273,68801,1,8,0:0:0:0:
218,226,68911,1,8,0:0:0:0:
255,214,69021,1,8,0:0:0:0:
281,222,69131,6,0,P|283:138|276:53,2,170
50,219,71329,1,0,0:0:0:0:
65,201,71439,2,0,L|130:210,1,56.6666666666667
203,172,71768,38,0,P|201:256|208:341,2,170,2|0|0,0:3|0:0|0:0,0:0:0:0:
464,19,74406,6,0,P|470:53|470:89,1,70.8333333333333,0|0,0:0|0:0,0:0:0:0:
463,101,75065,6,0,B|377:158|282:85|344:7|206:15|142:45|157:153,1,354.166666666667,6|0,3:2|0:0,0:0:0:0:
222,227,75724,6,0,B|162:279|251:358|346:318|367:189|240:124,1,354.166666666667,6|0,3:2|0:0,0:0:0:0:
167,354,76384,38,0,P|334:356|395:201,1,354.166666666667,6|0,3:2|0:0,0:0:0:0:
304,187,77053,6,0,P|228:296|235:163,1,356.999989105225,6|0,3:2|0:0,0:0:0:0:
104,125,79036,6,0,P|100:51|142:111,1,198.333333333333,4|0,3:2|0:0,0:0:0:0:
23,178,83704,5,6,3:2:0:0:
256,192,83813,12,10,87822,3:2:0:0:
