osu file format v14

[General]
AudioFilename: audio.mp3
AudioLeadIn: 0
PreviewTime: 66529
Countdown: 0
SampleSet: Soft
StackLeniency: 0.3
Mode: 0
LetterboxInBreaks: 0
WidescreenStoryboard: 0

[Editor]
Bookmarks: 836,12557,28750,39578,50358,58444,61139,66529,77562,90785,101590
DistanceSpacing: 2.2
BeatDivisor: 4
GridSize: 32
TimelineZoom: 1.1

[Metadata]
Title:Yume Tourou
TitleUnicode:夢灯籠
Artist:Konamilk
ArtistUnicode:粉ミルク
Creator:_FlameL
Version:Everlasting Promise
Source:君の名は。
Tags:RADWIMPS Cover Acoustic ver version Kimi no na wa. Your Name. op opening Nikakis ShogunMoon Shunao
BeatmapID:1521043
BeatmapSetID:720433

[Difficulty]
HPDrainRate:6.5
CircleSize:3.5
OverallDifficulty:8
ApproachRate:9
SliderMultiplier:1.6
SliderTickRate:1

[Events]
//Background and Video events
0,0,"yourname1.jpg",0,0
//Break Periods
//Storyboard Layer 0 (Background)
//Storyboard Layer 1 (Fail)
//Storyboard Layer 2 (Pass)
//Storyboard Layer 3 (Foreground)
//Storyboard Sound Samples

[TimingPoints]
836,348.837209302326,4,2,1,25,1,0
836,-142.857142857143,4,2,1,25,0,0
6068,385.852090032154,4,2,1,25,1,0
6453,348.837209302326,4,2,1,25,1,0
6453,-142.857142857143,4,2,1,25,0,0
16220,-142.857142857143,4,2,1,30,0,0
16918,-142.857142857143,4,2,1,35,0,0
17615,-142.857142857143,4,2,1,40,0,0
25987,-125,4,2,1,40,0,0
26685,-111.111111111111,4,2,1,40,0,0
27383,341.880341880342,4,2,1,60,1,0
27383,-117.647058823529,4,2,1,60,0,0
28237,-142.857142857143,4,2,1,25,0,0
28750,342.857142857143,4,2,1,65,1,0
31492,337.078651685393,4,2,1,65,1,0
34188,336.889387984279,4,2,1,65,1,0
39578,-111.111111111111,4,2,1,50,0,0
58444,-111.111111111111,4,2,1,60,0,0
59791,-83.3333333333333,4,2,1,60,0,0
60128,-111.111111111111,4,2,1,60,0,0
61139,-100,4,2,1,60,0,0
66024,-100,4,2,1,40,0,0
66529,-86.9565217391304,4,2,2,70,0,1
89437,-66.6666666666667,4,2,2,80,0,1
89943,-80,4,2,2,80,0,1
90280,-80,4,2,2,15,0,1
90785,339.943342776204,4,2,1,65,1,0
90785,-90.9090909090909,4,2,1,65,0,0
93504,337.078651685393,4,2,1,65,1,0
93504,-90.9090909090909,4,2,1,65,0,0
96200,336.889387984279,4,2,1,65,1,0
96200,-90.9090909090909,4,2,1,65,0,0
100579,-111.111111111111,4,2,1,70,0,0
100916,-90.9090909090909,4,2,1,75,0,0
101253,-83.3333333333333,4,2,1,80,0,0

[Colours]
Combo1 : 114,114,114
Combo2 : 235,148,61
Combo3 : 203,230,51
Combo4 : 52,168,224
Combo5 : 223,101,237
Combo6 : 124,64,225
SliderBorder : 255,255,255
SliderTrackOverride : 18,35,45

[HitObjects]
210,197,836,6,0,P|257:148|314:145,1,111.999996582031,8|0,0:0|0:0,0:0:0:0:
378,170,1359,1,2,0:0:0:0:
217,113,1882,2,0,L|212:168,1,55.9999982910157,2|0,0:0|0:0,0:0:0:0:
102,240,2231,6,0,P|157:240|201:274,1,111.999996582031,8|0,0:0|0:0,0:0:0:0:
131,321,2754,1,2,0:0:0:0:
272,231,3277,2,0,L|267:175,1,55.9999982910157,2|0,0:0|0:0,0:0:0:0:
196,129,3626,6,0,P|240:95|295:96,1,111.999996582031,8|0,0:0|0:0,0:0:0:0:
365,140,4149,2,0,P|322:174|267:175,1,111.999996582031,2|0,0:0|0:0,0:0:0:0:
294,95,4673,1,2,0:0:0:0:
437,183,5022,6,0,L|447:302,1,111.999996582031,8|0,0:0|0:0,0:0:0:0:
382,349,5545,2,0,B|352:316|292:316|292:316|253:327|212:358,1,167.999994873047,2|2,0:0|0:0,0:0:0:0:
269,228,6453,6,0,P|268:172|234:129,1,111.999996582031,8|0,0:0|0:0,0:0:0:0:
189,202,6976,1,2,0:0:0:0:
319,156,7499,2,0,L|324:100,1,55.9999982910157,2|0,0:0|0:0,0:0:0:0:
189,202,7848,6,0,L|178:313,1,111.999996582031,8|0,0:0|0:0,0:0:0:0:
271,243,8371,2,0,L|266:299,1,55.9999982910157,2|0,0:0|0:0,0:0:0:0:
189,202,8894,2,0,L|184:146,1,55.9999982910157,2|0,0:0|0:0,0:0:0:0:
113,100,9243,6,0,P|156:66|211:65,1,111.999996582031,8|0,0:0|0:0,0:0:0:0:
184,146,9766,1,2,0:0:0:0:
266,130,9941,5,0,0:0:0:0:
389,105,10203,1,0,0:0:0:0:
349,224,10464,1,0,0:0:0:0:
404,286,10639,6,0,P|310:333|376:366,1,223.999993164063,8|0,0:0|0:0,0:0:0:0:
349,224,11685,2,0,L|293:229,1,55.9999982910157,2|0,0:0|0:0,0:0:0:0:
235,290,12034,6,0,P|184:310|131:296,1,111.999996582031,8|0,0:0|0:0,0:0:0:0:
95,219,12557,1,2,0:0:0:0:
179,224,12732,2,0,P|163:171|120:138,1,111.999996582031,8|2,0:0|0:0,0:0:0:0:
95,219,13255,1,0,0:0:0:0:
223,134,13429,6,0,P|170:118|118:138,1,111.999996582031,8|0,0:0|0:0,0:0:0:0:
95,219,13953,1,2,0:0:0:0:
95,219,14127,2,0,L|39:224,1,55.9999982910157
147,283,14476,2,0,L|203:278,1,55.9999982910157,2|0,0:0|0:0,0:0:0:0:
282,247,14825,6,0,P|237:319|362:270,1,335.999989746094,8|2,0:0|0:0,0:0:0:0:
148,283,16220,6,0,L|158:159,1,111.999996582031,8|2,0:0|0:0,0:0:0:0:
358,190,16918,2,0,L|352:128,1,55.9999982910157,8|0,0:0|0:0,0:0:0:0:
270,116,17266,2,0,L|264:54,1,55.9999982910157,2|0,0:0|0:0,0:0:0:0:
283,271,17615,6,0,P|335:295|388:300,1,111.999996582031,10|0,0:0|0:0,0:0:0:0:
319,348,18139,1,2,0:0:0:0:
389,300,18313,2,0,L|383:238,1,55.9999982910157
461,212,18662,2,0,L|466:267,1,55.9999982910157,2|0,0:0|0:0,0:0:0:0:
309,108,19011,6,0,P|367:115|415:138,1,111.999996582031,10|0,0:0|0:0,0:0:0:0:
380,61,19534,1,2,0:0:0:0:
309,108,19708,2,0,L|303:163,1,55.9999982910157
227,126,20057,1,2,0:0:0:0:
309,108,20232,1,0,0:0:0:0:
285,285,20406,6,0,P|236:308|177:315,1,111.999996582031,10|0,0:0|0:0,0:0:0:0:
250,360,20929,1,2,0:0:0:0:
179,315,21104,2,0,L|173:260,1,55.9999982910157
90,241,21453,2,0,L|96:296,1,55.9999982910157,2|0,0:0|0:0,0:0:0:0:
156,150,21801,6,0,P|104:127|46:123,1,111.999996582031,10|0,0:0|0:0,0:0:0:0:
119,74,22325,1,2,0:0:0:0:
156,150,22499,2,0,L|150:205,1,55.9999982910157
231,114,22848,1,2,0:0:0:0:
156,150,23022,1,0,0:0:0:0:
308,79,23197,6,0,P|363:85|414:107,1,111.999996582031,10|0,0:0|0:0,0:0:0:0:
377,33,23720,1,2,0:0:0:0:
414,107,23894,2,0,L|408:162,1,55.9999982910157
490,150,24243,2,0,L|496:95,1,55.9999982910157,2|0,0:0|0:0,0:0:0:0:
289,270,24592,6,0,P|344:264|395:242,1,111.999996582031,10|0,0:0|0:0,0:0:0:0:
360,319,25115,1,2,0:0:0:0:
289,270,25290,2,0,L|283:215,1,55.9999982910157
207,251,25639,1,2,0:0:0:0:
289,270,25813,1,0,0:0:0:0:
267,68,25987,6,0,P|215:31|146:32,1,128,10|0,0:0|0:0,0:0:0:0:
72,85,26511,1,2,0:0:0:0:
168,197,26685,2,0,L|162:126,1,71.9999978027344
41,230,27034,1,2,0:0:0:0:
133,324,27208,1,0,0:0:0:0:
363,243,27383,6,0,P|283:145|168:197,1,272.000005187988,10|0,0:0|0:0,0:0:0:0:
240,305,28237,6,0,P|244:278|238:251,1,55.9999982910157,2|0,0:0|0:0,0:0:0:0:
157,282,28579,1,8,0:0:0:0:
264,161,28750,6,0,P|210:103|133:100,1,160,10|0,0:0|0:0,0:0:0:0:
264,161,29264,2,0,L|255:81,1,80,10|0,0:0|0:0,0:0:0:0:
168,198,29607,1,8,0:0:0:0:
246,264,29778,2,0,P|302:284|387:294,1,120,10|0,0:0|0:0,0:0:0:0:
251,341,30121,6,0,L|361:293,1,120,8|0,0:0|0:0,0:0:0:0:
456,251,30464,1,2,0:0:0:0:
371,190,30635,1,8,0:0:0:0:
445,354,30807,1,2,0:0:0:0:
456,251,30978,1,8,0:0:0:0:
251,341,31150,1,10,0:0:0:0:
286,129,31492,6,0,P|219:76|133:92,1,160,10|0,0:0|0:0,0:0:0:0:
286,129,31998,2,0,L|278:49,1,80,10|0,0:0|0:0,0:0:0:0:
195,174,32335,1,8,0:0:0:0:
365,196,32504,1,10,0:0:0:0:
286,129,32672,1,0,0:0:0:0:
212,278,32841,6,0,P|148:315|85:328,1,120,8|0,0:0|0:0,0:0:0:0:
217,357,33178,2,0,L|212:276,1,80,2|8,0:0|0:0,0:0:0:0:
286,127,33515,2,0,L|292:206,1,80,2|8,0:0|0:0,0:0:0:0:
392,246,33852,2,0,L|385:166,1,80,10|0,0:0|0:0,0:0:0:0:
154,164,34189,6,0,P|214:213|295:205,1,160,10|0,0:0|0:0,0:0:0:0:
154,164,34694,2,0,L|160:243,1,80,10|0,0:0|0:0,0:0:0:0:
292,206,35031,1,8,0:0:0:0:
220,98,35199,2,0,P|164:78|79:68,1,120,10|0,0:0|0:0,0:0:0:0:
215,21,35536,6,0,L|103:69,1,120,8|0,0:0|0:0,0:0:0:0:
154,164,35872,1,2,0:0:0:0:
154,164,36040,1,8,0:0:0:0:
102,348,36209,5,2,0:0:0:0:
59,254,36377,1,8,0:0:0:0:
205,354,36547,2,0,P|275:333|328:297,1,120,10|0,0:0|0:0,0:0:0:0:
175,265,36884,6,0,P|235:314|312:309,1,160,10|0,0:0|0:0,0:0:0:0:
330,133,37389,2,0,P|295:115|256:111,1,80,10|0,0:0|0:0,0:0:0:0:
266,215,37726,1,8,0:0:0:0:
330,133,37894,1,10,0:0:0:0:
248,68,38063,1,0,0:0:0:0:
266,215,38231,6,0,P|330:252|393:265,1,120,8|0,0:0|0:0,0:0:0:0:
260,294,38568,2,0,L|266:215,1,80,2|8,0:0|0:0,0:0:0:0:
336,53,38905,2,0,L|330:132,1,80,2|8,0:0|0:0,0:0:0:0:
176,235,39242,2,0,L|182:156,1,80,10|0,0:0|0:0,0:0:0:0:
410,197,39579,6,0,P|417:269|440:337,1,143.999995605469,8|0,0:0|0:0,0:0:0:0:
315,301,40084,2,0,L|321:229,1,71.9999978027344,8|0,0:0|0:0,0:0:0:0:
183,156,40589,2,0,L|255:150,1,71.9999978027344,8|0,0:0|0:0,0:0:0:0:
256,6,40926,6,0,L|226:72,1,71.9999978027344,8|0,0:0|0:0,0:0:0:0:
349,144,41263,2,0,L|306:85,1,71.9999978027344,0|8,0:0|0:0,0:0:0:0:
183,156,41600,1,0,0:0:0:0:
183,156,41937,1,8,0:0:0:0:
308,226,42105,1,0,0:0:0:0:
185,302,42274,6,0,P|116:325|45:332,1,143.999995605469,8|0,0:0|0:0,0:0:0:0:
128,376,42779,1,8,0:0:0:0:
185,302,42948,2,0,L|191:230,1,71.9999978027344
280,203,43285,2,0,L|274:275,1,71.9999978027344,8|0,0:0|0:0,0:0:0:0:
202,121,43621,6,0,P|269:96|340:88,1,143.999995605469,8|0,0:0|0:0,0:0:0:0:
257,45,44127,1,8,0:0:0:0:
202,121,44295,2,0,L|196:193,1,71.9999978027344
41,287,44632,1,8,0:0:0:0:
114,163,44801,1,0,0:0:0:0:
185,288,44969,6,0,P|252:313|323:319,1,143.999995605469,8|0,0:0|0:0,0:0:0:0:
185,288,45474,2,0,L|191:360,1,71.9999978027344,8|0,0:0|0:0,0:0:0:0:
254,225,45980,2,0,L|248:153,1,71.9999978027344,8|0,0:0|0:0,0:0:0:0:
330,108,46317,6,0,L|342:251,1,143.999995605469,8|0,0:0|0:0,0:0:0:0:
396,174,46822,1,8,0:0:0:0:
330,108,46990,2,0,P|263:82|192:77,1,143.999995605469,0|8,0:0|0:0,0:0:0:0:
402,48,47496,1,0,0:0:0:0:
330,108,47664,5,8,0:0:0:0:
396,174,47833,1,0,0:0:0:0:
218,199,48001,1,0,0:0:0:0:
330,108,48169,1,8,0:0:0:0:
316,250,48338,2,0,L|310:322,1,71.9999978027344
399,293,48675,1,8,0:0:0:0:
316,250,48843,1,0,0:0:0:0:
138,275,49012,5,8,0:0:0:0:
205,108,49180,1,0,0:0:0:0:
264,180,49349,1,0,0:0:0:0:
123,154,49517,1,8,0:0:0:0:
205,108,49685,2,0,L|199:36,1,71.9999978027344,8|0,0:0|0:0,0:0:0:0:
123,154,50022,1,8,0:0:0:0:
343,82,50359,6,0,P|271:81|205:108,1,143.999995605469,8|2,0:0|0:0,0:0:0:0:
262,34,50865,1,10,0:0:0:0:
255,127,51033,2,0,L|249:199,1,71.9999978027344,0|2,0:0|0:0,0:0:0:0:
332,242,51370,2,0,L|338:170,1,71.9999978027344,8|2,0:0|0:0,0:0:0:0:
255,127,51707,5,8,0:0:0:0:
73,169,51875,1,0,0:0:0:0:
179,51,52044,5,2,0:0:0:0:
179,208,52212,1,8,0:0:0:0:
122,107,52381,5,2,0:0:0:0:
255,127,52549,1,0,0:0:0:0:
87,262,52717,5,8,0:0:0:0:
73,169,52886,1,2,0:0:0:0:
180,313,53054,6,0,P|251:312|319:289,1,143.999995605469,8|2,0:0|0:0,0:0:0:0:
260,360,53560,1,10,0:0:0:0:
319,289,53728,2,0,L|325:217,1,71.9999978027344,8|2,0:0|0:0,0:0:0:0:
245,168,54065,2,0,L|239:240,1,71.9999978027344,8|2,0:0|0:0,0:0:0:0:
391,152,54402,6,0,L|385:80,1,71.9999978027344,8|2,0:0|0:0,0:0:0:0:
473,114,54738,2,0,L|479:186,1,71.9999978027344,2|8,0:0|0:0,0:0:0:0:
324,217,55075,2,0,L|252:211,1,71.9999978027344,10|8,0:0|0:0,0:0:0:0:
277,302,55412,2,0,L|349:308,1,71.9999978027344,8|2,0:0|0:0,0:0:0:0:
300,49,55748,6,0,P|228:50|160:73,1,143.999995605469,8|2,0:0|0:0,0:0:0:0:
219,0,56254,1,10,0:0:0:0:
211,92,56422,2,0,L|205:164,1,71.9999978027344,8|2,0:0|0:0,0:0:0:0:
197,257,56759,1,8,0:0:0:0:
282,217,56928,1,2,0:0:0:0:
120,204,57096,5,8,0:0:0:0:
111,347,57264,1,0,0:0:0:0:
197,257,57433,5,2,0:0:0:0:
125,110,57601,1,8,0:0:0:0:
35,245,57770,1,2,0:0:0:0:
35,245,58108,5,8,0:0:0:0:
120,204,58275,1,2,0:0:0:0:
129,61,58444,5,8,0:0:0:0:
35,245,58613,1,0,0:0:0:0:
205,163,58780,1,8,0:0:0:0:
41,152,58950,1,8,0:0:0:0:
120,204,59118,1,0,0:0:0:0:
35,245,59287,5,8,0:0:0:0:
205,163,59455,1,8,0:0:0:0:
108,347,59624,1,8,0:0:0:0:
129,61,59792,6,0,P|238:38|318:110,1,191.999994140625,8|0,0:0|0:0,0:0:0:0:
222,4,60297,1,8,0:0:0:0:
231,126,60466,2,0,L|237:198,1,71.9999978027344,0|8,0:0|0:0,0:0:0:0:
345,151,60803,1,8,0:0:0:0:
231,126,60971,1,0,0:0:0:0:
443,229,61140,6,0,P|383:190|315:253,1,160,8|8,0:0|0:0,0:0:0:0:
230,303,61645,2,0,P|310:271|362:337,1,160,8|8,0:0|0:0,0:0:0:0:
222,192,62150,2,0,B|181:181|144:200|144:200|106:218|66:208,1,160,8|0,0:0|0:0,0:0:0:0:
98,130,62656,5,8,0:0:0:0:
222,192,62824,1,0,0:0:0:0:
66,208,62993,1,8,0:0:0:0:
130,52,63161,1,8,0:0:0:0:
279,311,63498,5,0,0:0:0:0:
370,282,63666,1,0,0:0:0:0:
461,253,63835,6,0,P|385:243|309:208,1,160,8|0,0:0|0:0,0:0:0:0:
225,162,64340,2,0,L|232:242,1,80,8|0,0:0|0:0,0:0:0:0:
243,337,64677,1,8,0:0:0:0:
308,110,64845,2,0,P|244:66|167:83,1,160,8|0,0:0|0:0,0:0:0:0:
248,28,65351,5,8,0:0:0:0:
225,162,65519,1,0,0:0:0:0:
168,83,65688,1,8,0:0:0:0:
367,63,65856,5,8,0:0:0:0:
281,243,66025,1,8,0:0:0:0:
248,28,66193,5,8,0:0:0:0:
385,172,66361,1,8,0:0:0:0:
226,338,66529,6,0,P|187:299|177:211,1,138.000002632141,14|0,0:0|0:0,0:0:0:0:
114,331,66867,2,0,P|97:283|94:227,1,92.0000017547608,2|8,0:0|0:0,0:0:0:0:
346,177,67204,2,0,P|371:220|372:263,1,92.0000017547608,0|8,0:0|0:0,0:0:0:0:
226,84,67540,2,0,P|276:72|335:86,1,92.0000017547608,8|2,0:0|0:0,0:0:0:0:
281,243,67876,6,0,L|142:255,1,138.000002632141,14|0,0:0|0:0,0:0:0:0:
77,350,68214,2,0,L|168:341,1,92.0000017547608,8|2,0:0|0:0,0:0:0:0:
281,243,68551,2,0,P|224:222|188:177,1,92.0000017547608,0|8,0:0|0:0,0:0:0:0:
290,129,68888,1,8,0:0:0:0:
275,329,69057,1,2,0:0:0:0:
180,110,69225,6,0,P|238:29|338:27,1,184.000003509522,14|0,0:0|0:0,0:0:0:0:
373,92,69730,1,8,0:0:0:0:
280,220,69899,2,0,L|290:127,1,92.0000017547608,0|8,0:0|0:0,0:0:0:0:
459,202,70236,1,8,0:0:0:0:
449,293,70404,1,6,0:0:0:0:
280,220,70573,6,0,L|371:211,1,92.0000017547608,14|0,0:0|0:0,0:0:0:0:
339,325,70909,1,2,0:0:0:0:
222,296,71078,2,0,L|130:303,1,92.0000017547608,10|0,0:0|0:0,0:0:0:0:
280,220,71415,1,2,0:0:0:0:
240,117,71583,1,8,0:0:0:0:
349,132,71752,1,0,0:0:0:0:
131,102,71920,6,0,P|183:23|243:6,1,138.000002632141,14|0,0:0|0:0,0:0:0:0:
45,141,72257,2,0,P|42:98|54:45,1,92.0000017547608,2|8,0:0|0:0,0:0:0:0:
240,117,72594,2,0,L|247:211,1,92.0000017547608,0|8,0:0|0:0,0:0:0:0:
163,322,72930,2,0,L|152:184,1,138.000002632141,8|0,0:0|0:0,0:0:0:0:
258,71,73268,6,0,L|247:208,1,138.000002632141,14|0,0:0|0:0,0:0:0:0:
349,101,73605,2,0,L|341:199,1,92.0000017547608,0|8,0:0|0:0,0:0:0:0:
433,199,73941,2,0,L|341:192,1,92.0000017547608,0|8,0:0|0:0,0:0:0:0:
453,83,74278,1,8,0:0:0:0:
509,245,74447,1,6,0:0:0:0:
382,319,74614,6,0,P|283:342|196:318,1,184.000003509522,14|0,0:0|0:0,0:0:0:0:
295,384,75121,1,8,0:0:0:0:
382,319,75289,2,0,L|390:228,1,92.0000017547608,0|8,0:0|0:0,0:0:0:0:
343,137,75626,1,8,0:0:0:0:
468,80,75794,1,2,0:0:0:0:
390,227,75963,6,0,B|346:244|300:227|300:227|254:210|210:227|210:227,1,184.000003509522,14|2,0:0|0:0,0:0:0:0:
274,60,76468,1,8,0:0:0:0:
343,137,76636,1,0,0:0:0:0:
190,114,76805,1,8,0:0:0:0:
274,60,76972,1,8,0:0:0:0:
254,197,77142,1,2,0:0:0:0:
137,259,77309,6,0,L|145:350,1,92.0000017547608,14|0,0:0|0:0,0:0:0:0:
241,296,77647,1,0,0:0:0:0:
41,314,77816,2,0,L|33:223,1,92.0000017547608,10|0,0:0|0:0,0:0:0:0:
116,150,78153,1,2,0:0:0:0:
137,259,78321,1,8,0:0:0:0:
33,223,78489,1,6,0:0:0:0:
220,186,78658,6,0,P|192:71|115:40,1,184.000003509522,14|8,0:0|0:0,0:0:0:0:
33,223,79163,1,8,0:0:0:0:
116,150,79332,1,0,0:0:0:0:
12,114,79500,1,8,0:0:0:0:
137,259,79669,1,8,0:0:0:0:
12,114,79837,1,0,0:0:0:0:
54,332,80005,6,0,P|134:369|217:335,1,184.000003509522,14|0,0:0|0:0,0:0:0:0:
137,259,80511,2,0,L|145:168,1,92.0000017547608,8|0,0:0|0:0,0:0:0:0:
237,118,80848,1,8,0:0:0:0:
244,253,81016,1,8,0:0:0:0:
145,167,81185,1,6,0:0:0:0:
334,205,81353,6,0,P|282:135|327:47,1,184.000003509522,14|2,0:0|0:0,0:0:0:0:
417,68,81857,2,0,L|425:159,1,92.0000017547608,8|0,0:0|0:0,0:0:0:0:
334,205,82194,1,8,0:0:0:0:
419,260,82364,1,8,0:0:0:0:
340,104,82532,1,2,0:0:0:0:
328,306,82701,5,14,0:0:0:0:
249,150,82869,1,0,0:0:0:0:
334,205,83037,1,0,0:0:0:0:
158,196,83206,1,8,0:0:0:0:
334,205,83543,5,8,0:0:0:0:
158,196,83711,1,8,0:0:0:0:
255,49,83880,1,6,0:0:0:0:
243,251,84048,6,0,L|236:342,1,92.0000017547608,14|0,0:0|0:0,0:0:0:0:
158,196,84385,1,2,0:0:0:0:
72,249,84553,2,0,L|64:158,1,92.0000017547608,10|0,0:0|0:0,0:0:0:0:
158,196,84890,1,8,0:0:0:0:
255,49,85059,1,8,0:0:0:0:
164,95,85227,1,2,0:0:0:0:
388,103,85396,6,0,P|303:82|249:149,1,184.000003509522,14|2,0:0|0:0,0:0:0:0:
341,194,85901,2,0,L|334:285,1,92.0000017547608,8|0,0:0|0:0,0:0:0:0:
437,247,86238,1,8,0:0:0:0:
341,194,86406,1,8,0:0:0:0:
436,137,86575,1,6,0:0:0:0:
342,304,86743,6,0,P|259:280|204:347,1,184.000003509522,14|2,0:0|0:0,0:0:0:0:
122,286,87249,2,0,L|129:195,1,92.0000017547608,8|0,0:0|0:0,0:0:0:0:
215,245,87585,1,8,0:0:0:0:
122,286,87754,1,8,0:0:0:0:
137,95,87922,1,2,0:0:0:0:
449,174,88090,5,14,0:0:0:0:
235,121,88259,1,0,0:0:0:0:
404,73,88428,1,0,0:0:0:0:
364,243,88596,2,0,P|297:252|242:214,1,138.000002632141,8|0,0:0|0:0,0:0:0:0:
318,163,88933,5,8,0:0:0:0:
249,305,89101,2,0,L|242:214,1,92.0000017547608,8|2,0:0|0:0,0:0:0:0:
227,30,89437,6,0,L|233:107,1,60.0000022888184,10|0,0:0|0:0,0:0:0:0:
139,283,89606,2,0,L|134:223,1,60.0000022888184,2|0,0:0|0:0,0:0:0:0:
267,41,89774,2,0,L|231:90,1,60.0000022888184,4|0,0:0|0:0,0:0:0:0:
175,269,89943,6,0,P|95:214|19:267,1,200,14|0,0:0|0:0,0:0:0:0:
124,146,90785,6,0,P|45:186|20:267,1,176.000005371094,10|0,0:0|0:0,0:0:0:0:
124,146,91294,2,0,P|86:123|42:119,1,88.000002685547,10|0,0:0|0:0,0:0:0:0:
162,245,91634,1,8,0:0:0:0:
228,163,91804,2,0,P|208:81|164:48,1,132.00000402832,10|0,0:0|0:0,0:0:0:0:
301,85,92144,6,0,L|173:52,1,132.00000402832,8|0,0:0|0:0,0:0:0:0:
124,146,92484,1,2,0:0:0:0:
228,163,92654,1,8,0:0:0:0:
301,85,92824,1,2,0:0:0:0:
342,256,92994,1,8,0:0:0:0:
301,85,93164,1,10,0:0:0:0:
279,340,93504,6,0,P|363:358|442:293,1,176.000005371094,10|0,0:0|0:0,0:0:0:0:
277,173,94009,2,0,P|316:153|360:152,1,88.000002685547,10|0,0:0|0:0,0:0:0:0:
342,256,94346,1,8,0:0:0:0:
277,173,94515,1,10,0:0:0:0:
364,114,94683,1,0,0:0:0:0:
342,256,94852,6,0,P|267:278|200:245,1,132.00000402832,8|0,0:0|0:0,0:0:0:0:
340,364,95189,2,0,P|345:320|362:278,1,88.000002685547,2|8,0:0|0:0,0:0:0:0:
214,172,95526,2,0,L|218:259,1,88.000002685547,2|8,0:0|0:0,0:0:0:0:
342,256,95863,2,0,L|336:169,1,88.000002685547,10|8,0:0|0:0,0:0:0:0:
66,193,96200,6,0,P|145:222|214:172,1,176.000005371094,10|0,0:0|0:0,0:0:0:0:
66,193,96705,2,0,P|75:235|103:269,1,88.000002685547,10|0,0:0|0:0,0:0:0:0:
170,188,97042,1,8,0:0:0:0:
71,280,97210,2,0,P|36:181|53:132,1,132.00000402832,10|0,0:0|0:0,0:0:0:0:
100,81,97547,6,0,L|231:73,1,132.00000402832,8|0,0:0|0:0,0:0:0:0:
308,134,97884,1,2,0:0:0:0:
287,228,98052,1,8,0:0:0:0:
373,63,98221,5,2,0:0:0:0:
402,155,98389,1,8,0:0:0:0:
279,40,98558,2,0,P|214:43|160:79,1,132.00000402832,10|0,0:0|0:0,0:0:0:0:
308,134,98895,6,0,P|245:75|144:90,1,176.000005371094,10|0,0:0|0:0,0:0:0:0:
128,244,99401,2,0,P|181:278|227:281,1,88.000002685547,10|0,0:0|0:0,0:0:0:0:
209,175,99737,1,8,0:0:0:0:
128,244,99905,1,2,0:0:0:0:
201,319,100074,1,8,0:0:0:0:
209,175,100242,6,0,P|129:138|77:152,1,132.00000402832,8|0,0:0|0:0,0:0:0:0:
202,104,100579,2,0,L|209:175,1,71.9999978027344,2|8,0:0|0:0,0:0:0:0:
134,331,100916,2,0,L|128:244,1,88.000002685547,2|8,0:0|0:0,0:0:0:0:
334,192,101253,2,0,P|312:234|302:281,1,95.9999970703126,10|8,0:0|0:0,0:0:0:0:
