osu file format v14

[General]
AudioFilename: audio.mp3
AudioLeadIn: 0
PreviewTime: 66529
Countdown: 0
SampleSet: Soft
StackLeniency: 0.3
Mode: 0
LetterboxInBreaks: 0
WidescreenStoryboard: 0

[Editor]
Bookmarks: 836,28750,39578,50358,50359,58444,61139,66529,90785,101590
DistanceSpacing: 1
BeatDivisor: 4
GridSize: 32
TimelineZoom: 1.1

[Metadata]
Title:Yume Tourou
TitleUnicode:夢灯籠
Artist:Konamilk
ArtistUnicode:粉ミルク
Creator:_FlameL
Version:Shunao's Normal
Source:君の名は。
Tags:RADWIMPS Cover Acoustic ver version Kimi no na wa. Your Name. op opening Nikakis ShogunMoon Shunao
BeatmapID:1541169
BeatmapSetID:720433

[Difficulty]
HPDrainRate:4
CircleSize:3.5
OverallDifficulty:4
ApproachRate:5
SliderMultiplier:1
SliderTickRate:1

[Events]
//Background and Video events
0,0,"yourname1.jpg",0,0
//Break Periods
//Storyboard Layer 0 (Background)
//Storyboard Layer 1 (Fail)
//Storyboard Layer 2 (Pass)
//Storyboard Layer 3 (Foreground)
//Storyboard Sound Samples

[TimingPoints]
836,348.837209302326,4,2,1,25,1,0
6068,385.852090032154,4,2,1,25,1,0
6453,348.837209302326,4,2,1,25,1,0
16220,-100,4,2,1,30,0,0
16918,-100,4,2,1,35,0,0
17615,-100,4,2,1,40,0,0
27383,341.880341880342,4,2,1,55,1,0
28750,342.857142857143,4,2,1,65,1,0
31492,337.078651685393,4,2,1,65,1,0
34188,336.889387984279,4,2,1,65,1,0
39578,-100,4,2,1,50,0,0
58444,-100,4,2,1,60,0,0
66024,-100,4,2,1,40,0,0
66529,-100,4,2,2,70,0,1
89437,-100,4,2,2,80,0,1
90785,339.943342776204,4,2,1,65,1,0
93504,337.078651685393,4,2,1,65,1,0
96200,336.889387984279,4,2,1,65,1,0
100579,-100,4,2,1,75,0,0

[Colours]
Combo1 : 114,114,114
Combo2 : 235,148,61
Combo3 : 203,230,51
Combo4 : 52,168,224
Combo5 : 223,101,237
Combo6 : 124,64,225
SliderBorder : 255,255,255
SliderTrackOverride : 18,35,45

[HitObjects]
58,322,836,6,0,L|209:314,1,150,8|2,0:0|0:0,0:0:0:0:
246,282,1533,2,0,L|362:289,1,100,0|2,0:0|0:0,0:0:0:0:
429,233,2231,2,0,P|439:182|423:130,1,100,8|0,0:0|0:0,0:0:0:0:
360,61,2929,1,0,0:0:0:0:
260,72,3277,1,2,0:0:0:0:
170,117,3626,6,0,P|101:129|29:74,2,150,8|2|2,0:0|0:0|0:0,0:0:0:0:
260,72,5022,2,0,L|253:184,1,100,8|0,0:0|0:0,0:0:0:0:
261,221,5545,2,0,P|311:215|360:243,1,100,2|0,0:0|0:0,0:0:0:0:
384,270,6068,1,2,0:0:0:0:
313,347,6453,6,0,B|238:370|242:323|159:348,1,150,8|2,0:0|0:0,0:0:0:0:
116,337,7150,2,0,P|107:288|86:234,1,100,0|2,0:0|0:0,0:0:0:0:
6,184,7848,2,0,P|15:134|32:88,1,100,8|0,0:0|0:0,0:0:0:0:
108,22,8546,1,0,0:0:0:0:
180,91,8894,1,2,0:0:0:0:
272,52,9243,6,0,P|315:37|381:52,1,100,8|0,0:0|0:0,0:0:0:0:
437,116,9941,2,0,L|522:108,2,75,0|0|0,0:0|0:0|0:0,0:0:0:0:
399,149,10639,2,0,L|389:264,1,100,8|0,0:0|0:0,0:0:0:0:
381,297,11162,2,0,P|335:278|276:296,1,100
246,316,11685,1,2,0:0:0:0:
156,360,12034,6,0,L|4:348,1,150,8|2,0:0|0:0,0:0:0:0:
1,298,12732,2,0,P|7:251|30:194,1,100,8|2,0:0|0:0,0:0:0:0:
88,124,13429,2,0,L|198:114,1,100,8|0,0:0|0:0,0:0:0:0:
273,166,14127,1,0,0:0:0:0:
355,108,14476,1,2,0:0:0:0:
427,176,14825,6,0,P|461:230|442:313,2,150,8|2|2,0:0|0:0|0:0,0:0:0:0:
355,108,16220,2,0,L|243:99,1,100,8|2,0:0|0:0,0:0:0:0:
181,32,16918,2,0,L|72:41,1,100,8|2,0:0|0:0,0:0:0:0:
27,124,17615,6,0,P|14:168|42:237,1,100,10|0,0:0|0:0,0:0:0:0:
72,240,18139,2,0,L|65:341,1,100,2|0,0:0|0:0,0:0:0:0:
111,359,18662,1,2,0:0:0:0:
210,372,19011,2,0,P|274:337|357:363,1,150,10|2,0:0|0:0,0:0:0:0:
391,374,19708,2,0,L|490:367,1,100,0|2,0:0|0:0,0:0:0:0:
507,268,20406,6,0,P|494:195|463:115,1,150,10|2,0:0|0:0,0:0:0:0:
417,128,21104,2,0,P|369:131|317:105,1,100,0|2,0:0|0:0,0:0:0:0:
237,57,21801,2,0,L|226:156,1,100,10|0,0:0|0:0,0:0:0:0:
181,245,22499,2,0,L|196:355,1,100,0|2,0:0|0:0,0:0:0:0:
95,362,23197,6,0,P|42:369|-11:344,1,100,10|0,0:0|0:0,0:0:0:0:
6,302,23720,2,0,L|19:192,1,100,2|0,0:0|0:0,0:0:0:0:
25,153,24243,1,2,0:0:0:0:
79,69,24592,2,0,B|160:46|148:106|239:74,1,150,10|2,0:0|0:0,0:0:0:0:
274,70,25290,2,0,L|283:179,1,100,0|2,0:0|0:0,0:0:0:0:
312,265,25987,6,0,P|385:288|467:251,1,150,10|2,0:0|0:0,0:0:0:0:
484,226,26685,2,0,L|493:117,1,100,0|2,0:0|0:0,0:0:0:0:
420,56,27383,1,10,0:0:0:0:
52,230,28750,6,0,P|101:241|160:214,1,100,10|10,0:0|0:0,0:0:0:0:
180,187,29264,2,0,L|169:69,1,100,10|8,0:0|0:0,0:0:0:0:
206,51,29778,1,10,0:0:0:0:
304,31,30121,2,0,P|353:35|395:90,1,100,8|2,0:0|0:0,0:0:0:0:
420,163,30807,2,0,L|487:155,2,50,2|8|10,0:0|0:0|0:0,0:0:0:0:
369,251,31492,6,0,P|324:238|267:253,1,100,10|0,0:0|0:0,0:0:0:0:
241,288,31997,2,0,P|193:303|142:287,1,100,10|8,0:0|0:0,0:0:0:0:
102,266,32503,1,10,0:0:0:0:
28,198,32840,2,0,L|21:86,1,100,8|2,0:0|0:0,0:0:0:0:
38,54,33345,1,8,0:0:0:0:
38,54,33514,2,0,P|86:42|136:66,1,100,2|10,0:0|0:0,0:0:0:0:
221,104,34188,6,0,L|214:220,1,100,10|0,0:0|0:0,0:0:0:0:
238,248,34693,2,0,P|281:261|338:243,1,100,10|8,0:0|0:0,0:0:0:0:
379,228,35198,1,10,0:0:0:0:
470,187,35535,2,0,L|464:76,1,100,8|2,0:0|0:0,0:0:0:0:
367,63,36209,2,0,L|374:6,2,50,2|8|10,0:0|0:0|0:0,0:0:0:0:
266,63,36883,6,0,P|220:49|157:66,1,100,10|0,0:0|0:0,0:0:0:0:
124,79,37388,2,0,L|133:195,1,100,10|8,0:0|0:0,0:0:0:0:
94,212,37893,1,2,0:0:0:0:
139,300,38230,2,0,L|247:294,1,100,8|2,0:0|0:0,0:0:0:0:
250,249,38736,1,8,0:0:0:0:
250,249,38904,2,0,P|255:198|290:145,1,100,2|10,0:0|0:0,0:0:0:0:
326,68,39578,6,0,P|395:91|478:62,1,150,8|8,0:0|0:0,0:0:0:0:
490,114,40252,2,0,L|486:219,1,100,0|8,0:0|0:0,0:0:0:0:
403,270,40925,2,0,L|407:383,2,100,8|0|0,0:0|0:0|0:0,0:0:0:0:
319,213,41936,2,0,L|270:216,1,50
220,229,42273,6,0,P|205:154|195:66,1,150,8|8,0:0|0:0,0:0:0:0:
156,49,42947,2,0,P|109:28|53:39,1,100,0|8,0:0|0:0,0:0:0:0:
24,128,43620,2,0,P|20:178|12:228,2,100,8|0|0,0:0|0:0|0:0,0:0:0:0:
62,35,44631,2,0,L|129:26,1,50,8|0,0:0|0:0,0:0:0:0:
158,47,44968,6,0,B|184:91|184:91|171:189,1,150,8|8,0:0|0:0,0:0:0:0:
127,213,45642,2,0,L|135:328,1,100,0|8,0:0|0:0,0:0:0:0:
225,356,46316,2,0,P|276:338|333:359,1,100,8|0,0:0|0:0,0:0:0:0:
416,370,46989,1,0,0:0:0:0:
494,308,47326,1,8,0:0:0:0:
467,212,47663,6,0,B|387:183|391:243|306:212,1,150,8|8,0:0|0:0,0:0:0:0:
272,202,48337,2,0,L|261:85,1,100,0|8,0:0|0:0,0:0:0:0:
182,41,49011,2,0,P|111:37|57:103,1,150,8|8,0:0|0:0,0:0:0:0:
45,138,49684,2,0,L|55:250,1,100,0|8,0:0|0:0,0:0:0:0:
86,332,50358,6,0,P|155:355|238:326,1,150,8|10,0:0|0:0,0:0:0:0:
268,305,51032,2,0,L|264:241,1,50,0|2,0:0|0:0,0:0:0:0:
233,215,51369,2,0,L|239:149,1,50,8|2,0:0|0:0,0:0:0:0:
241,115,51706,2,0,P|279:85|349:88,1,100,8|2,0:0|0:0,0:0:0:0:
425,107,52380,1,2,0:0:0:0:
483,188,52716,1,8,0:0:0:0:
450,282,53053,6,0,B|374:312|380:255|297:280,1,150,8|2,0:0|0:0,0:0:0:0:
254,283,53727,2,0,L|251:345,1,50,8|2,0:0|0:0,0:0:0:0:
208,359,54064,1,8,0:0:0:0:
108,348,54401,2,0,P|57:337|1:367,2,100,8|8|2,0:0|0:0|0:0,0:0:0:0:
162,263,55412,2,0,L|159:198,1,50,8|2,0:0|0:0,0:0:0:0:
156,162,55748,6,0,P|118:120|12:131,1,150,8|10,0:0|0:0,0:0:0:0:
6,163,56422,2,0,L|1:278,1,100,8|0,0:0|0:0,0:0:0:0:
8,312,56928,1,0,0:0:0:0:
8,312,57096,2,0,P|57:318|102:353,1,100,8|2,0:0|0:0,0:0:0:0:
193,372,57770,1,2,0:0:0:0:
291,353,58107,1,8,0:0:0:0:
378,303,58444,6,0,L|366:192,1,100,8|8,0:0|0:0,0:0:0:0:
322,180,58949,2,0,P|274:193|227:179,1,100,8|8,0:0|0:0,0:0:0:0:
189,146,59454,1,8,0:0:0:0:
231,55,59791,2,0,P|278:40|325:53,1,100,8|0,0:0|0:0,0:0:0:0:
369,77,60296,2,0,L|478:70,1,100,8|8,0:0|0:0,0:0:0:0:
505,105,60802,1,8,0:0:0:0:
475,200,61139,6,0,L|470:321,1,100,8|8,0:0|0:0,0:0:0:0:
449,345,61644,2,0,P|404:358|352:341,1,100,8|8,0:0|0:0,0:0:0:0:
309,320,62149,1,8,0:0:0:0:
234,189,62655,2,0,L|135:182,1,100,8|8,0:0|0:0,0:0:0:0:
95,150,63160,1,8,0:0:0:0:
32,226,63497,2,0,P|25:253|23:287,1,50,0|0,0:0|0:0,0:0:0:0:
27,324,63834,6,0,P|73:313|125:337,1,100,8|0,0:0|0:0,0:0:0:0:
161,360,64339,2,0,L|260:351,1,100,8|8,0:0|0:0,0:0:0:0:
310,345,64844,1,8,0:0:0:0:
437,265,65350,2,0,L|492:270,2,50,8|0|8,0:0|0:0|0:0,0:0:0:0:
394,238,65855,1,8,0:0:0:0:
394,238,66024,2,0,B|378:193|378:193|393:133,1,100,8|8,0:0|0:0,0:0:0:0:
402,93,66529,6,0,P|351:97|307:69,1,100,14|2,0:0|0:0,0:0:0:0:
263,55,67034,2,0,L|257:158,1,100
228,196,67540,1,8,0:0:0:0:
132,168,67876,2,0,P|78:161|31:191,1,100,14|8,0:0|0:0,0:0:0:0:
3,275,68550,1,0,0:0:0:0:
70,348,68887,1,8,0:0:0:0:
165,319,69224,6,0,L|279:325,1,100,14|0,0:0|0:0,0:0:0:0:
307,297,69729,1,8,0:0:0:0:
307,297,69898,2,0,P|301:248|299:183,1,100,0|8,0:0|0:0,0:0:0:0:
319,151,70403,1,2,0:0:0:0:
319,151,70572,2,0,P|364:128|423:144,1,100,14|2,0:0|0:0,0:0:0:0:
459,147,71077,2,0,P|456:199|450:254,1,100,10|2,0:0|0:0,0:0:0:0:
433,294,71582,1,8,0:0:0:0:
350,350,71919,6,0,P|306:339|246:365,1,100,14|2,0:0|0:0,0:0:0:0:
205,356,72424,2,0,L|195:240,1,100
162,219,72930,1,8,0:0:0:0:
246,164,73267,2,0,L|255:52,1,100,14|0,0:0|0:0,0:0:0:0:
164,20,73940,1,0,0:0:0:0:
71,55,74277,1,8,0:0:0:0:
47,152,74614,6,0,B|34:187|34:187|47:252,1,100,14|0,0:0|0:0,0:0:0:0:
64,295,75120,1,8,0:0:0:0:
64,295,75288,2,0,P|110:284|158:307,1,100,0|8,0:0|0:0,0:0:0:0:
187,344,75793,1,2,0:0:0:0:
187,344,75962,2,0,L|288:341,1,100,14|2,0:0|0:0,0:0:0:0:
386,357,76636,1,0,0:0:0:0:
464,295,76972,1,8,0:0:0:0:
436,198,77309,6,0,L|442:142,2,50,14|0|0,0:0|0:0|0:0,0:0:0:0:
385,204,77815,2,0,P|340:191|282:219,1,100,10|2,0:0|0:0,0:0:0:0:
249,235,78320,1,8,0:0:0:0:
163,286,78657,2,0,L|43:274,1,100,14|8,0:0|0:0,0:0:0:0:
6,193,79331,2,0,L|-3:133,1,50,0|8,0:0|0:0,0:0:0:0:
38,113,79668,2,0,L|47:53,1,50,8|0,0:0|0:0,0:0:0:0:
79,27,80004,6,0,P|123:22|179:67,1,100,14|0,0:0|0:0,0:0:0:0:
208,81,80510,2,0,L|197:184,1,100,8|8,0:0|0:0,0:0:0:0:
218,226,81015,1,8,0:0:0:0:
315,205,81352,2,0,P|362:191|414:205,1,100,14|2,0:0|0:0,0:0:0:0:
455,224,81857,2,0,L|445:346,1,100,8|8,0:0|0:0,0:0:0:0:
414,362,82363,1,8,0:0:0:0:
317,336,82700,6,0,P|289:325|210:357,1,100,14|0,0:0|0:0,0:0:0:0:
175,356,83205,2,0,L|71:351,1,100,8|8,0:0|0:0,0:0:0:0:
40,315,83710,1,8,0:0:0:0:
42,214,84047,2,0,L|30:147,2,50,14|0|2,0:0|0:0|0:0,0:0:0:0:
88,233,84552,2,0,L|200:223,1,100,10|8,0:0|0:0,0:0:0:0:
221,186,85058,1,8,0:0:0:0:
316,216,85395,6,0,P|333:262|332:323,1,100,14|2,0:0|0:0,0:0:0:0:
329,362,85900,2,0,L|442:355,1,100,8|8,0:0|0:0,0:0:0:0:
464,320,86405,2,0,P|467:291|475:260,1,50,8|2,0:0|0:0,0:0:0:0:
505,234,86742,2,0,P|502:185|484:117,1,100,14|2,0:0|0:0,0:0:0:0:
468,90,87248,2,0,P|435:98|371:66,1,100,8|8,0:0|0:0,0:0:0:0:
334,44,87753,1,8,0:0:0:0:
237,70,88090,6,0,L|175:63,2,50,14|0|0,0:0|0:0|0:0,0:0:0:0:
271,106,88595,2,0,P|286:156|269:216,1,100,8|8,0:0|0:0,0:0:0:0:
252,246,89100,1,8,0:0:0:0:
171,305,89437,2,0,L|176:358,2,50,14|2|2,0:0|0:0|0:0,0:0:0:0:
127,279,89943,1,14,0:0:0:0:
33,48,90785,6,0,P|77:30|135:32,1,100,10|0,0:0|0:0,0:0:0:0:
178,38,91294,2,0,L|171:144,1,100,10|8,0:0|0:0,0:0:0:0:
213,165,91804,1,10,0:0:0:0:
294,222,92144,2,0,L|301:330,1,100,8|2,0:0|0:0,0:0:0:0:
342,349,92654,1,8,0:0:0:0:
342,349,92824,2,0,P|387:363|445:346,1,100,2|10,0:0|0:0,0:0:0:0:
493,266,93504,6,0,L|501:156,1,100,10|0,0:0|0:0,0:0:0:0:
485,118,94009,2,0,P|439:132|386:117,1,100,10|8,0:0|0:0,0:0:0:0:
350,88,94515,1,10,0:0:0:0:
259,131,94852,2,0,L|254:243,1,100,8|2,0:0|0:0,0:0:0:0:
245,279,95357,1,8,0:0:0:0:
245,279,95526,2,0,P|197:261|133:276,1,100,2|10,0:0|0:0,0:0:0:0:
52,290,96200,6,0,L|45:176,1,100,10|0,0:0|0:0,0:0:0:0:
50,140,96705,2,0,P|93:153|150:135,1,100,10|8,0:0|0:0,0:0:0:0:
188,114,97210,1,10,0:0:0:0:
278,72,97547,2,0,P|327:62|375:76,1,100,8|2,0:0|0:0,0:0:0:0:
418,99,98052,1,8,0:0:0:0:
418,99,98221,2,0,L|413:209,1,100,2|10,0:0|0:0,0:0:0:0:
318,230,98895,6,0,P|272:216|209:233,1,100,10|0,0:0|0:0,0:0:0:0:
177,249,99400,2,0,L|186:365,1,100,10|8,0:0|0:0,0:0:0:0:
230,369,99905,1,2,0:0:0:0:
329,356,100242,2,0,P|377:337|437:350,1,100,8|2,0:0|0:0,0:0:0:0:
471,328,100748,1,8,0:0:0:0:
471,328,100916,2,0,L|477:221,1,100,2|10,0:0|0:0,0:0:0:0:
453,183,101421,5,8,0:0:0:0:
